osu file format v14

[General]
AudioFilename: audio.mp3
AudioLeadIn: 0
PreviewTime:26796
Countdown: 1
SampleSet: Soft
StackLeniency: 0.3
Mode: 0
LetterboxInBreaks: 0
WidescreenStoryboard: 0

[Editor]
Bookmarks: 45911,56265
DistanceSpacing: 1.2
BeatDivisor: 6
GridSize: 4
TimelineZoom: 2.2

[Metadata]
Title:Lotus of Haftkarsvar
TitleUnicode:七域的蕖华
Artist:HOYO-MiX
ArtistUnicode:HOYO-MiX
Creator:ScubDomino
Version:Dance of Sabzeruz
Source:Genshin Impact
Tags:妮露 ニィロウ にぃろう نیلو Nilou Theme 闪耀的群星3 The Stellar Moments vol. volume 3 inaugural character album Mihoyo HoYoverse OST demo trailer Sumeru Zubayr Theatre Theater instrumental neofolk persian arabian modern traditional folk orchestral video game games gacha hydro Hisako Kanemoto 金元 寿子 ひさこ かねもと anime girl anime_girl jungkyuyoung natsume shiki natsume_shiki scub domino [keqing] 8972308 left island jaehyeok 5062061 kazato asa kazato_asa shikibe mayu shikibe_mayu ayesha altugle ayesha_altugle Shizuku- shizukup vahn10 1125647 nik nikolomara 10077264 Dimeng Yuan 苑迪萌 Yu-Peng Chen Zhiyi 陈致逸 RPG action open world 原神 Yuánshén yuanshen fantasy @HOYO-MiX Dance of Lotuslight the Delicate Lotus 絨毯に舞い落ちる蓮光 莲光落舞筵 Twirling Lotos Somno ahriii ahriii7 aaaalililili qiqi~ kdka4748 奇奇- 奇奇-ahriii 七域の蓮華 Seven Regions
BeatmapID:3939854
BeatmapSetID:1910088

[Difficulty]
HPDrainRate:5
CircleSize:5
OverallDifficulty:8
ApproachRate:9
SliderMultiplier:2.2
SliderTickRate:1

[Events]
//Background and Video events
0,0,"ahriii7.jpg",0,0
//Break Periods
//Storyboard Layer 0 (Background)
//Storyboard Layer 1 (Fail)
//Storyboard Layer 2 (Pass)
//Storyboard Layer 3 (Foreground)
//Storyboard Layer 4 (Overlay)
//Storyboard Sound Samples
Sample,2298,0,"nilou ;wholesome;.ogg",70

[TimingPoints]
1059,909.090909090909,4,2,1,35,1,0
1513,-100,4,2,1,45,0,0
1923,1200,4,2,2,50,1,0
3623,1000,4,2,1,45,1,0
3873,1348.31460674157,4,2,1,45,1,0
4323,1132.07547169811,4,2,1,45,1,0
4889,-100,4,2,1,35,0,0
5077,-100,4,2,1,45,0,0
5455,1420.11834319527,4,2,2,45,1,0
6165,-100,4,2,1,45,0,0
6875,1212.12121212121,4,2,1,50,1,0
6875,-166.666666666667,4,2,1,50,0,0
10511,1420.11834319527,4,2,1,50,1,0
11931,1200,4,2,1,50,1,0
11931,-53.763440860215,4,2,1,50,0,0
13731,-50,4,2,1,50,0,0
14031,-100,4,2,1,35,0,0
14437,1304.34782608696,4,2,1,50,1,0
14437,-53.763440860215,4,2,1,50,0,0
15089,-53.763440860215,4,2,1,45,0,0
15306,-53.763440860215,4,2,2,50,0,0
15333,-100,4,2,2,50,0,0
17045,1113.17254174397,4,2,1,45,1,0
17045,-50,4,2,1,45,0,0
18158,1259.1815320042,4,2,2,45,1,0
18158,-500,4,2,2,45,0,0
21725,-500,4,2,1,45,0,0
21941,1200,4,2,1,45,1,0
21941,-133.333333333333,4,2,1,45,0,0
22541,-133.333333333333,4,2,2,25,0,0
23141,-133.333333333333,4,2,1,40,0,0
24351,652.173913043478,4,2,1,50,1,0
26959,-200,4,2,1,45,0,0
28264,-133.333333333333,4,2,1,55,0,0
29568,-117.647058823529,4,2,1,60,0,0
30872,-90.9090909090909,4,2,2,70,0,0
32177,-83.3333333333333,4,2,2,80,0,0
35764,-100,4,2,2,80,0,0
36090,-66.6666666666667,4,2,2,80,0,0
37068,-100,4,2,2,80,0,0
37394,-83.3333333333333,4,2,2,80,0,0
40003,-71.4285714285714,4,2,2,80,0,0
40818,-100,4,2,2,80,0,0
41307,-66.6666666666667,4,2,2,80,0,0
42611,-62.5,4,2,2,80,0,0
43590,-76.9230769230769,4,2,2,80,0,0
44242,-100,4,2,2,80,0,0
45220,-62.5,4,2,2,80,0,0
45709,-71.4285714285714,4,2,2,80,0,0
46198,-76.9230769230769,4,2,2,80,0,0
46851,-100,4,2,2,80,0,0
47829,-62.5,4,2,2,80,0,0
48318,-71.4285714285714,4,2,2,80,0,0
48807,-76.9230769230769,4,2,2,80,0,0
49460,-100,4,2,2,80,0,0
50437,-62.5,4,2,2,80,0,0
51416,-83.3333333333333,4,2,2,80,0,0
51742,-66.6666666666667,4,2,2,80,0,0
53155,-66.6666666666667,4,2,1,80,0,0
53916,-285.714285714284,4,2,1,60,0,0
55655,-285.714285714284,4,2,2,60,0,0
56307,-285.714285714284,4,2,1,60,0,0
57611,-285.714285714284,4,2,2,60,0,0
57937,-285.714285714284,4,2,1,60,0,0
59568,-181.818181818181,4,2,2,50,0,0
59785,-181.818181818181,4,2,1,60,0,0
60220,-181.818181818181,4,2,2,50,0,0
60437,-181.818181818181,4,2,1,60,0,0
60872,-181.818181818181,4,2,2,60,0,0
60981,-181.818181818181,4,2,1,60,0,0
63481,-133.333333333333,4,2,1,60,0,0
64785,-111.111111111111,4,2,1,60,0,0
67394,-83.3333333333333,4,2,1,60,0,0
68046,-83.3333333333333,4,2,1,50,0,0
68264,-83.3333333333333,4,2,1,60,0,0
68481,-66.6666666666667,4,2,1,70,0,0
68698,-66.6666666666667,4,2,1,80,0,0
70288,-66.6666666666667,4,2,1,80,0,0
71266,-50,4,2,1,80,0,0
71919,-40,4,2,1,80,0,0
73875,-50,4,2,1,80,0,0
74310,-66.6666666666667,4,2,1,80,0,0
74962,-66.6666666666667,4,2,1,80,0,0
76266,-50,4,2,1,80,0,0
76919,-40,4,2,1,80,0,0
79076,-50,4,2,1,80,0,0
79527,-66.6666666666667,4,2,1,80,0,0
82571,-100,4,2,1,80,0,0
83046,-125,4,2,1,80,0,0
84350,-83.3333333333333,4,2,1,80,0,0
84997,-83.3333333333333,4,2,1,75,0,0
85649,-83.3333333333333,4,2,1,60,0,0
86302,-83.3333333333333,4,2,1,55,0,0
86953,-83.3333333333333,4,2,1,50,0,0
87606,-83.3333333333333,4,2,1,45,0,0
90057,-222.222222222221,4,2,1,45,0,0
94350,687.679083094556,4,2,1,45,1,0
94785,-222.222222222221,4,2,2,45,0,0
94867,664.819944598338,4,2,2,45,1,0
95865,674.157303370787,4,2,2,45,1,0
96117,909.090909090909,4,2,2,45,1,0
96571,967.741935483871,4,2,2,45,1,0
97054,1108.54503464203,4,2,2,45,1,0
97608,1200,4,2,2,45,1,0
97608,-400,4,2,2,45,0,0
99133,652.173913043478,4,2,1,50,1,0
99133,-111.111111111111,4,2,1,50,0,0
99242,-111.111111111111,4,2,2,5,0,0

[Colours]
Combo1 : 199,225,91
Combo2 : 39,190,228
Combo3 : 240,207,176
Combo4 : 234,118,68

[HitObjects]
255,384,1059,5,0,0:0:0:0:
287,277,1318,5,0,0:0:0:0:
254,223,1513,5,0,0:0:0:0:
224,221,1923,5,4,0:0:0:0:
233,0,3523,5,0,0:0:0:0:
233,0,3623,1,0,0:0:0:0:
208,65,3873,1,0,0:0:0:0:
256,192,4323,5,8,0:1:0:0:
184,309,4700,5,0,0:2:0:0:
330,329,4889,1,0,0:0:0:0:
264,369,5030,1,0,0:0:0:0:
250,336,5172,1,0,0:0:0:0:
250,304,5313,1,0,0:0:0:0:
262,285,5455,1,0,0:2:0:0:
246,136,6431,5,0,0:0:0:0:
225,204,6875,5,4,0:1:0:0:
291,186,7481,5,2,0:1:0:0:
131,224,10511,2,0,P|134:197|119:150,1,68.75
64,111,11398,1,0,0:0:0:0:
31,180,11931,6,0,B|18:273|190:371|303:231|303:231|193:239|227:169|117:156,1,562.650017599984,4|0,0:2|0:0,0:0:0:0:
64,114,13731,2,0,B|57:100|67:85|67:85|68:97|75:117,1,55
123,157,14031,2,0,P|129:187|133:214,1,55
139,220,14437,2,0,B|199:229|179:238|255:251,1,102.300003199997,4|0,0:1|0:0,0:0:0:0:
303,252,14926,1,0,0:0:0:0:
350,301,15089,1,0,0:0:0:0:
415,289,15333,6,0,B|486:273|514:343|514:343|464:341|435:367,1,206.25
347,270,17045,6,0,B|282:246|216:309|237:377|237:377|287:395|346:380|363:325,1,330,2|0,0:1|0:0,0:0:0:0:
415,289,18158,2,0,P|422:303|423:286,1,44,4|0,0:0|0:0,0:0:0:0:
464,62,21778,5,0,0:0:0:0:
510,116,21941,2,0,P|489:184|461:249,1,123.750004720688
392,309,23141,5,0,0:0:0:0:
392,309,26959,6,0,P|369:341|368:382,1,73.3333333333333,8|0,0:1|0:0,0:0:0:0:
438,364,27611,5,0,0:0:0:0:
401,305,27829,1,0,0:0:0:0:
421,239,28046,1,0,0:0:0:0:
482,206,28264,6,0,B|495:199|509:203|509:203|496:208|485:221,1,55.0000020980836,2|0,0:1|0:0,0:0:0:0:
421,239,28698,1,0,0:0:0:0:
361,202,28916,6,0,B|348:194|344:180|344:180|355:188|372:191,1,55.0000020980836
421,239,29350,1,0,0:0:0:0:
337,321,29568,6,0,P|264:311|233:228,1,124.666669044495,4|0,0:2|0:0,0:0:0:0:
234,268,30220,1,0,0:0:0:0:
179,230,30437,1,0,0:0:0:0:
90,236,30655,1,0,0:0:0:0:
14,301,30872,38,0,B|-19:323|-14:363|15:388|15:388|54:389|84:362|81:327,1,201.666672821045,4|0,0:0|0:0,0:0:0:0:
14,301,31524,5,0,0:0:0:0:
19,280,31633,5,0,0:0:0:0:
45,248,31742,5,0,0:0:0:0:
110,230,31850,5,0,0:0:0:0:
168,184,31959,5,0,0:0:0:0:
180,110,32068,5,0,0:0:0:0:
135,48,32177,6,0,P|55:56|11:139,1,131.99999597168,4|0,1:1|0:0,0:0:0:0:
65,23,32666,2,0,B|79:8|78:-9|78:-9|61:-1|57:23,1,65.9999979858399,0|0,2:1|3:0,0:0:0:0:
247,131,33155,2,0,P|290:136|325:143,1,65.9999979858399,0|0,1:0|0:0,0:0:0:0:
383,128,33481,6,0,P|394:62|411:-2,1,131.99999597168,0|0,3:3|0:0,0:0:0:0:
410,0,33970,1,8,0:3:0:0:
354,62,34133,2,0,B|328:65|295:38|295:38|331:34|360:49,1,131.99999597168,8|8,3:1|0:3,0:0:0:0:
227,58,34622,1,0,1:0:0:0:
227,58,34785,6,0,B|155:50|175:82|43:63,1,131.99999597168,0|0,1:0|0:0,0:0:0:0:
27,62,35274,2,0,P|7:64|28:54,1,65.9999979858399,0|0,1:0|3:0,0:0:0:0:
146,136,35764,2,0,P|173:141|199:148,1,55,0|0,1:0|0:0,0:0:0:0:
253,200,36090,6,0,B|279:230|348:225|368:190|364:130|316:107|270:160|305:189,1,165.000006294251,4|8,3:2|0:3,0:0:0:0:
362,228,36579,2,0,B|411:171|370:102|313:109|302:143|318:146,1,165.000006294251,8|0,0:1|0:0,0:0:0:0:
259,196,37068,2,0,P|263:216|253:199,1,55,0|8,0:0|0:3,0:0:0:0:
128,279,37394,6,0,P|57:292|-23:323,1,131.99999597168,2|0,1:3|0:0,0:0:0:0:
0,311,37883,1,0,0:0:0:0:
60,261,38046,2,0,B|71:242|61:227|61:227|44:240|51:261,1,65.9999979858399,0|0,3:0|0:0,0:0:0:0:
178,340,38372,2,0,B|253:348|225:382|353:391,2,131.99999597168,0|0|8,1:0|3:0|0:3,0:0:0:0:
132,284,39187,6,0,P|134:251|145:220,1,65.9999979858399,8|8,0:1|3:2,0:0:0:0:
218,210,39514,1,8,0:3:0:0:
361,278,39677,2,0,P|367:335|382:384,1,98.9999969787599,0|0,1:0|0:0,0:0:0:0:
383,380,40003,6,0,B|426:404|465:375|465:375|458:314|405:311,1,153.999995300293,2|0,1:0|0:0,0:0:0:0:
344,280,40492,2,0,B|347:304|367:315|367:315|356:298|358:270,1,76.9999976501466,0|0,1:0|3:0,0:0:0:0:
273,292,40818,5,0,1:0:0:0:
124,376,40981,2,0,P|97:370|74:354,1,55
216,346,41307,6,0,P|195:241|143:335,1,247.500009441376,4|0,3:2|0:0,0:0:0:0:
216,346,41959,5,8,3:2:0:0:
248,287,42068,5,0,0:0:0:0:
236,220,42177,5,0,0:0:0:0:
186,177,42285,5,8,0:2:0:0:
118,176,42394,5,0,0:0:0:0:
66,217,42503,5,0,0:0:0:0:
49,281,42611,6,0,B|66:317|120:324|150:295|150:295|155:261|139:240|101:236,1,176,6|0,1:3|0:0,0:0:0:0:
0,362,43100,2,0,P|85:339|172:325,1,176,4|0,2:3|0:0,0:0:0:0:
129,145,43590,6,0,B|82:125|52:147|52:147|43:197|105:251,1,142.99999345398,4|0,1:3|3:3,0:0:0:0:
137,216,44079,1,0,0:0:0:0:
206,200,44242,2,0,B|211:224|200:250|200:250|235:239|233:208,1,110,4|8,2:3|3:1,0:0:0:0:
499,309,44894,2,0,P|473:301|446:295,1,55,8|0,0:3|1:0,0:0:0:0:
296,156,45220,6,0,B|312:117|368:115|368:115|397:158|374:199,1,176,4|0,1:3|0:0,0:0:0:0:
306,231,45709,2,0,P|391:211|470:212,1,153.999995300293,4|0,2:3|0:0,0:0:0:0:
262,328,46198,6,0,P|216:258|259:182,1,142.99999345398,4|4,1:3|3:2,0:0:0:0:
483,293,46742,5,0,2:0:0:0:
422,321,46959,5,0,2:0:0:0:
396,384,47177,5,8,3:2:0:0:
195,306,47503,2,0,P|149:296|116:294,1,55,4|8,2:3|0:3,0:0:0:0:
72,215,47829,6,0,B|79:309|110:274|118:384,1,176,2|0,1:1|0:0,0:0:0:0:
141,295,48318,1,4,2:3:0:0:
81,145,48481,2,0,B|101:117|109:116|109:116|96:133|98:181,1,76.9999976501466,0|0,3:0|0:0,0:0:0:0:
143,222,48807,6,0,P|67:235|-5:259,2,142.99999345398,4|0|12,2:3|3:0|0:3,0:0:0:0:
206,183,49622,2,0,B|217:195|219:219|219:219|216:227|214:234,1,55,8|8,0:1|3:2,0:0:0:0:
497,294,50111,2,0,P|470:291|442:284,1,55,0|0,1:0|0:0,0:0:0:0:
356,260,50437,6,0,B|351:227|375:203|375:203|448:226|446:318,1,176,4|0,1:3|0:0,0:0:0:0:
346,384,50927,2,0,P|302:380|261:339,1,88,4|0,1:3|3:0,0:0:0:0:
284,281,51253,5,0,1:0:0:0:
383,325,51416,2,0,P|451:332|527:353,1,132,4|4,0:3|3:2,0:0:0:0:
450,254,51905,6,0,P|381:289|313:140,1,247.500009441376,0|8,0:0|3:2,0:0:0:0:
343,24,52503,5,0,0:0:0:0:
383,53,52612,5,0,0:0:0:0:
394,100,52721,5,8,1:2:0:0:
373,146,52829,5,0,0:0:0:0:
256,105,53046,5,4,1:1:0:0:
388,230,53916,6,0,P|402:236|420:240,1,25.6666658833822
475,260,54350,1,4,0:0:0:0:
130,341,55220,6,0,P|116:347|98:351,1,25.6666658833822
43,371,55654,1,4,0:2:0:0:
236,132,56307,5,0,0:0:0:0:
209,66,56524,1,0,0:0:0:0:
250,9,56742,1,0,0:0:0:0:
336,78,56959,5,4,0:1:0:0:
221,204,57611,5,0,0:0:0:0:
290,376,58264,6,0,L|286:354,1,17.1111105889215,2|0,0:1|0:0,0:0:0:0:
227,313,58553,2,0,L|222:336,1,17.1111105889215
289,107,59568,6,0,P|290:85|294:61,1,40.333334564209,2|0,0:0|0:0,0:0:0:0:
308,0,60003,1,0,0:0:0:0:
221,138,60220,6,0,P|220:116|216:92,1,40.333334564209,2|0,0:0|0:0,0:0:0:0:
202,31,60655,1,0,0:0:0:0:
289,163,60872,6,0,L|291:142,1,20.1666672821045,4|0,0:0|0:0,0:0:0:0:
276,252,61524,5,0,0:0:0:0:
303,318,61741,1,0,0:0:0:0:
262,375,61959,1,0,0:0:0:0:
176,306,62177,6,0,P|150:315|134:323,1,40.333334564209,4|0,0:0|0:0,0:0:0:0:
58,363,62611,2,0,P|67:337|71:319,1,40.333334564209
76,231,63046,2,0,P|93:252|106:264,1,40.333334564209
176,306,63481,6,0,B|237:297|227:320|308:316,1,110.000004196167,8|0,0:1|0:0,0:0:0:0:
349,347,64133,1,2,0:0:0:0:
458,314,64350,2,0,B|486:315|481:304|512:309,1,55.0000020980836
448,384,64785,6,0,P|426:312|408:240,1,131.99999597168,2|0,0:0|0:0,0:0:0:0:
393,112,65437,5,2,0:0:0:0:
371,46,65655,1,0,0:0:0:0:
422,0,65873,1,0,0:0:0:0:
472,166,66090,5,2,0:1:0:0:
256,110,66524,5,8,0:3:0:0:
40,54,66959,5,4,0:3:0:0:
414,258,67394,6,0,P|353:311|365:214,1,219.999993286133,4|0,1:3|0:0,0:0:0:0:
414,258,68046,5,0,0:1:0:0:
414,290,68155,5,0,0:1:0:0:
399,325,68264,5,0,0:1:0:0:
355,361,68372,5,0,0:1:0:0:
289,378,68481,5,0,0:1:0:0:
215,350,68590,5,0,0:1:0:0:
173,265,68698,6,0,B|70:221|1:288|-13:285|-13:285|1:288|-1:368|123:405,1,330.000012588501,4|2,1:1|0:0,0:0:0:0:
242,283,69568,1,0,3:0:0:0:
138,331,69785,2,0,P|142:367|160:402,1,55.0000020980836,0|0,1:0|0:0,0:0:0:0:
298,238,70003,6,0,B|317:182|288:130|288:130|235:158|222:227,1,220.000008392334,10|0,0:0|0:0,0:0:0:0:
416,348,70655,6,0,P|493:328|529:274,1,110.000004196167,2|0,0:0|3:0,0:0:0:0:
505,238,71090,1,0,1:0:0:0:
380,237,71307,6,0,P|424:179|433:108,1,146.666666666667,2|0,1:2|0:0,0:0:0:0:
360,49,71742,1,0,3:0:0:0:
193,160,71960,6,0,P|181:70|126:0,1,183.333333333333,2|8,0:0|2:3,0:0:0:0:
8,11,72395,1,4,2:3:0:0:
62,221,72612,5,14,0:0:0:0:
131,191,72720,1,0,0:0:0:0:
71,147,72829,1,0,0:0:0:0:
75,217,72938,5,0,0:0:0:0:
120,181,73046,1,4,2:3:0:0:
67,160,73155,1,0,0:0:0:0:
84,212,73264,5,2,0:0:0:0:
111,175,73372,1,0,0:0:0:0:
67,171,73481,1,0,2:1:0:0:
90,206,73590,5,0,0:0:0:0:
103,173,73698,1,0,1:1:0:0:
69,179,73807,1,0,0:0:0:0:
10,303,73916,6,0,P|105:237|242:237,1,220,2|0,1:1|0:0,0:0:0:0:
272,263,74351,2,0,P|281:228|273:197,1,55.0000020980836
327,358,74568,6,0,B|323:385|289:390|289:390|263:362|290:333,1,110.000004196167,2|0,0:0|3:0,0:0:0:0:
332,289,75003,1,0,1:0:0:0:
485,275,75220,6,0,P|528:173|480:83,1,220.000008392334,10|0,0:0|0:0,0:0:0:0:
183,0,75873,6,0,P|193:61|228:104,1,110.000004196167,2|0,0:0|3:0,0:0:0:0:
289,119,76307,1,0,1:0:0:0:
155,180,76525,6,0,P|212:224|283:236,1,146.666666666667,2|0,1:2|0:0,0:0:0:0:
366,191,76959,1,0,3:0:0:0:
316,374,77177,6,0,P|405:362|479:310,1,183.333333333333,2|8,0:0|2:3,0:0:0:0:
512,197,77611,1,4,2:3:0:0:
258,203,77829,5,14,0:0:0:0:
236,275,77937,1,0,0:0:0:0:
307,256,78046,1,0,0:0:0:0:
252,215,78155,5,0,0:0:0:0:
250,272,78263,1,4,1:3:0:0:
299,245,78372,1,0,0:0:0:0:
249,225,78481,5,2,0:0:0:0:
259,269,78589,1,0,0:0:0:0:
292,239,78698,1,8,2:3:0:0:
250,233,78807,5,0,0:0:0:0:
266,264,78915,1,4,2:3:0:0:
284,235,79024,1,0,0:0:0:0:
177,249,79133,6,0,B|141:246|109:207|116:162|115:155|115:155|122:155|166:138|221:161|218:210,1,220,8|0,1:1|0:0,0:0:0:0:
226,302,79568,2,0,P|190:321|152:320,1,55.0000020980836
250,234,79786,5,2,0:0:0:0:
376,275,80003,1,0,3:0:0:0:
435,384,80220,1,0,1:0:0:0:
470,149,80438,6,0,P|403:236|224:213,1,275.000010490418,10|0,0:0|0:0,0:0:0:0:
204,166,81090,6,0,B|201:150|211:140|211:140|210:157|219:173,1,55.0000020980836,2|0,0:0|0:0,0:0:0:0:
193,285,81307,2,0,B|208:290|212:304|212:304|197:294|179:294,1,55.0000020980836,0|0,3:2|3:2,0:0:0:0:
91,215,81525,2,0,B|78:225|64:221|64:221|80:214|89:198,1,55.0000020980836,0|0,1:0|0:0,0:0:0:0:
156,86,81742,5,2,1:2:0:0:
112,136,81873,1,0,0:0:0:0:
48,123,82003,1,0,0:0:0:0:
92,73,82133,2,0,B|202:34|175:122|301:77,1,198.000007553101
353,15,82612,6,0,P|348:32|348:50,1,36.6666666666667,8|0,1:3|0:0,0:0:0:0:
420,45,82829,1,4,1:3:0:0:
483,196,83046,6,0,P|506:81|403:139,1,293.333333333333,4|0,1:2|0:0,0:0:0:0:
303,272,84350,22,0,B|286:311|304:356|370:363|353:374|359:383|359:383|362:373|342:367|397:342|404:297|372:261|372:261|372:261|372:261|388:301|433:320|484:278|479:298|490:301|490:301|485:291|468:301|489:245|461:207|413:205|413:205|413:205|413:205|453:222|498:204|505:138|516:155|525:149|525:149|515:146|509:165|484:110|439:104|402:136|402:136|404:137|404:137|443:121|462:76|421:25|440:29|443:19|443:19|433:24|443:41|388:21|351:47|347:95|347:95|347:95|347:95|363:56|346:11|279:3|297:-6|291:-15|291:-15|287:-5|307:-1|252:24|245:70|277:106|277:106|278:105|278:105|261:66|216:46|165:88|170:68|159:66|159:66|164:75|182:66|161:122|188:159|237:162|237:162|236:161|236:161|196:145|151:163|144:229|133:212|124:218|124:218|135:221|140:201|165:256|210:263|247:231|247:231|246:229|246:229|206:246|187:291|229:342|209:337|206:348|206:348|216:343|206:325|263:347|300:319|303:270,1,2111.99993554688,4|2,1:1|0:1,0:0:0:0:
137,300,90057,22,0,B|59:302|73:339|-18:349,1,148.49999546814
0,262,91307,1,0,0:0:0:0:
0,262,91796,2,0,P|19:266|30:269,1,24.74999924469
38,339,92177,6,0,B|67:383|144:377|184:345|191:264|104:227|79:288|97:305,1,247.4999924469,4|0,0:0|0:0,0:0:0:0:
92,294,93916,5,0,0:0:0:0:
213,329,94350,5,0,0:0:0:0:
256,384,94867,5,4,0:0:0:0:
208,158,95865,1,0,0:0:0:0:
251,102,96117,5,2,0:0:0:0:
208,158,96571,1,0,0:0:0:0:
196,227,97054,1,0,0:2:0:0:
204,308,97608,6,0,P|203:327|205:308,1,55
168,189,99133,2,0,B|161:211|170:238|204:243|228:233|233:199|233:199|244:61|444:67|481:209|481:209|490:239|467:271|434:266|420:244|420:244|364:177|301:223|301:223|357:202|424:239|450:359|341:405|275:374|275:374|429:440|658:283|550:-69|205:-24|170:181,1,1856.24994335175,4|0,0:0|0:0,0:0:0:0:
