osu file format v14

[General]
AudioFilename: audio.mp3
AudioLeadIn: 0
PreviewTime: 26796
Countdown: 1
SampleSet: Soft
StackLeniency: 0.3
Mode: 0
LetterboxInBreaks: 0
WidescreenStoryboard: 1

[Editor]
Bookmarks: 45911,56183,92868,93357,102433,108520
DistanceSpacing: 1.2
BeatDivisor: 4
GridSize: 4
TimelineZoom: 1.2

[Metadata]
Title:Lotus of Haftkarsvar
TitleUnicode:七域的蕖华
Artist:HOYO-MiX
ArtistUnicode:HOYO-MiX
Creator:ScubDomino
Version:Ayesha's Blooming Insane
Source:Genshin Impact
Tags:妮露 ニィロウ にぃろう نیلو Nilou Theme 闪耀的群星3 The Stellar Moments vol. volume 3 inaugural character album Mihoyo HoYoverse OST demo trailer Sumeru Zubayr Theatre Theater instrumental neofolk persian arabian modern traditional folk orchestral video game games gacha hydro Hisako Kanemoto 金元 寿子 ひさこ かねもと anime girl anime_girl jungkyuyoung natsume shiki natsume_shiki scub domino [keqing] 8972308 left island jaehyeok 5062061 kazato asa kazato_asa shikibe mayu shikibe_mayu ayesha altugle ayesha_altugle Shizuku- shizukup vahn10 1125647 nik nikolomara 10077264 Dimeng Yuan 苑迪萌 Yu-Peng Chen Zhiyi 陈致逸 RPG action open world 原神 Yuánshén yuanshen fantasy @HOYO-MiX Dance of Lotuslight the Delicate Lotus 絨毯に舞い落ちる蓮光 莲光落舞筵 Twirling Lotos Somno ahriii ahriii7 aaaalililili qiqi~ kdka4748 奇奇- 奇奇-ahriii 七域の蓮華 Seven Regions
BeatmapID:3944538
BeatmapSetID:1910088

[Difficulty]
HPDrainRate:5
CircleSize:4.4
OverallDifficulty:7.2
ApproachRate:8.3
SliderMultiplier:2.2
SliderTickRate:1

[Events]
//Background and Video events
0,0,"ahriii7.jpg",0,0
//Break Periods
//Storyboard Layer 0 (Background)
//Storyboard Layer 1 (Fail)
//Storyboard Layer 2 (Pass)
//Storyboard Layer 3 (Foreground)
//Storyboard Layer 4 (Overlay)
//Storyboard Sound Samples
Sample,2298,0,"nilou ;wholesome;.ogg",70

[TimingPoints]
1059,909.090909090909,4,2,1,35,1,0
1513,-100,4,2,1,45,0,0
1923,1200,4,2,2,50,1,0
1923,-142.857142857143,4,2,2,50,0,0
3623,1000,4,2,1,45,1,0
3873,1348.31460674157,4,2,1,45,1,0
4323,1132.07547169811,4,2,1,45,1,0
4323,-100,4,2,1,45,0,0
4889,-100,4,2,1,35,0,0
5077,-100,4,2,1,45,0,0
5455,1420.11834319527,4,2,2,45,1,0
6165,-100,4,2,1,45,0,0
6875,1212.12121212121,4,2,1,50,1,0
10511,1420.11834319527,4,2,1,50,1,0
11931,1200,4,2,1,50,1,0
11931,-71.4285714285714,4,2,1,50,0,0
14031,-71.4285714285714,4,2,1,35,0,0
14437,1304.34782608696,4,2,1,50,1,0
14437,-66.6666666666667,4,2,1,50,0,0
15089,-66.6666666666667,4,2,1,45,0,0
15306,-66.6666666666667,4,2,2,50,0,0
17045,1113.17254174397,4,2,1,45,1,0
18158,1259.1815320042,4,2,2,45,1,0
18158,-166.666666666667,4,2,2,45,0,0
21725,-166.666666666667,4,2,1,45,0,0
21941,1200,4,2,1,45,1,0
21941,-250,4,2,1,45,0,0
22541,-250,4,2,2,25,0,0
23141,-250,4,2,1,40,0,0
24351,652.173913043478,4,2,1,50,1,0
24351,-166.666666666667,4,2,1,50,0,0
26959,-333.333333333333,4,2,1,45,0,0
28264,-333.333333333333,4,2,1,55,0,0
29568,-333.333333333333,4,2,1,60,0,0
30872,-125,4,2,2,70,0,0
32177,-90.9090909090909,4,2,2,80,0,0
32829,-125,4,2,2,80,0,0
39187,-250,4,2,2,80,0,0
40003,-100,4,2,2,80,0,0
41307,-66.6666666666667,4,2,2,80,0,0
42285,-76.9230769230769,4,2,2,80,0,0
42611,-58.8235294117647,4,2,2,80,0,0
43264,-71.4285714285714,4,2,2,80,0,0
46524,-58.8235294117647,4,2,2,80,0,0
48481,-111.111111111111,4,2,2,80,0,0
49133,-76.9230769230769,4,2,2,80,0,0
53046,-111.111111111111,4,2,2,80,0,0
53155,-111.111111111111,4,2,1,80,0,0
53916,-111.111111111111,4,2,1,60,0,0
54350,-142.857142857143,4,2,1,60,0,0
55655,-142.857142857143,4,2,2,60,0,0
56307,-142.857142857143,4,2,1,60,0,0
57611,-333.333333333333,4,2,2,60,0,0
57937,-333.333333333333,4,2,1,60,0,0
58264,-142.857142857143,4,2,1,60,0,0
59568,-250,4,2,2,50,0,0
59785,-250,4,2,1,60,0,0
60220,-142.857142857143,4,2,2,50,0,0
60437,-142.857142857143,4,2,1,60,0,0
60872,-111.111111111111,4,2,2,60,0,0
60981,-111.111111111111,4,2,1,60,0,0
61524,-250,4,2,1,60,0,0
62177,-250,4,2,1,60,0,0
63481,-125,4,2,1,60,0,0
64785,-100,4,2,1,60,0,0
66090,-250,4,2,1,60,0,0
67394,-66.6666666666667,4,2,1,60,0,0
68046,-66.6666666666667,4,2,1,50,0,0
68264,-66.6666666666667,4,2,1,60,0,0
68481,-66.6666666666667,4,2,1,70,0,0
68698,-58.8235294117647,4,2,1,80,0,0
70003,-90.9090909090909,4,2,1,80,0,0
70655,-125,4,2,1,80,0,0
71307,-83.3333333333333,4,2,1,80,0,0
75872,-100,4,2,1,80,0,0
81307,-125,4,2,1,80,0,0
82177,-83.3333333333333,4,2,1,80,0,0
84024,-125,4,2,1,80,0,0
84997,-125,4,2,1,75,0,0
85649,-125,4,2,1,60,0,0
86302,-125,4,2,1,55,0,0
86953,-125,4,2,1,50,0,0
87606,-125,4,2,1,45,0,0
94350,687.679083094556,4,2,1,45,1,0
94785,-125,4,2,2,45,0,0
94867,664.819944598338,4,2,2,45,1,0
95865,674.157303370787,4,2,2,45,1,0
96117,909.090909090909,4,2,2,45,1,0
96117,-192.864030858245,4,2,2,45,0,0
96571,967.741935483871,4,2,2,45,1,0
97054,1108.54503464203,4,2,2,45,1,0
97608,1200,4,2,2,45,1,0
98808,-200,4,2,2,45,0,0
99133,652.173913043478,4,2,1,50,1,0
99133,-133.333333333333,4,2,1,50,0,0
99242,-133.333333333333,4,2,2,5,0,0

[Colours]
Combo1 : 199,225,91
Combo2 : 39,190,228
Combo3 : 240,207,176
Combo4 : 234,118,68

[HitObjects]
421,366,1059,5,0,0:0:0:0:
447,328,1318,5,0,0:0:0:0:
432,253,1513,5,0,0:0:0:0:
432,253,1923,6,0,B|367:262|319:211|319:211|305:252|351:273,1,192.499994125366,4|0,0:0|0:0,0:0:0:0:
340,267,3623,2,0,L|352:208,1,55
269,57,4210,5,0,0:0:0:0:
269,57,4323,2,0,P|305:52|345:31,1,73.3333333333333,8|0,0:1|0:2,0:0:0:0:
401,74,4889,1,0,0:0:0:0:
401,74,5030,2,0,P|410:89|429:103,2,27.5
483,70,5455,6,0,P|411:90|372:152,1,151.25,0|0,0:2|0:0,0:0:0:0:
424,224,6638,2,0,L|429:201,2,18.3333333333333,0|0|4,0:0|0:0|0:1,0:0:0:0:
256,384,7481,6,0,B|201:336|219:190|351:275|432:129|286:-55|86:46|93:205|225:285|314:215|287:111|232:128|240:165,1,513.333333333333,2|0,0:1|0:0,0:0:0:0:
239,160,10511,37,0,0:0:0:0:
337,176,10984,5,0,0:0:0:0:
423,135,11398,5,0,0:0:0:0:
434,313,11753,5,0,0:0:0:0:
434,313,11842,1,0,0:0:0:0:
434,313,11931,2,0,B|313:335|360:240|226:264|226:264|288:270|301:331|283:387|204:399|168:348,1,461.999985900879,4|0,0:2|0:0,0:0:0:0:
154,230,14031,1,0,0:0:0:0:
38,261,14437,6,0,B|24:209|50:226|28:151,1,82.5000031471254,4|0,0:1|0:0,0:0:0:0:
32,171,14926,5,0,0:0:0:0:
70,91,15089,5,0,0:0:0:0:
32,16,15415,6,0,B|1:51|18:94|18:94|51:112|57:149|57:149|75:117|112:111|112:111|143:76|126:32,1,309.37501180172
256,0,17045,6,0,B|265:91|222:58|234:147,1,146.666666666667,2|0,0:1|0:0,0:0:0:0:
72,112,18158,6,0,B|278:81|192:227|413:189,1,362.99998892212,4|0,0:0|0:0,0:0:0:0:
410,189,21941,6,0,L|394:285,1,88
395,275,24351,6,0,B|384:363|465:348|393:213|393:213|317:78|410:57|394:163,1,395.999987915039
398,169,26959,6,0,P|407:177|418:178,2,21.9999993286133,8|0|0,0:1|0:0|0:0,0:0:0:0:
336,120,27611,2,0,P|338:108|333:98,2,21.9999993286133
325,199,28264,2,0,P|313:202|307:211,2,21.9999993286133,2|0|0,0:1|0:0|0:0,0:0:0:0:
398,169,28916,1,0,0:0:0:0:
224,32,29351,5,0,0:0:0:0:
224,32,29568,2,0,P|243:83|251:148,1,109.999996643067,4|0,0:2|0:0,0:0:0:0:
325,199,30872,6,0,P|301:254|294:311,1,117.333333333333,4|0,0:0|0:0,0:0:0:0:
231,360,31524,5,0,0:0:0:0:
194,377,31633,1,0,0:0:0:0:
156,370,31742,1,0,0:0:0:0:
125,341,31851,1,0,0:0:0:0:
115,300,31959,1,0,0:0:0:0:
128,261,32068,1,0,0:0:0:0:
159,234,32177,6,0,P|238:278|328:268,1,181.500005538941,4|0,1:1|2:1,0:0:0:0:
234,177,32829,6,0,P|236:220|252:261,1,88,0|0,3:0|1:0,0:0:0:0:
355,348,33318,1,0,0:0:0:0:
355,348,33481,2,0,P|406:358|443:378,2,88,0|0|8,3:3|0:0|3:1,0:0:0:0:
275,336,34296,2,0,L|228:345,1,44,8|8,0:2|0:3,0:0:0:0:
231,344,34622,1,0,1:0:0:0:
328,270,34785,6,0,P|341:207|337:155,1,88,0|0,1:0|0:0,0:0:0:0:
416,234,35274,1,0,1:0:0:0:
336,177,35437,6,0,L|323:126,1,44,0|0,3:0|0:0,0:0:0:0:
422,237,35764,2,0,L|468:249,1,44,0|0,1:0|0:0,0:0:0:0:
247,207,36090,6,0,P|193:223|140:222,1,88,4|8,3:2|0:3,0:0:0:0:
84,240,36579,2,0,P|63:219|86:237,1,88,8|0,0:1|0:0,0:0:0:0:
247,207,37068,2,0,P|223:205|200:196,1,44,0|8,0:0|0:3,0:0:0:0:
111,140,37394,6,0,P|98:81|77:45,2,88,2|0|0,1:3|0:0|3:0,0:0:0:0:
47,366,38372,6,0,L|59:318,1,44,0|0,1:0|0:0,0:0:0:0:
53,319,38698,2,0,B|125:306|106:344|194:329,1,132,0|8,3:0|0:1,0:0:0:0:
259,369,39350,6,0,L|284:375,1,22,8|8,3:2|0:3,0:0:0:0:
280,374,39677,1,0,1:0:0:0:
157,251,40003,6,0,B|117:219|117:52|159:115|154:189,1,165,2|0,1:0|1:0,0:0:0:0:
101,205,40655,2,0,B|42:191|74:166|7:151,1,110,0|0,3:0|0:0,0:0:0:0:
8,151,41144,1,0,0:0:0:0:
201,234,41307,6,0,B|74:170|-37:244|-34:352|26:356|55:320|49:287,1,330.000012588501,4|8,3:2|3:2,0:0:0:0:
108,243,42122,1,8,2:1:0:0:
25,219,42285,2,0,P|11:186|8:148,1,71.4999967269899,8|8,0:2|0:2,0:0:0:0:
12,144,42530,1,0,0:0:0:0:
16,138,42611,6,0,P|95:157|95:0,1,280.500005350113,6|4,1:3|2:3,0:0:0:0:
228,148,43264,2,0,P|265:147|297:125,1,76.9999976501466,0|0,3:0|0:0,0:0:0:0:
203,0,43590,2,0,P|171:31|168:108,1,115.49999647522,4|0,1:3|0:0,0:0:0:0:
174,100,43916,6,0,P|254:132|266:211,1,153.999995300293,0|4,3:3|2:3,0:0:0:0:
200,230,44405,1,8,0:3:0:0:
273,266,44568,2,0,P|284:300|277:346,1,76.9999976501466,8|8,3:1|0:2,0:0:0:0:
75,311,44894,5,8,0:3:0:0:
149,326,45057,1,0,1:0:0:0:
92,384,45220,2,0,P|53:332|52:218,1,153.999995300293,4|0,1:3|0:0,0:0:0:0:
48,160,45709,5,4,2:3:0:0:
48,160,45872,2,0,P|67:141|56:166,1,76.9999976501466,0|0,3:0|0:0,0:0:0:0:
43,245,46198,6,0,P|75:276|159:266,1,115.49999647522,4|0,1:3|0:0,0:0:0:0:
222,308,46524,6,0,B|141:243|223:133|258:212|192:248,1,187.000003566742,4|8,3:2|0:3,0:0:0:0:
281,270,47014,1,8,0:1:0:0:
110,210,47177,6,0,P|190:206|311:174,1,187.000003566742,8|4,3:2|2:3,0:0:0:0:
357,220,47666,1,8,0:3:0:0:
286,185,47829,6,0,P|206:164|164:63,1,187.000003566742,2|0,1:1|0:0,0:0:0:0:
216,20,48318,1,4,2:3:0:0:
88,136,48481,6,0,P|63:146|26:138,1,49.4999984893799,0|0,3:0|0:0,0:0:0:0:
197,243,48807,2,0,P|179:223|176:185,1,49.4999984893799,4|0,2:3|0:0,0:0:0:0:
93,231,49133,6,0,P|70:270|63:382,1,142.99999345398,0|12,3:0|0:3,0:0:0:0:
133,318,49622,1,8,0:1:0:0:
27,178,49785,6,0,P|83:176|142:141,1,107.249995090485,8|0,3:2|0:0,0:0:0:0:
177,96,50111,2,0,P|183:73|174:93,1,71.4999967269899,0|0,1:0|0:0,0:0:0:0:
286,189,50437,6,0,B|368:178|337:212|433:197,1,142.99999345398,4|0,1:3|0:0,0:0:0:0:
361,120,50927,1,4,1:3:0:0:
493,151,51090,6,0,P|501:82|492:-1,1,142.99999345398,0|4,3:0|0:3,0:0:0:0:
353,254,51579,5,0,0:0:0:0:
353,254,51660,1,0,0:0:0:0:
353,254,51742,2,0,P|282:228|206:226,1,142.99999345398,4|4,3:2|0:3,0:0:0:0:
152,280,52231,1,0,0:0:0:0:
58,190,52394,5,8,3:2:0:0:
47,173,52503,1,0,0:0:0:0:
46,149,52611,1,0,0:0:0:0:
89,155,52720,5,8,1:2:0:0:
89,126,52829,1,0,0:0:0:0:
108,98,52937,1,0,0:0:0:0:
158,142,53046,6,0,P|88:128|40:70,1,148.49999546814,4|0,1:1|0:0,0:0:0:0:
248,120,53916,5,0,0:0:0:0:
256,192,54133,1,0,0:0:0:0:
264,264,54350,2,0,B|344:248|328:288|420:272,1,153.999995300293,4|0,0:0|0:0,0:0:0:0:
406,265,55220,5,0,0:0:0:0:
393,317,55437,1,0,0:0:0:0:
380,372,55655,2,0,B|304:346|311:385|224:359,1,153.999995300293,4|0,0:2|0:0,0:0:0:0:
151,380,56524,1,0,0:0:0:0:
52,358,56742,1,0,0:0:0:0:
24,245,56959,1,4,0:1:0:0:
24,245,57611,6,0,L|32:201,1,32.99999899292
29,212,58264,6,0,P|41:209|62:200,2,34.2222211778429,2|0|0,0:1|0:0|0:0,0:0:0:0:
109,125,58698,2,0,P|116:70|133:22,1,102.666663533529
131,25,59568,6,0,P|116:34|95:34,2,29.3333333333333,2|0|0,0:0|0:0|0:0,0:0:0:0:
232,112,60220,2,0,P|204:107|182:91,2,51.3333317667644,2|0|0,0:0|0:0|0:0,0:0:0:0:
244,120,60764,1,0,0:0:0:0:
237,129,60872,6,0,B|164:144|205:169|111:195,1,131.99999597168,4|0,0:0|0:0,0:0:0:0:
44,145,61524,2,0,L|51:102,2,29.3333333333333
6,224,62177,6,0,P|21:228|34:235,1,29.3333333333333,4|0,0:0|0:0,0:0:0:0:
128,149,62611,6,0,P|136:168|141:189,1,29.3333333333333
275,192,63046,6,0,P|269:212|258:231,1,29.3333333333333
265,219,63481,6,0,B|332:224|310:254|382:264,1,117.333333333333,8|0,0:1|0:0,0:0:0:0:
371,262,64024,1,0,0:0:0:0:
371,262,64133,1,2,0:0:0:0:
446,229,64350,2,0,L|463:165,1,58.6666666666667
181,219,64785,6,0,B|274:208|219:172|313:164,1,146.666666666667,2|0,0:0|0:0,0:0:0:0:
274,272,65437,5,2,0:0:0:0:
247,193,65655,1,0,0:0:0:0:
221,111,65872,1,0,0:0:0:0:
280,12,66090,5,2,0:1:0:0:
247,193,66524,5,8,0:3:0:0:
214,374,66959,5,4,0:3:0:0:
152,201,67394,6,0,P|202:293|307:296,1,220.000008392334,4|0,1:3|0:0,0:0:0:0:
487,222,68046,5,0,0:1:0:0:
472,204,68155,5,0,0:1:0:0:
430,191,68264,5,0,0:1:0:0:
397,199,68372,5,0,0:1:0:0:
369,232,68481,5,0,0:1:0:0:
368,282,68590,5,0,0:1:0:0:
407,317,68698,6,0,B|447:299|498:328|494:370|494:370|406:348|479:245|322:171|220:244|238:306|250:354|294:344|329:258,1,498.666676177979,4|0,1:1|3:0,0:0:0:0:
394,237,69785,5,0,1:0:0:0:
394,237,70003,2,0,B|415:142|454:210|470:103,1,161.333338256836,10|0,0:0|0:0,0:0:0:0:
427,24,70655,2,0,P|460:24|486:0,1,58.6666666666667,2|0,0:0|3:0,0:0:0:0:
424,208,71090,1,0,1:0:0:0:
512,168,71307,6,0,P|439:128|328:127,1,175.999994628906,2|0,1:2|3:0,0:0:0:0:
88,88,71959,2,0,P|157:85|202:56,1,87.9999973144532,2|8,0:0|2:3,0:0:0:0:
244,112,72394,1,4,2:3:0:0:
320,4,72611,5,14,0:0:0:0:
350,22,72720,1,0,0:0:0:0:
384,16,72829,1,0,0:0:0:0:
414,33,72937,5,0,0:0:0:0:
406,67,73046,1,4,2:3:0:0:
422,97,73155,1,0,0:0:0:0:
415,131,73263,5,2,0:0:0:0:
380,134,73372,1,0,0:0:0:0:
357,158,73481,1,0,2:1:0:0:
322,162,73590,5,0,0:0:0:0:
308,129,73698,1,0,1:1:0:0:
278,115,73807,1,0,0:0:0:0:
263,82,73916,6,0,P|170:52|63:50,1,175.999994628906,2|0,1:1|0:0,0:0:0:0:
168,0,74568,2,0,P|179:49|177:97,1,87.9999973144532,2|0,0:0|3:0,0:0:0:0:
153,240,75003,1,0,1:0:0:0:
76,183,75220,6,0,B|128:118|261:105|246:154|201:182|166:136,1,219.999993286133,10|0,0:0|0:0,0:0:0:0:
170,152,75872,2,0,B|177:111|187:122|188:70,2,73.3333333333333,2|0|0,0:0|3:0|1:0,0:0:0:0:
324,120,76524,5,2,1:2:0:0:
462,159,76742,1,0,0:0:0:0:
417,28,76959,1,0,3:0:0:0:
247,148,77177,5,2,0:0:0:0:
324,120,77395,1,8,2:3:0:0:
268,67,77612,1,4,2:3:0:0:
278,108,77829,6,0,P|249:123|230:128,2,36.6666666666667,14|0|0,0:0|0:0|0:0,0:0:0:0:
348,48,78155,2,0,P|348:15|354:-3,2,36.6666666666667,0|4|0,0:0|1:3|0:0,0:0:0:0:
364,139,78481,2,0,P|391:154|404:169,2,36.6666666666667,2|0|8,0:0|0:0|2:3,0:0:0:0:
209,187,78807,5,0,0:0:0:0:
187,182,78916,1,4,2:3:0:0:
193,199,79024,1,0,0:0:0:0:
193,192,79133,6,0,B|107:175|146:142|35:131,1,146.666666666667,8|0,1:1|0:0,0:0:0:0:
44,209,79785,6,0,P|81:207|114:184,1,73.3333333333333,2|0,0:0|3:0,0:0:0:0:
246,128,80220,1,0,1:0:0:0:
297,188,80437,2,0,P|365:193|417:263,1,146.666666666667,10|0,0:0|0:0,0:0:0:0:
486,209,81090,5,2,0:0:0:0:
486,209,81307,2,0,L|493:180,2,29.3333333333333,0|0|0,3:2|3:2|1:0,0:0:0:0:
486,309,81742,5,2,1:2:0:0:
447,300,81887,1,0,0:0:0:0:
398,311,82032,1,0,0:0:0:0:
344,367,82177,6,0,P|258:363|189:283,1,175.999994628906,0|8,3:0|1:3,0:0:0:0:
196,302,82829,1,4,1:3:0:0:
243,232,83046,5,4,1:2:0:0:
243,232,83155,2,0,B|308:247|308:199|378:213,2,131.99999597168
132,324,84133,2,0,L|103:332,1,29.3333333333333
24,281,84350,6,0,B|113:231|205:285|195:316|184:367|271:431|449:380|484:277|405:107|271:79|163:182|214:291|290:259,1,704,4|0,1:1|0:0,0:0:0:0:
289,259,87937,5,0,0:0:0:0:
341,201,88264,2,0,B|354:131|379:168|385:95,2,117.333333333333
347,320,89568,6,0,P|338:292|351:317,1,88,2|0,0:1|0:0,0:0:0:0:
501,382,90057,6,0,P|343:307|169:318,1,352
169,318,91742,5,0,0:0:0:0:
116,257,91959,1,0,0:0:0:0:
114,383,92177,2,0,P|164:216|151:41,1,352,4|0,0:0|0:0,0:0:0:0:
152,40,93916,5,0,0:0:0:0:
78,63,94350,1,0,0:0:0:0:
21,13,94867,1,4,0:0:0:0:
272,64,95864,5,0,0:0:0:0:
348,28,96117,2,0,P|352:16|356:1,1,28.5175002850184,2|0,0:0|0:0,0:0:0:0:
456,128,96571,2,0,P|401:126|349:107,1,110
272,64,97608,1,0,0:0:0:0:
254,178,98808,6,0,L|256:192,1,13.75
236,291,99133,2,0,B|236:325|259:350|274:335|301:340|324:390|272:398|275:345|300:330|319:340|332:308|320:276|320:276|320:276|320:276|320:276|320:276|343:300|378:300|377:279|400:263|451:283|420:326|384:284|393:257|413:252|399:219|369:205|369:205|368:205|368:205|367:205|367:205|402:206|426:182|411:167|416:140|466:117|475:169|420:166|406:141|416:122|384:109|352:121|352:121|352:121|352:121|352:121|352:121|376:97|377:63|356:64|340:41|359:-9|403:21|361:57|333:48|329:28|295:42|281:71|281:71|281:73|281:73|281:73|281:73|281:39|257:13|243:29|216:24|194:-24|246:-33|242:19|217:34|199:23|185:57|196:88|196:88|197:89|197:89|197:89|197:89|174:64|139:64|140:84|117:100|66:80|97:38|132:79|124:106|105:111|118:144|148:159|148:159|149:159|149:159|150:159|150:159|116:158|90:183|106:196|101:225|51:246|43:194|96:199|111:222|101:241|133:256|165:243|165:243|165:243|165:243|165:242|165:242|140:266|140:302|161:300|178:323|158:375|114:344|155:308|184:315|189:335|222:321|236:292,1,1540.00005874634,4|0,0:0|0:0,0:0:0:0:
