osu file format v14

[General]
AudioFilename: audio.mp3
AudioLeadIn: 0
PreviewTime: 49425
Countdown: 0
SampleSet: Soft
StackLeniency: 0.4
Mode: 0
LetterboxInBreaks: 0
WidescreenStoryboard: 1

[Editor]
Bookmarks: 6782,13640,20497,27354,34211,44497,51354,58211,65068,71925,78782,85642
DistanceSpacing: 1.1
BeatDivisor: 4
GridSize: 32
TimelineZoom: 1.5

[Metadata]
Title:Interstellar Journey (feat. Lea Sirk)
TitleUnicode:Interstellar Journey (feat. Lea Sirk)
Artist:HOYO-MiX
ArtistUnicode:HOYO-MiX
Creator:Ziny
Version:WD's Hard
Source:Honkai: Star Rail
Tags:王可鑫 苑迪萌 黑金雨 王可鑫 文驰 宫奇 王可鑫 宫奇 星间旅行 崩坏:星穹铁道 mihoyo hoyoverse houkai 崩壊:スターレイル 붕괴: 스타레일 benghuai xingqiong tiedao bunggoe seutaleil video_game video game english cami djulus maruoko walkingdivan4ik hyokar delette _milr electronic n pop wd
BeatmapID:4465524
BeatmapSetID:2088304

[Difficulty]
HPDrainRate:4.5
CircleSize:3.8
OverallDifficulty:7
ApproachRate:7.5
SliderMultiplier:1.4
SliderTickRate:1

[Events]
//Background and Video events
0,0,"bg.jpg",0,0
//Break Periods
2,20697,26529
//Storyboard Layer 0 (Background)
//Storyboard Layer 1 (Fail)
//Storyboard Layer 2 (Pass)
//Storyboard Layer 3 (Foreground)
//Storyboard Layer 4 (Overlay)
//Storyboard Sound Samples

[TimingPoints]
1640,428.571428571429,4,2,1,65,1,0
6782,-83.3333333333333,4,2,1,60,0,0
27354,-100,4,2,1,45,0,0
34211,-90.9090909090909,4,2,1,55,0,0
47925,-90.9090909090909,4,2,1,50,0,0
49640,-90.9090909090909,4,2,1,40,0,0
50711,-90.9090909090909,4,2,1,30,0,0
51354,-83.3333333333333,4,2,2,70,0,1
77925,-83.3333333333333,4,2,1,70,0,0
78247,-83.3333333333333,4,2,1,5,0,0
78782,-83.3333333333333,4,2,1,65,0,0

[Colours]
Combo1 : 164,240,247
Combo2 : 243,177,208
Combo3 : 167,140,247
Combo4 : 183,219,193

[HitObjects]
186,137,6782,6,0,B|245:153|245:153|270:200|270:200|323:219,1,167.999994873047,6|0,3:2|1:0,0:0:0:0:
397,183,7425,1,2,0:0:0:0:
435,257,7640,2,0,P|418:315|402:385,2,125.999996154785,2|0|0,0:0|0:0|0:0,0:0:0:0:
505,211,8497,6,0,P|531:142|475:63,1,167.999994873047,2|0,3:2|1:0,0:0:0:0:
407,32,9140,1,2,0:0:0:0:
354,97,9354,1,0,0:0:0:0:
278,60,9568,2,0,P|213:38|173:27,1,83.9999974365235,4|2,3:2|1:2,0:2:0:0:
159,50,9890,1,4,3:2:0:0:
159,50,9997,2,0,L|141:115,1,41.9999987182618
120,122,10211,6,0,B|45:141|74:206|-7:232,1,167.999994873047,6|0,3:2|1:0,0:0:0:0:
5,314,10854,1,2,0:0:0:0:
80,349,11068,2,0,P|127:327|186:313,1,83.9999974365235,2|2,0:0|3:3,0:0:0:0:
193,294,11390,1,0,0:0:0:0:
193,294,11497,2,0,P|240:315|299:329,1,83.9999974365235,0|0,1:0|0:0,0:0:0:0:
332,381,11925,6,0,P|358:322|341:281,1,83.9999974365235,6|0,3:2|1:0,0:0:0:0:
383,275,12247,2,0,P|345:223|301:217,1,83.9999974365235,4|0,3:2|1:0,0:0:0:0:
315,176,12568,2,0,P|274:174|239:195,1,83.9999974365235,4|0,3:2|0:0,0:0:0:0:
164,155,12997,2,0,L|147:57,1,83.9999974365235,4|0,3:2|1:0,0:0:0:0:
175,40,13318,1,2,3:0:0:0:
175,40,13425,2,0,L|237:50,1,41.9999987182618,0|0,0:0|1:0,0:0:0:0:
252,68,13640,6,0,P|318:53|441:34,1,167.999994873047,6|0,3:2|1:0,0:0:0:0:
487,82,14282,1,2,0:0:0:0:
474,165,14497,2,0,P|452:201|413:209,1,83.9999974365235,2|2,0:0|3:0,0:0:0:0:
398,248,14818,2,0,P|356:257|323:235,1,83.9999974365235,0|2,0:0|3:0,0:0:0:0:
285,254,15140,1,0,0:0:0:0:
271,171,15354,6,0,B|171:191|220:262|144:281,1,167.999994873047,6|2,3:2|1:2,0:0:0:0:
76,313,15997,1,2,0:0:0:0:
21,249,16211,2,0,P|53:211|53:177,1,83.9999974365235,2|4,0:0|3:2,0:0:0:0:
9,106,16640,1,0,1:0:0:0:
9,106,16747,1,4,3:2:0:0:
9,106,16854,2,0,L|60:89,1,41.9999987182618,0|2,0:0|0:0,0:0:0:0:
69,56,17068,6,0,P|151:84|243:108,1,167.999994873047,6|0,3:2|1:0,0:0:0:0:
311,123,17711,1,2,0:0:0:0:
251,182,17925,2,0,P|236:233|227:293,1,83.9999974365235,2|2,0:0|3:0,0:0:0:0:
253,298,18247,1,0,0:0:0:0:
253,298,18354,2,0,P|304:285|361:263,1,83.9999974365235,0|0,1:0|0:0,0:0:0:0:
392,214,18782,6,0,P|406:234|417:259,2,41.9999987182618,6|0|0,3:2|0:0|1:0,0:0:0:0:
417,180,19104,2,0,P|426:161|438:144,2,41.9999987182618,2|0|0,3:2|0:0|1:0,0:0:0:0:
375,177,19425,1,2,3:2:0:0:
250,197,19747,1,0,0:0:0:0:
250,197,19854,2,0,P|199:206|167:248,1,83.9999974365235,6|0,3:2|0:0,0:0:0:0:
160,266,20175,2,0,P|168:317|211:348,1,83.9999974365235,0|0,3:2|0:0,0:0:0:0:
229,356,20497,1,0,3:0:0:0:
413,65,27354,6,0,P|467:47|527:26,2,105,2|2|2,3:2|0:0|3:2,0:0:0:0:
354,125,28211,1,2,0:0:0:0:
354,125,28318,1,0,0:0:0:0:
354,125,28425,2,0,L|271:97,2,70
410,187,29068,6,0,P|411:244|337:286,1,140,2|0,3:2|0:0,0:0:0:0:
310,362,29711,1,0,0:0:0:0:
242,312,29925,2,0,L|153:296,1,70
128,228,30354,2,0,L|39:244,1,70,0|2,0:0|0:0,0:0:0:0:
5,175,30782,6,0,B|16:108|53:131|69:51,1,140,0|0,3:0|0:0,0:0:0:0:
138,6,31425,2,0,B|153:83|190:60|201:127,1,140,0|0,3:0|0:0,0:0:0:0:
269,177,32068,2,0,P|308:159|343:152,1,70,0|0,3:0|0:0,0:0:0:0:
384,85,32497,5,2,3:2:0:0:
461,139,32711,2,0,P|466:106|474:75,2,35,0|2|2,0:0|0:0|0:0,0:0:0:0:
415,209,33140,1,0,3:0:0:0:
415,209,33247,2,0,P|426:274|441:336,1,105,2|2,0:0|0:0,0:0:0:0:
403,338,33675,1,0,0:0:0:0:
403,338,33782,2,0,L|349:328,3,35,2|2|2|2,0:0|0:0|0:0|0:0,0:0:0:0:
333,361,34211,6,0,P|249:357|236:286,1,154.000004699707,2|0,3:2|1:0,0:0:0:0:
283,223,34854,1,2,0:0:0:0:
338,148,35068,2,0,P|349:83|364:21,2,115.50000352478,2|2|0,3:2|0:0|0:0,0:0:0:0:
245,141,35925,1,2,3:2:0:0:
191,216,36140,1,0,0:0:0:0:
191,216,36247,1,2,0:0:0:0:
191,216,36354,2,0,P|153:217|127:257,1,77.0000023498536,0|2,1:0|0:0,0:0:0:0:
48,289,36782,2,0,P|49:327|89:353,1,77.0000023498536,2|0,3:2|0:0,0:0:0:0:
123,352,37104,1,2,0:0:0:0:
123,352,37211,2,0,P|146:357|176:368,3,38.5000011749268,2|2|2|2,1:2|0:2|0:2|0:2,0:0:0:0:
205,349,37640,5,2,3:2:0:0:
265,279,37854,1,0,0:0:0:0:
329,345,38068,2,0,P|381:333|424:325,1,77.0000023498536,0|2,1:2|0:0,0:0:0:0:
493,354,38497,2,0,B|516:265|436:270|465:184,1,154.000004699707,2|0,3:2|1:0,0:0:0:0:
510,132,39140,5,0,0:0:0:0:
455,57,39354,2,0,P|422:35|384:23,1,77.0000023498536,2|0,3:2|0:0,0:0:0:0:
343,38,39675,1,0,0:0:0:0:
343,38,39782,2,0,P|310:60|272:72,1,77.0000023498536,2|2,1:2|0:0,0:0:0:0:
188,38,40211,1,2,3:2:0:0:
204,128,40425,2,0,L|212:177,1,38.5000011749268
244,197,40640,2,0,L|236:246,3,38.5000011749268,0|0|0|0,1:0|3:0|0:0|0:0,0:0:0:0:
263,273,41068,6,0,P|245:347|173:356,1,154.000004699707,2|2,3:2|1:2,0:0:0:0:
85,339,41711,1,2,0:2:0:0:
36,260,41925,1,2,0:0:0:0:
102,195,42140,2,0,P|87:147|74:112,1,77.0000023498536,2|0,3:0|1:0,0:0:0:0:
46,88,42461,1,2,3:0:0:0:
163,14,42782,5,2,3:2:0:0:
236,70,42997,1,2,0:0:0:0:
236,70,43104,1,2,0:0:0:0:
236,70,43211,1,2,1:2:0:0:
236,162,43425,2,0,P|223:198|211:235,1,77.0000023498536,2|0,3:2|0:2,0:2:0:0:
230,325,43854,2,0,P|253:316|278:309,1,38.5000011749268,2|0,3:0|0:0,0:0:0:0:
306,334,44068,2,0,P|329:342|354:349,3,38.5000011749268,0|2|0|0,1:0|3:0|0:0|0:0,0:0:0:0:
388,335,44497,6,0,P|423:312|513:299,2,115.50000352478,4|0|2,3:1|0:0|3:2,0:0:0:0:
350,206,45461,1,0,3:0:0:0:
350,206,45568,2,0,L|371:113,1,77.0000023498536,0|0,3:0|1:0,0:0:0:0:
448,86,45997,1,2,3:2:0:0:
399,7,46211,5,0,3:0:0:0:
324,56,46425,1,2,0:0:0:0:
324,56,46532,1,0,1:0:0:0:
324,56,46640,1,0,0:0:0:0:
241,15,46854,2,0,B|160:34|175:72|105:94,1,154.000004699707,2|0,3:2|3:0,0:0:0:0:
18,104,47497,2,0,L|35:160,1,38.5000011749268,0|2,1:0|3:2,0:0:0:0:
61,173,47711,2,0,L|44:229,1,38.5000011749268
67,251,47925,6,0,P|148:276|231:330,1,154.000004699707,2|0,3:2|0:0,0:0:0:0:
269,379,48568,2,0,P|309:366|351:339,1,77.0000023498536,0|0,3:2|0:0,0:0:0:0:
360,258,48997,2,0,P|400:270|442:297,1,77.0000023498536,0|0,1:0|0:0,0:0:0:0:
483,362,49425,1,0,0:0:0:0:
483,362,49640,1,0,3:0:0:0:
390,31,51354,6,0,B|433:49|433:49|390:164,1,167.999994873047,6|8,3:2|3:2,0:0:0:0:
346,253,51997,1,2,0:0:0:0:
400,337,52211,2,0,P|449:354|476:332,1,83.9999974365235,2|0,3:2|0:0,0:0:0:0:
486,293,52532,2,0,P|493:249|497:207,1,83.9999974365235,2|0,0:0|0:0,0:0:0:0:
475,168,52854,1,2,0:0:0:0:
383,153,53068,6,0,P|343:148|299:139,1,83.9999974365235,2|0,3:2|0:0,0:0:0:0:
275,95,53390,1,0,0:0:0:0:
275,95,53497,2,0,P|235:100|191:109,1,83.9999974365235,10|0,3:2|0:0,0:0:0:0:
124,183,53925,1,2,3:2:0:0:
51,112,54140,1,2,0:0:0:0:
51,112,54247,1,2,0:0:0:0:
51,112,54354,1,10,3:2:0:0:
129,48,54568,1,0,0:0:0:0:
198,120,54782,6,0,P|274:169|343:222,1,167.999994873047,6|8,3:2|3:2,0:0:0:0:
406,287,55425,1,2,0:0:0:0:
333,358,55640,2,0,P|288:345|246:338,1,83.9999974365235,2|0,3:2|0:0,0:0:0:0:
201,335,55961,1,2,0:0:0:0:
201,335,56068,1,10,3:2:0:0:
110,380,56282,1,2,0:0:0:0:
57,293,56497,6,0,P|70:248|77:206,1,83.9999974365235,2|0,3:2|0:0,0:0:0:0:
80,161,56818,1,2,0:0:0:0:
80,161,56925,1,8,3:2:0:0:
3,95,57140,1,2,0:0:0:0:
3,95,57247,1,0,0:0:0:0:
3,95,57354,1,0,3:0:0:0:
75,25,57568,1,2,0:0:0:0:
152,88,57782,2,0,L|202:97,1,41.9999987182618,8|0,3:2|0:0,0:0:0:0:
224,135,57997,2,0,L|274:144,1,41.9999987182618,8|8,3:2|0:0,0:0:0:0:
290,180,58211,6,0,B|343:168|343:168|364:129|364:129|444:115,1,167.999994873047,6|8,3:2|3:2,0:0:0:0:
497,182,58854,1,2,0:0:0:0:
471,270,59068,2,0,P|411:258|362:253,1,83.9999974365235,2|0,3:2|0:0,0:0:0:0:
360,292,59390,2,0,P|300:280|251:275,1,83.9999974365235,2|0,0:0|0:0,0:0:0:0:
236,298,59711,1,2,0:0:0:0:
159,350,59925,5,2,3:2:0:0:
117,278,60140,1,0,0:0:0:0:
117,278,60247,1,0,0:0:0:0:
117,278,60354,2,0,L|53:297,1,41.9999987182618,10|0,3:2|0:0,0:0:0:0:
32,304,60568,1,2,0:2:0:0:
6,215,60782,2,0,P|12:180|18:137,3,41.9999987182618,2|2|2|2,3:2|0:0|0:0|0:0,0:0:0:0:
22,128,61211,1,10,3:2:0:0:
83,60,61425,5,2,0:2:0:0:
83,60,61532,1,2,0:0:0:0:
83,60,61640,2,0,B|169:87|135:134|227:159,1,167.999994873047,2|10,3:2|3:2,0:0:0:0:
300,112,62282,1,0,0:0:0:0:
300,112,62390,1,2,0:0:0:0:
300,112,62497,2,0,P|316:95|353:77,2,41.9999987182618,2|0|0,3:2|0:0|0:0,0:0:0:0:
216,155,62925,2,0,P|231:221|241:269,1,83.9999974365235,10|0,3:2|0:0,0:0:0:0:
209,326,63354,6,0,P|269:328|329:248,1,167.999994873047,2|0,3:0|0:0,0:0:0:0:
307,157,63997,2,0,P|348:167|394:172,1,83.9999974365235,2|0,0:3|3:0,0:0:0:0:
437,162,64318,1,8,0:0:0:0:
437,162,64425,1,2,0:0:0:0:
464,73,64640,2,0,L|505:67,2,41.9999987182618,2|0|0,3:0|0:0|0:0,0:0:0:0:
390,16,65068,6,0,P|313:29|223:41,1,167.999994873047,6|8,3:2|3:2,0:0:0:0:
139,37,65711,1,2,0:0:0:0:
139,37,65818,1,2,0:0:0:0:
139,37,65925,2,0,P|102:65|110:126,1,83.9999974365235,2|0,3:2|0:0,0:0:0:0:
56,123,66247,2,0,P|61:169|118:192,1,83.9999974365235,2|0,0:0|0:0,0:0:0:0:
106,233,66568,1,2,0:2:0:0:
193,261,66782,6,0,P|180:294|164:345,1,83.9999974365235,2|0,3:2|0:0,0:0:0:0:
79,376,67211,2,0,P|38:376|17:342,1,83.9999974365235,10|0,3:2|0:0,0:0:0:0:
4,298,67532,1,0,0:0:0:0:
4,298,67640,6,0,P|17:265|33:214,2,83.9999974365235,2|2|8,3:2|0:2|3:2,0:0:0:0:
96,296,68282,2,0,L|144:317,1,41.9999987182618,2|0,0:2|0:0,0:0:0:0:
167,346,68497,6,0,P|247:320|328:298,1,167.999994873047,6|8,3:2|3:2,0:0:0:0:
416,346,69140,1,2,0:0:0:0:
481,281,69354,2,0,P|472:241|443:209,1,83.9999974365235,2|0,3:2|0:0,0:0:0:0:
461,167,69675,2,0,P|421:154|379:163,1,83.9999974365235,2|0,0:0|0:0,0:0:0:0:
335,150,69997,1,2,0:0:0:0:
244,170,70211,6,0,P|260:86|281:-6,1,167.999994873047,2|8,3:2|3:2,0:0:0:0:
370,12,70854,1,2,0:0:0:0:
370,12,70961,1,0,0:0:0:0:
370,12,71068,1,0,3:0:0:0:
436,76,71282,6,0,L|467:82,6,27.9999991455078,2|2|2|10|2|2|2,0:0|0:0|0:0|0:0|0:0|0:0|3:2,0:0:0:0:
356,126,71925,6,0,P|370:189|387:300,1,167.999994873047,6|10,3:2|3:2,0:2:0:0:
327,363,72568,1,2,0:2:0:0:
240,331,72782,2,0,P|233:289|224:248,1,83.9999974365235,2|0,3:2|0:0,0:0:0:0:
183,226,73104,2,0,P|141:234|100:241,1,83.9999974365235,2|0,0:0|0:0,0:0:0:0:
57,224,73425,1,2,0:0:0:0:
41,132,73640,6,0,B|127:119|84:56|203:44,2,167.999994873047,2|10|2,3:2|3:2|3:2,0:0:0:0:
57,224,74711,1,2,0:0:0:0:
11,304,74925,2,0,P|67:335|95:360,1,83.9999974365235,10|0,3:2|0:0,0:0:0:0:
167,383,75354,6,0,P|223:352|251:327,1,83.9999974365235,6|2,3:2|0:0,0:0:0:0:
233,293,75675,1,2,0:0:0:0:
233,293,75782,2,0,L|251:188,1,83.9999974365235,8|2,3:2|0:0,0:0:0:0:
332,174,76211,2,0,L|314:69,1,83.9999974365235,2|0,3:2|0:0,0:0:0:0:
339,52,76532,1,2,0:0:0:0:
339,52,76640,2,0,P|395:21|423:-4,1,83.9999974365235,8|0,3:2|0:0,0:0:0:0:
491,51,77068,6,0,P|489:114|497:151,1,83.9999974365235,2|0,3:2|0:0,0:0:0:0:
472,177,77390,1,10,3:2:0:0:
472,177,77497,2,0,P|473:240|465:277,1,83.9999974365235,8|10,3:2|0:0,0:0:0:0:
492,300,77818,1,6,3:2:0:0:
492,300,77925,2,0,P|406:269|341:265,1,125.999996154785
162,363,78782,6,0,P|122:370|63:372,1,83.9999974365235,6|2,3:2|0:2,0:0:0:0:
23,298,79211,2,0,P|36:260|64:208,1,83.9999974365235,2|0,1:2|0:0,0:0:0:0:
148,210,79640,1,0,3:0:0:0:
92,136,79854,2,0,B|87:93|87:93|83:90|83:90|78:47,1,83.9999974365235,2|2,0:0|1:2,0:0:0:0:
104,15,80175,1,2,0:0:0:0:
104,15,80282,2,0,L|153:8,1,41.9999987182618,2|2,0:0|0:0,0:0:0:0:
186,30,80497,6,0,B|281:7|254:106|357:98,1,167.999994873047,2|0,3:2|1:0,0:0:0:0:
409,51,81140,1,0,0:0:0:0:
469,120,81354,1,2,3:2:0:0:
393,172,81568,2,0,B|388:214|388:214|384:217|384:217|379:260,1,83.9999974365235,2|0,0:1|1:0,0:0:0:0:
374,299,81890,1,2,0:1:0:0:
374,299,81997,1,0,0:0:0:0:
298,352,82211,6,0,P|253:338|208:324,1,83.9999974365235,6|0,3:2|0:0,0:0:0:0:
151,261,82640,2,0,P|196:247|241:233,1,83.9999974365235,0|2,1:0|0:0,0:0:0:0:
296,170,83068,2,0,L|306:125,3,41.9999987182618,2|2|2|0,3:2|0:0|0:1|0:0,0:0:0:0:
271,96,83497,2,0,P|229:97|211:49,1,83.9999974365235,0|0,1:0|0:0,0:0:0:0:
173,35,83818,5,0,0:0:0:0:
173,35,83925,2,0,P|110:52|46:76,2,125.999996154785,6|4|2,3:2|0:0|0:0,0:0:0:0:
260,5,84782,1,0,3:0:0:0:
347,36,84997,2,0,P|366:31|390:22,2,41.9999987182618,2|0|2,0:0|0:0|1:2,0:0:0:0:
359,127,85425,1,0,3:0:0:0:
359,127,85532,1,0,1:0:0:0:
359,127,85639,1,4,3:2:0:0:
