osu file format v14

[General]
AudioFilename: audio.mp3
AudioLeadIn: 0
PreviewTime: 49425
Countdown: 0
SampleSet: Soft
StackLeniency: 0.4
Mode: 0
LetterboxInBreaks: 0
WidescreenStoryboard: 1

[Editor]
Bookmarks: 34211,44497,51354,65070,78785,85642
DistanceSpacing: 1.4
BeatDivisor: 4
GridSize: 32
TimelineZoom: 1.5

[Metadata]
Title:Interstellar Journey (feat. Lea Sirk)
TitleUnicode:Interstellar Journey (feat. Lea Sirk)
Artist:HOYO-MiX
ArtistUnicode:HOYO-MiX
Creator:Ziny
Version:Normal
Source:Honkai: Star Rail
Tags:王可鑫 苑迪萌 黑金雨 王可鑫 文驰 宫奇 王可鑫 宫奇 星间旅行 崩坏:星穹铁道 mihoyo hoyoverse houkai 崩壊:スターレイル 붕괴: 스타레일 benghuai xingqiong tiedao bunggoe seutaleil video_game video game english cami djulus maruoko walkingdivan4ik hyokar delette _milr electronic n pop wd
BeatmapID:4465523
BeatmapSetID:2088304

[Difficulty]
HPDrainRate:4
CircleSize:3.3
OverallDifficulty:4
ApproachRate:5
SliderMultiplier:1.3
SliderTickRate:1

[Events]
//Background and Video events
0,0,"bg.jpg",0,0
//Break Periods
2,20696,26154
//Storyboard Layer 0 (Background)
//Storyboard Layer 1 (Fail)
//Storyboard Layer 2 (Pass)
//Storyboard Layer 3 (Foreground)
//Storyboard Layer 4 (Overlay)
//Storyboard Sound Samples

[TimingPoints]
1640,428.571428571429,4,2,1,65,1,0
5925,-100,4,2,1,5,0,0
6782,-105.263157894737,4,2,1,60,0,0
27354,-105.263157894737,4,2,1,45,0,0
34211,-105.263157894737,4,2,1,55,0,0
47925,-105.263157894737,4,2,1,50,0,0
49640,-105.263157894737,4,2,1,40,0,0
50711,-105.263157894737,4,2,1,30,0,0
51354,-95.2380952380954,4,2,2,70,0,1
77925,-105.263157894737,4,2,1,70,0,0
78247,-105.263157894737,4,2,1,5,0,0
78782,-105.263157894737,4,2,1,65,0,0
90782,-105.263157894737,4,2,1,5,0,0

[Colours]
Combo1 : 164,240,247
Combo2 : 243,177,208
Combo3 : 167,140,247
Combo4 : 183,219,193

[HitObjects]
256,192,1640,12,0,5925,0:0:0:0:
95,328,6782,6,0,P|176:347|248:313,1,123.499996702194,6|0,3:2|1:0,0:0:0:0:
277,278,7425,1,2,0:0:0:0:
277,278,7640,2,0,L|263:174,1,92.6249975266457,2|0,0:0|0:0,0:0:0:0:
313,76,8282,1,0,0:0:0:0:
260,14,8497,2,0,B|174:38|230:43|136:77,1,123.499996702194,2|0,3:2|1:0,0:0:0:0:
71,73,9140,6,0,P|79:99|93:140,1,61.7499983510972,2|0,0:0|0:0,0:0:0:0:
62,206,9568,1,4,3:2:0:0:
163,270,9890,1,4,3:2:0:0:
77,354,10211,2,0,P|120:312|180:316,1,123.499996702194,6|0,3:2|1:0,0:0:0:0:
246,363,10854,2,0,L|305:344,1,61.7499983510972,2|2,0:0|0:0,0:0:0:0:
377,379,11282,1,2,3:3:0:0:
509,288,11711,5,0,0:0:0:0:
439,237,11925,2,0,L|419:137,2,92.6249975266457,6|4|4,3:2|3:2|3:2,0:0:0:0:
268,267,12997,2,0,B|188:256|238:237|130:220,1,123.499996702194,4|0,3:2|0:0,0:0:0:0:
78,267,13640,2,0,P|65:215|102:153,1,123.499996702194,6|0,3:2|1:0,0:0:0:0:
164,102,14282,2,0,L|142:17,1,61.7499983510972,2|2,0:0|0:0,0:0:0:0:
68,10,14711,1,2,3:0:0:0:
241,49,15140,5,0,0:0:0:0:
241,49,15354,2,0,L|391:77,1,123.499996702194,6|2,3:2|1:2,0:0:0:0:
411,0,15997,2,0,L|471:13,1,61.7499983510972,2|2,0:0|0:0,0:0:0:0:
510,90,16425,1,4,3:2:0:0:
355,167,16854,5,0,0:0:0:0:
408,234,17068,2,0,P|464:230|511:280,1,123.499996702194,6|0,3:2|1:0,0:0:0:0:
485,358,17711,2,0,L|426:379,1,61.7499983510972,2|2,0:0|0:0,0:0:0:0:
348,342,18140,1,2,3:0:0:0:
184,286,18568,5,0,0:0:0:0:
111,332,18782,2,0,P|95:284|113:238,1,92.6249975266457,6|2,3:2|3:2,0:0:0:0:
208,163,19425,1,2,3:2:0:0:
94,32,19854,2,0,B|34:44|66:57|9:66,2,92.6249975266457,6|0|0,3:2|3:2|3:0,0:0:0:0:
455,252,27354,6,0,L|472:57,2,185.249995053291,2|2|0,3:2|3:2|0:0,0:0:0:0:
300,330,29068,2,0,P|225:350|126:298,2,185.249995053291,2|0|0,3:2|0:0|0:0,0:0:0:0:
195,191,30782,6,0,L|-9:220,2,185.249995053291,0|0|0,3:0|3:0|3:0,0:0:0:0:
294,64,32497,2,0,P|338:109|317:168,1,123.499996702194,2|2,3:2|0:0,0:0:0:0:
399,255,33247,1,2,0:0:0:0:
319,345,33568,2,0,L|178:337,1,123.499996702194,2|2,0:0|0:0,0:0:0:0:
115,336,34211,6,0,P|100:277|142:205,1,123.499996702194,2|0,3:2|1:0,0:0:0:0:
60,170,34854,1,2,0:0:0:0:
95,94,35068,2,0,B|151:107|125:116|180:130,1,92.6249975266457,2|2,3:2|0:0,0:0:0:0:
294,181,35711,5,0,0:0:0:0:
294,181,35925,2,0,L|309:108,1,61.7499983510972,2|0,3:2|0:0,0:0:0:0:
311,40,36354,2,0,L|371:50,1,61.7499983510972,0|2,1:0|0:0,0:0:0:0:
447,25,36782,2,0,P|456:72|424:118,1,92.6249975266457,2|2,3:2|0:0,0:0:0:0:
496,213,37425,5,2,0:2:0:0:
442,273,37640,2,0,P|453:312|466:351,1,61.7499983510972,2|0,3:2|0:0,0:0:0:0:
381,348,38068,2,0,P|371:318|362:288,1,61.7499983510972,0|2,1:2|0:0,0:0:0:0:
334,213,38497,2,0,B|251:234|298:242|202:271,1,123.499996702194,2|0,3:2|1:0,0:0:0:0:
107,376,39354,6,0,P|83:315|109:265,1,123.499996702194,2|0,3:2|1:0,0:0:0:0:
69,195,39997,2,0,P|120:156|176:168,1,123.499996702194,2|0,0:0|0:0,0:0:0:0:
235,221,40640,1,0,1:0:0:0:
368,139,41068,6,0,L|340:18,1,123.499996702194,2|2,3:2|1:2,0:0:0:0:
264,8,41711,1,2,0:2:0:0:
264,8,41925,2,0,P|221:24|177:13,1,92.6249975266457,2|0,0:0|0:0,0:0:0:0:
60,13,42568,1,0,0:0:0:0:
60,13,42782,2,0,L|91:132,1,123.499996702194,2|2,3:2|1:2,0:0:0:0:
38,192,43425,1,2,3:2:0:0:
38,192,43640,2,0,P|33:231|52:261,1,61.7499983510972,0|2,0:2|3:0,0:0:0:0:
104,300,44068,1,0,1:0:0:0:
243,380,44497,6,0,P|262:325|221:256,1,123.499996702194,4|0,3:1|1:0,0:0:0:0:
236,187,45140,2,0,B|318:207|269:210|352:228,1,123.499996702194,2|0,3:2|3:0,0:0:0:0:
381,155,45782,1,0,1:0:0:0:
381,155,45997,2,0,L|352:27,1,123.499996702194,2|2,3:2|0:0,0:0:0:0:
480,133,46854,2,0,L|493:193,1,61.7499983510972,2|0,3:2|0:0,0:0:0:0:
511,276,47282,2,0,L|450:289,1,61.7499983510972,0|0,3:0|1:0,0:0:0:0:
379,251,47711,1,0,0:0:0:0:
379,251,47925,1,2,3:2:0:0:
256,192,48032,12,0,49640,3:0:0:0:
204,12,51354,6,0,B|105:34|169:41|64:73,1,136.499995834351,6|8,3:2|3:2,0:0:0:0:
25,138,51997,1,2,0:0:0:0:
25,138,52211,2,0,P|72:153|108:167,1,68.2499979171754,2|0,3:2|0:0,0:0:0:0:
130,176,52532,1,2,0:0:0:0:
211,277,52854,1,2,0:0:0:0:
211,277,53068,2,0,P|241:261|273:249,1,68.2499979171754,2|0,3:2|0:0,0:0:0:0:
327,178,53497,2,0,P|358:189|389:205,1,68.2499979171754,10|0,3:2|0:0,0:0:0:0:
475,224,53925,2,0,P|450:279|412:364,1,136.499995834351,2|10,3:2|3:2,0:0:0:0:
242,371,54782,6,0,P|173:367|125:314,1,136.499995834351,6|8,3:2|3:2,0:0:0:0:
72,258,55425,1,2,0:0:0:0:
72,258,55640,1,2,3:2:0:0:
158,157,55961,2,0,P|166:109|187:51,1,102.374996875763,2|2,0:0|0:0,0:0:0:0:
256,8,56497,6,0,P|322:7|374:60,1,136.499995834351,2|8,3:2|3:2,0:0:0:0:
315,122,57140,1,2,0:0:0:0:
476,207,57568,1,2,0:0:0:0:
476,207,57782,2,0,P|468:164|459:123,1,68.2499979171754,8|8,3:2|3:2,0:0:0:0:
374,148,58211,6,0,P|380:181|400:288,1,136.499995834351,6|8,3:2|3:2,0:0:0:0:
485,320,58854,1,2,0:0:0:0:
485,320,59068,1,2,3:2:0:0:
364,378,59390,2,0,P|330:375|299:353,1,68.2499979171754,2|0,0:0|0:0,0:0:0:0:
276,320,59711,1,2,0:0:0:0:
223,248,59925,6,0,P|189:255|156:262,1,68.2499979171754,2|0,3:2|0:0,0:0:0:0:
107,194,60354,1,10,3:2:0:0:
107,194,60568,1,2,0:2:0:0:
29,236,60782,2,0,P|-1:295|30:353,1,136.499995834351,2|10,3:2|3:2,0:0:0:0:
177,253,61640,6,0,B|261:233|205:224|297:195,1,136.499995834351,2|10,3:2|3:2,0:0:0:0:
388,217,62282,1,0,0:0:0:0:
388,217,62497,2,0,P|403:164|414:133,1,68.2499979171754,2|0,3:2|0:0,0:0:0:0:
475,95,62925,2,0,P|459:42|448:11,1,68.2499979171754,10|0,3:2|0:0,0:0:0:0:
368,7,63354,2,0,P|323:34|270:26,1,102.374996875763,2|2,3:0|0:3,0:0:0:0:
144,1,63997,1,2,0:3:0:0:
13,115,64425,1,2,0:0:0:0:
13,115,64640,2,0,P|44:127|75:141,1,68.2499979171754,2|0,3:0|0:0,0:0:0:0:
130,210,65068,6,0,P|161:195|261:158,1,136.499995834351,6|8,3:2|3:2,0:0:0:0:
341,125,65711,1,2,0:0:0:0:
341,125,65925,2,0,P|358:161|334:200,1,68.2499979171754,2|0,3:2|0:0,0:0:0:0:
318,218,66247,1,2,0:0:0:0:
213,299,66568,1,2,0:2:0:0:
213,299,66782,2,0,P|246:306|292:329,1,68.2499979171754,2|0,3:2|0:0,0:0:0:0:
340,383,67211,2,0,P|370:369|403:361,1,68.2499979171754,10|0,3:2|0:0,0:0:0:0:
471,303,67640,2,0,B|453:206|443:265|417:165,1,136.499995834351,2|8,3:2|3:2,0:0:0:0:
319,24,68497,6,0,P|256:50|190:68,1,136.499995834351,6|8,3:2|3:2,0:0:0:0:
120,21,69140,1,2,0:0:0:0:
120,21,69354,1,2,3:2:0:0:
31,124,69675,2,0,P|80:120|128:160,1,102.374996875763,2|2,0:0|0:0,0:0:0:0:
210,142,70211,2,0,P|227:212|185:269,1,136.499995834351,2|8,3:2|3:2,0:0:0:0:
59,377,71068,1,0,3:0:0:0:
59,377,71282,2,0,P|49:344|39:311,2,68.2499979171754,2|10|2,0:0|0:0|3:2,0:0:0:0:
129,322,71925,6,0,P|174:335|200:343,1,68.2499979171754,6|0,3:2|0:0,0:2:0:0:
279,368,72354,2,0,P|292:323|300:297,1,68.2499979171754,10|2,3:2|0:2,0:0:0:0:
368,248,72782,2,0,P|356:200|343:156,1,68.2499979171754,2|0,3:2|0:0,0:0:0:0:
358,137,73104,1,2,0:0:0:0:
473,69,73425,5,2,0:0:0:0:
473,69,73640,2,0,P|436:58|402:67,1,68.2499979171754,2|0,3:2|0:0,0:0:0:0:
344,2,74068,2,0,P|318:24|307:56,1,68.2499979171754,10|0,3:2|0:0,0:0:0:0:
241,116,74497,1,2,3:2:0:0:
131,24,74925,1,10,3:2:0:0:
15,158,75354,6,0,P|46:164|101:182,1,68.2499979171754,6|2,3:2|0:0,0:0:0:0:
109,208,75675,2,0,P|140:194|223:173,1,102.374996875763,2|2,0:0|0:0,0:0:0:0:
284,133,76211,1,2,3:2:0:0:
333,213,76425,1,0,0:0:0:0:
333,213,76640,2,0,P|343:249|325:287,1,68.2499979171754,8|0,3:2|0:0,0:0:0:0:
261,329,77068,6,0,B|190:340|231:351|165:363,1,102.374996875763,2|10,3:2|3:2,0:0:0:0:
37,320,77711,2,0,L|43:286,1,34.1249989585877,10|6,0:0|3:2,0:0:0:0:
328,4,78782,6,0,P|263:3|211:45,1,123.499996702194,6|2,3:2|1:2,0:0:0:0:
94,139,79640,1,0,3:0:0:0:
94,139,79854,2,0,P|151:151|218:178,1,123.499996702194,2|2,0:0|0:0,0:0:0:0:
248,246,80497,2,0,B|325:222|276:214|355:188,1,123.499996702194,2|0,3:2|1:0,0:0:0:0:
483,90,81354,5,2,3:2:0:0:
483,90,81568,2,0,P|470:129|455:183,1,92.6249975266457,2|2,0:1|0:1,0:0:0:0:
444,217,81997,1,0,0:0:0:0:
478,289,82211,2,0,P|415:294|372:253,1,123.499996702194,6|0,3:2|1:0,0:0:0:0:
295,133,83068,1,2,3:2:0:0:
295,133,83282,2,0,P|259:143|194:159,1,92.6249975266457,2|2,0:1|0:1,0:0:0:0:
101,94,83925,6,0,P|112:138|124:183,1,92.6249975266457,6|4,3:2|0:0,0:0:0:0:
155,300,84568,1,2,0:0:0:0:
16,379,84997,1,2,0:0:0:0:
16,379,85211,2,0,P|22:356|32:319,1,61.7499983510972,2|0,1:2|3:0,0:1:0:0:
51,241,85640,1,4,3:2:0:0:
256,192,85747,12,0,90782,0:0:0:0:
