osu file format v14

[General]
AudioFilename: audio.mp3
AudioLeadIn: 0
PreviewTime: 49425
Countdown: 0
SampleSet: Soft
StackLeniency: 0.7
Mode: 0
LetterboxInBreaks: 0
WidescreenStoryboard: 0

[Editor]
DistanceSpacing: 1.1
BeatDivisor: 4
GridSize: 32
TimelineZoom: 1

[Metadata]
Title:Interstellar Journey (feat. Lea Sirk)
TitleUnicode:Interstellar Journey (feat. Lea Sirk)
Artist:HOYO-MiX
ArtistUnicode:HOYO-MiX
Creator:Ziny
Version:Insane
Source:Honkai: Star Rail
Tags:王可鑫 苑迪萌 黑金雨 王可鑫 文驰 宫奇 王可鑫 宫奇 星间旅行 崩坏:星穹铁道 mihoyo hoyoverse houkai 崩壊:スターレイル 붕괴: 스타레일 benghuai xingqiong tiedao bunggoe seutaleil video_game video game english cami djulus maruoko walkingdivan4ik hyokar delette _milr electronic n pop wd
BeatmapID:4376234
BeatmapSetID:2088304

[Difficulty]
HPDrainRate:4.5
CircleSize:4
OverallDifficulty:8
ApproachRate:8.8
SliderMultiplier:1.8
SliderTickRate:1

[Events]
//Background and Video events
0,0,"bg.jpg",0,0
//Break Periods
//Storyboard Layer 0 (Background)
//Storyboard Layer 1 (Fail)
//Storyboard Layer 2 (Pass)
//Storyboard Layer 3 (Foreground)
//Storyboard Layer 4 (Overlay)
//Storyboard Sound Samples

[TimingPoints]
1640,428.571428571429,4,2,1,65,1,0
1854,-100,4,2,1,65,0,0
5925,-100,4,2,1,5,0,0
6782,-100,4,2,1,60,0,0
21140,-125,4,2,1,45,0,0
27354,-125,4,2,1,45,0,0
34211,-111.111111111111,4,2,1,55,0,0
44497,-111.111111111111,4,2,1,55,0,0
47925,-111.111111111111,4,2,1,50,0,0
49640,-111.111111111111,4,2,1,40,0,0
50711,-111.111111111111,4,2,1,30,0,0
51354,-90.9090909090909,4,2,2,70,0,1
60782,-76.9230769230769,4,2,2,70,0,1
61640,-90.9090909090909,4,2,2,70,0,1
64640,-125,4,2,2,70,0,0
65068,-90.9090909090909,4,2,2,70,0,1
74497,-76.9230769230769,4,2,2,70,0,1
75354,-90.9090909090909,4,2,2,70,0,1
77925,-90.9090909090909,4,2,1,70,0,1
78140,-90.9090909090909,4,2,1,70,0,0
78247,-90.9090909090909,4,2,1,5,0,0
78354,-125,4,2,1,70,0,0
78782,-100,4,2,1,65,0,0
85747,-100,4,2,1,65,0,0
90782,-100,4,2,1,5,0,0

[Colours]
Combo1 : 164,240,247
Combo2 : 243,177,208
Combo3 : 167,140,247
Combo4 : 183,219,193

[HitObjects]
256,192,1854,12,0,5925,0:0:0:0:
0,128,6782,6,0,B|45:108|104:153|51:154|112:201|161:179,1,180,6|0,3:2|1:0,0:0:0:0:
256,0,7425,1,2,0:0:0:0:
138,109,7640,1,2,0:0:0:0:
224,256,7854,6,0,L|245:168,1,90,2|0,3:3|1:0,0:0:0:0:
307,125,8175,1,2,3:3:0:0:
307,125,8283,2,0,L|296:81,1,45
352,192,8497,6,0,P|436:209|484:141,1,180,2|0,3:2|1:0,0:0:0:0:
309,259,9140,1,2,0:0:0:0:
407,138,9354,1,0,0:0:0:0:
426,346,9568,6,0,L|518:321,1,90,4|2,3:2|1:2,0:2:0:0:
370,287,9890,2,0,L|326:298,1,45,4|0,3:2|0:0,0:0:0:0:
209,341,10104,1,0,0:0:0:0:
272,383,10211,6,0,B|279:332|223:299|223:299|201:261|236:217,1,180,6|0,3:2|1:0,0:0:0:0:
160,128,10854,1,2,0:0:0:0:
320,224,11068,1,2,0:0:0:0:
128,288,11282,5,2,3:3:0:0:
136,296,11390,1,0,0:0:0:0:
145,303,11497,2,0,L|128:356,1,45,0|2,1:0|3:0,0:0:0:0:
51,327,11711,2,0,L|69:272,1,45
127,183,11925,6,0,P|101:143|114:93,1,90,6|0,3:2|1:0,0:0:0:0:
215,46,12247,2,0,P|203:65|178:73,1,45,4|0,3:2|0:0,0:0:0:0:
45,0,12461,1,0,1:0:0:0:
45,0,12568,2,0,P|90:-1|129:48,1,90,4|0,3:2|0:0,0:0:0:0:
346,146,12997,6,0,P|348:189|319:223,1,90,4|0,3:2|1:0,0:0:0:0:
272,159,13318,1,2,3:0:0:0:
260,155,13425,5,0,0:0:0:0:
244,117,13532,1,0,1:0:0:0:
258,78,13640,2,0,P|329:24|417:39,1,180,6|0,3:2|1:0,0:0:0:0:
512,192,14282,1,2,0:0:0:0:
346,102,14497,1,2,0:0:0:0:
512,6,14711,6,0,L|481:99,1,90,2|0,3:0|1:0,0:0:0:0:
419,136,15032,1,2,3:0:0:0:
419,136,15140,2,0,L|429:180,1,45
512,256,15354,2,0,B|467:236|408:281|461:282|400:329|351:307,1,180,6|2,3:2|1:2,0:0:0:0:
480,384,15997,1,2,0:0:0:0:
372,237,16211,1,2,0:0:0:0:
265,349,16425,6,0,P|280:307|260:268,1,90,4|0,3:2|1:0,0:0:0:0:
155,206,16747,2,0,P|176:211|198:208,1,45,4|0,3:2|0:0,0:0:0:0:
299,90,16961,1,2,0:0:0:0:
351,148,17068,6,0,P|275:126|182:79,1,180,6|0,3:2|1:0,0:0:0:0:
0,0,17711,1,2,0:0:0:0:
128,128,17925,1,2,0:0:0:0:
256,11,18140,6,0,P|295:31|343:43,1,90,2|0,3:0|1:0,0:0:0:0:
364,118,18461,1,2,3:0:0:0:
364,118,18568,2,0,P|385:109|404:99,1,45
502,0,18782,6,0,P|525:36|511:77,1,90,6|0,3:2|1:0,0:0:0:0:
453,164,19104,6,0,P|429:205|444:242,1,90,2|0,3:2|1:0,0:0:0:0:
497,384,19425,6,0,L|512:341,1,45,2|0,3:2|0:0,0:0:0:0:
288,256,19854,6,0,L|278:166,1,90,6|0,3:2|0:0,0:0:0:0:
217,116,20175,2,0,L|237:27,1,90,0|0,3:2|0:0,0:0:0:0:
312,0,20497,1,0,3:0:0:0:
0,32,21140,5,0,0:0:0:0:
0,32,21354,2,0,P|38:42|76:57,1,72
138,16,21782,1,0,0:0:0:0:
217,116,21997,5,0,0:0:0:0:
217,116,22104,1,0,0:0:0:0:
217,116,22211,2,0,B|119:136|180:157|81:183,1,144,2|0,3:2|0:0,0:0:0:0:
34,131,22854,2,0,P|4:192|57:250,1,144,2|0,3:2|0:0,0:0:0:0:
256,352,23711,5,0,0:0:0:0:
256,352,23818,1,0,0:0:0:0:
256,352,23925,2,0,B|252:398|148:426|88:340|157:211|241:227,1,288,2|0,3:2|0:0,0:0:0:0:
212,227,25211,2,0,P|243:252|279:255,1,72
334,357,25640,6,0,P|401:328|474:309,1,144,2|0,3:2|0:0,0:0:0:0:
512,245,26282,2,0,P|446:216|376:197,1,144,2|0,3:2|0:0,0:0:0:0:
335,136,26925,1,0,0:0:0:0:
439,20,27140,5,0,0:0:0:0:
439,20,27247,1,0,0:0:0:0:
439,20,27354,2,0,P|470:37|508:47,1,72,2|0,3:2|0:0,0:0:0:0:
479,118,27675,2,0,P|444:108|412:91,1,72,2|0,0:0|0:0,0:0:0:0:
365,31,27997,1,2,3:2:0:0:
249,81,28211,5,2,0:0:0:0:
249,81,28318,1,0,0:0:0:0:
249,81,28425,1,0,0:0:0:0:
288,0,28640,1,0,0:0:0:0:
335,136,28854,1,0,0:0:0:0:
224,224,29068,6,0,P|211:189|193:135,1,72,2|0,3:2|0:0,0:0:0:0:
128,127,29390,2,0,P|141:92|156:41,1,72
211,10,29711,1,0,0:0:0:0:
15,136,30140,5,0,0:0:0:0:
83,180,30354,1,0,0:0:0:0:
34,299,30568,1,2,0:0:0:0:
12,219,30782,2,0,B|62:213|97:248|97:248|98:277|121:290,1,144,0|0,3:0|0:0,0:0:0:0:
251,368,31425,1,0,3:0:0:0:
167,384,31640,2,0,P|181:341|205:273,1,108
205,273,32068,1,0,3:0:0:0:
320,160,32282,5,0,0:0:0:0:
320,160,32390,1,0,0:0:0:0:
320,160,32497,2,0,P|334:200|347:241,1,72,2|0,3:2|0:0,0:0:0:0:
351,248,32818,1,2,0:0:0:0:
351,248,32925,1,2,0:0:0:0:
384,352,33140,5,0,3:0:0:0:
384,352,33247,2,0,P|348:362|302:375,1,72,2|0,0:0|0:0,0:0:0:0:
419,279,33568,2,0,P|436:284|453:290,1,36,2|0,0:0|0:0,0:0:0:0:
512,187,33782,5,2,0:0:0:0:
490,157,33889,1,2,0:0:0:0:
460,141,33996,1,2,0:0:0:0:
424,138,34103,1,2,0:0:0:0:
392,153,34211,6,0,B|384:49|339:98|325:-1,1,161.999995056153,2|0,3:2|1:0,0:0:0:0:
448,64,34854,1,2,0:0:0:0:
315,142,35068,2,0,P|267:98|203:113,1,121.499996292114,2|2,3:2|0:0,0:0:0:0:
144,74,35497,2,0,P|152:55|167:43,1,40.4999987640381,0|0,1:0|0:0,0:0:0:0:
239,23,35711,1,0,0:0:0:0:
247,176,35925,6,0,L|256:221,1,40.4999987640381,2|0,3:2|0:0,0:0:0:0:
306,275,36140,2,0,L|298:293,2,20.2499993820191,0|0|2,0:0|0:0|0:0,0:0:0:0:
365,225,36354,1,0,1:0:0:0:
222,286,36568,1,2,0:0:0:0:
321,384,36782,2,0,P|358:339|416:344,1,121.499996292114,2|2,3:2|0:0,0:0:0:0:
512,366,37211,5,2,1:2:0:0:
502,335,37318,1,2,0:2:0:0:
493,304,37425,1,2,0:2:0:0:
482,273,37532,1,2,0:2:0:0:
473,241,37640,6,0,P|433:236|400:258,1,80.9999975280763,2|0,3:2|0:0,0:0:0:0:
331,106,38068,2,0,P|317:124|314:140,1,40.4999987640381,0|0,1:2|0:0,0:0:0:0:
390,154,38282,1,2,0:0:0:0:
342,25,38497,2,0,B|264:36|304:54|229:66,1,121.499996292114,2|0,3:2|0:0,0:0:0:0:
217,78,38925,1,0,1:0:0:0:
96,0,39140,1,0,0:0:0:0:
160,160,39354,6,0,L|98:176,1,40.4999987640381,2|0,3:2|0:0,0:0:0:0:
69,115,39568,2,0,L|40:107,2,20.2499993820191,0|0|2,0:0|0:0|0:0,0:0:0:0:
136,74,39782,1,0,1:0:0:0:
50,197,39997,2,0,L|23:283,1,80.9999975280763,2|2,0:0|3:2,0:0:0:0:
145,384,40425,1,0,0:0:0:0:
0,384,40640,2,0,P|19:372|50:361,1,40.4999987640381,0|0,1:0|3:0,0:0:0:0:
128,256,40854,1,0,0:0:0:0:
124,268,40961,1,0,0:0:0:0:
114,282,41068,6,0,P|184:287|242:355,1,161.999995056153,2|2,3:2|1:2,0:0:0:0:
219,213,41711,1,2,0:2:0:0:
154,365,41925,1,2,0:0:0:0:
320,320,42140,2,0,L|405:351,1,80.9999975280763,2|0,3:0|1:0,0:0:0:0:
448,288,42461,2,0,L|486:275,1,40.4999987640381,2|0,3:0|0:0,0:0:0:0:
394,205,42675,5,0,0:0:0:0:
394,205,42782,2,0,L|355:217,1,40.4999987640381,2|0,3:2|0:0,0:0:0:0:
342,143,42997,2,0,L|361:134,2,20.2499993820191,2|0|2,0:0|0:0|0:0,0:0:0:0:
285,194,43211,1,2,1:2:0:0:
437,140,43425,1,2,3:2:0:0:
293,2,43640,2,0,P|289:38|323:79,1,80.9999975280763,0|2,0:2|3:0,0:0:0:0:
210,216,44068,5,0,1:0:0:0:
232,250,44175,1,2,3:0:0:0:
237,290,44282,1,0,0:0:0:0:
226,329,44389,1,0,0:0:0:0:
201,360,44497,6,0,P|161:318|93:333,1,121.499996292114,4|0,3:1|0:0,0:0:0:0:
101,335,44925,1,0,1:0:0:0:
19,237,45140,2,0,P|7:198|-1:158,1,80.9999975280763,2|0,3:2|0:0,0:0:0:0:
51,106,45461,1,0,3:0:0:0:
51,106,45568,2,0,P|58:86|66:68,1,40.4999987640381,0|0,3:0|0:0,0:0:0:0:
16,11,45782,1,0,1:0:0:0:
161,140,45997,6,0,P|151:120|144:102,1,40.4999987640381,2|0,3:2|0:0,0:0:0:0:
245,57,46211,2,0,P|233:74|220:89,1,40.4999987640381,0|0,3:0|0:0,0:0:0:0:
149,27,46425,1,2,0:0:0:0:
149,27,46532,2,0,P|170:28|181:29,2,20.2499993820191,0|0|0,1:0|0:0|0:0,0:0:0:0:
236,166,46854,2,0,P|198:210|225:273,1,121.499996292114,2|0,3:2|0:0,0:0:0:0:
224,274,47282,1,0,3:0:0:0:
295,384,47497,5,0,1:0:0:0:
318,378,47604,1,2,3:2:0:0:
359,352,47711,5,0,0:0:0:0:
371,354,47818,1,0,0:0:0:0:
386,358,47925,1,2,3:2:0:0:
256,192,48032,12,0,49425,0:0:0:0:
492,19,49640,6,0,P|506:55|487:98,1,80.9999975280763,2|0,3:2|0:0,0:0:0:0:
413,90,49961,2,0,P|399:54|418:11,1,80.9999975280763,2|0,3:2|0:0,0:0:0:0:
500,0,50282,6,0,P|521:53|493:118,1,121.499996292114,2|0,3:2|0:0,0:0:0:0:
450,168,50711,1,8,0:0:0:0:
320,0,50925,1,8,0:0:0:0:
128,64,51140,5,8,0:0:0:0:
79,127,51247,1,8,0:0:0:0:
115,199,51354,2,0,B|164:177|229:226|171:227|238:279|292:255,1,198.000006042481,6|8,3:2|3:2,0:0:0:0:
480,384,51997,6,0,L|492:336,1,49.5000015106202,2|0,0:0|0:0,0:0:0:0:
384,224,52211,2,0,P|361:266|372:314,1,99.0000030212403,2|0,3:2|0:0,0:0:0:0:
460,201,52532,2,0,P|434:160|387:145,1,99.0000030212403,2|0,0:0|0:0,0:0:0:0:
439,278,52854,1,2,0:0:0:0:
288,128,53068,6,0,P|268:83|265:22,1,99.0000030212403,2|0,3:2|0:0,0:0:0:0:
192,192,53497,2,0,P|126:158|73:106,1,148.50000453186,10|0,3:2|0:0,0:0:0:0:
1,0,53925,2,0,B|63:18|68:75|68:75|14:81|0:144,1,198.000006042481,2|10,3:2|3:2,0:0:0:0:
45,193,54568,1,0,0:0:0:0:
105,384,54782,6,0,P|70:299|159:237,1,198.000006042481,6|8,3:2|3:2,0:0:0:0:
288,128,55425,6,0,P|275:105|272:75,1,49.5000015106202,2|0,0:0|0:0,0:0:0:0:
384,0,55640,2,0,P|376:39|361:109,1,99.0000030212403,2|0,3:2|0:0,0:0:0:0:
483,152,55961,1,2,0:0:0:0:
483,152,56068,2,0,P|431:145|389:177,1,99.0000030212403,10|2,3:2|0:0,0:0:0:0:
352,384,56497,6,0,P|345:331|303:299,1,99.0000030212403,2|0,3:2|0:0,0:0:0:0:
213,218,56818,1,2,0:0:0:0:
238,290,56925,2,0,P|242:266|255:243,1,49.5000015106202,8|0,3:2|0:0,0:0:0:0:
352,128,57140,2,0,P|369:178|366:241,1,99.0000030212403,2|0,0:0|3:0,0:0:0:0:
256,64,57568,6,0,L|208:76,1,49.5000015106202,2|0,0:0|0:0,0:0:0:0:
152,21,57782,2,0,L|105:8,1,49.5000015106202,8|0,3:2|0:0,0:0:0:0:
0,105,57997,5,8,3:2:0:0:
79,103,58104,1,8,0:0:0:0:
134,159,58211,2,0,B|109:276|69:204|48:340,1,198.000006042481,6|8,3:2|3:2,0:0:0:0:
47,177,58854,2,0,P|20:185|-13:191,1,49.5000015106202,2|0,0:0|0:0,0:0:0:0:
124,324,59068,2,0,P|161:290|215:288,1,99.0000030212403,2|0,3:2|0:0,0:0:0:0:
256,192,59390,6,0,P|277:205|285:231,1,49.5000015106202,2|8,0:0|3:2,0:0:0:0:
427,377,59711,1,2,0:0:0:0:
193,362,59925,2,0,P|264:352|336:323,1,148.50000453186,2|0,3:2|0:0,0:0:0:0:
407,298,60354,6,0,L|426:230,1,49.5000015106202,10|0,3:2|0:0,0:0:0:0:
351,191,60568,2,0,L|332:123,1,49.5000015106202,2|0,0:2|0:0,0:0:0:0:
377,9,60782,6,0,B|424:1|469:59|419:46|465:107|517:98,1,175.499991966248,2|2,3:2|0:0,0:0:0:0:
374,89,61211,6,0,B|326:81|281:139|331:126|285:187|235:179,1,175.499991966248,10|2,3:2|0:0,0:0:0:0:
152,253,61640,6,0,P|124:186|171:134,1,148.50000453186,2|0,3:2|0:0,0:0:0:0:
236,104,62068,2,0,P|247:50|218:15,1,99.0000030212403,10|0,3:2|0:0,0:0:0:0:
0,15,62497,5,2,3:2:0:0:
0,15,62604,1,0,0:0:0:0:
0,15,62711,2,0,L|61:-4,1,49.5000015106202
165,64,62925,2,0,L|62:90,1,99.0000030212403,10|0,3:2|0:0,0:0:0:0:
0,224,63354,6,0,B|65:234|28:252|105:268,1,99.0000030212403,2|0,3:0|0:0,0:0:0:0:
216,314,63675,1,2,0:3:0:0:
160,371,63782,2,0,P|135:376|112:384,1,49.5000015106202
194,227,63997,2,0,P|240:242|286:263,1,99.0000030212403,2|0,0:3|3:0,0:0:0:0:
355,229,64318,1,8,0:0:0:0:
355,229,64425,1,2,0:0:0:0:
498,367,64640,6,0,L|504:399,2,18,2|0|0,3:0|0:0|0:0,0:0:0:0:
443,315,64854,1,0,0:0:0:0:
511,160,65068,2,0,B|455:123|392:176|392:176|383:228|335:233,1,198.000006042481,6|8,3:2|3:2,0:0:0:0:
232,16,65711,5,2,0:0:0:0:
232,16,65818,1,2,0:0:0:0:
293,64,65925,2,0,P|307:113|323:188,1,99.0000030212403,2|0,3:2|0:0,0:0:0:0:
128,96,66247,2,0,P|139:47|153:0,1,99.0000030212403,2|0,0:0|0:0,0:0:0:0:
192,160,66568,1,2,0:2:0:0:
0,192,66782,6,0,P|45:210|101:239,1,99.0000030212403,2|0,3:2|0:0,0:0:0:0:
128,351,67211,2,0,P|192:315|262:292,1,148.50000453186,10|0,3:2|0:0,0:0:0:0:
352,384,67640,2,0,P|304:310|378:233,1,198.000006042481,2|8,3:2|3:2,0:0:0:0:
389,312,68282,1,2,0:2:0:0:
512,192,68497,6,0,B|460:207|402:151|459:157|399:97|346:114,1,198.000006042481,6|8,3:2|3:2,0:0:0:0:
146,12,69140,6,0,L|135:60,1,49.5000015106202,2|0,0:0|0:0,0:0:0:0:
277,184,69354,2,0,L|261:83,1,99.0000030212403,2|0,3:2|0:0,0:0:0:0:
90,125,69675,1,2,0:0:0:0:
90,125,69782,2,0,P|132:143|185:114,1,99.0000030212403,8|2,3:2|0:0,0:0:0:0:
306,9,70211,6,0,P|262:-6|210:23,1,99.0000030212403,2|0,3:2|0:0,0:0:0:0:
178,122,70532,5,2,0:0:0:0:
128,179,70640,2,0,L|144:240,1,49.5000015106202,8|0,3:2|0:0,0:0:0:0:
224,352,70854,2,0,P|203:298|226:258,1,99.0000030212403,2|0,0:0|3:0,0:0:0:0:
446,177,71282,6,0,P|430:182|414:187,2,33.0000010070801,2|2|2,0:0|0:0|0:0,0:0:0:0:
362,248,71497,6,0,P|348:241|333:233,2,33.0000010070801,10|2|2,0:0|0:0|0:0,0:0:0:0:
278,170,71711,6,0,P|256:178|227:189,1,49.5000015106202,2|0,3:2|0:0,0:0:0:0:
127,308,71925,6,0,B|33:289|89:260|-7:236,1,148.50000453186,6|0,3:2|0:2,0:2:0:0:
0,95,72354,6,0,P|13:71|44:61,1,49.5000015106202,10|0,3:2|0:0,0:0:0:0:
76,0,72568,2,0,P|104:6|121:33,1,49.5000015106202,2|0,0:2|0:0,0:0:0:0:
225,149,72782,6,0,P|177:163|130:178,1,99.0000030212403,2|0,3:2|0:0,0:0:0:0:
107,108,73104,2,0,P|153:92|201:76,1,99.0000030212403,2|0,0:0|0:0,0:0:0:0:
53,165,73425,1,2,0:0:0:0:
242,0,73640,6,0,P|273:36|321:40,1,99.0000030212403,2|0,3:2|0:0,0:0:0:0:
506,134,74068,2,0,P|474:170|426:174,1,99.0000030212403,10|0,3:2|0:0,0:0:0:0:
337,299,74497,6,0,B|327:240|274:226|274:226|245:197|269:150,1,175.499991966248,2|0,3:2|0:0,0:0:0:0:
416,32,74925,6,0,B|435:70|407:100|407:100|345:105|344:172,1,175.499991966248,10|0,3:2|0:0,0:0:0:0:
497,280,75354,6,0,P|446:283|407:322,1,99.0000030212403,6|2,3:2|0:0,0:0:0:0:
361,375,75675,1,2,0:0:0:0:
361,375,75782,2,0,P|310:372|271:333,1,99.0000030212403,8|2,3:2|0:0,3:0:0:0:
84,181,76211,2,0,L|129:226,1,49.5000015106202,2|0,3:2|0:0,0:0:0:0:
243,231,76425,5,0,0:0:0:0:
243,231,76532,2,0,L|181:247,1,49.5000015106202,2|8,0:0|3:2,0:0:0:0:
128,341,76747,5,0,0:0:0:0:
128,341,76854,2,0,L|144:279,1,49.5000015106202
175,155,77068,6,0,B|232:140|208:129|274:109,1,99.0000030212403,2|0,3:2|0:0,0:0:0:0:
341,0,77390,1,10,3:2:0:0:
390,56,77497,2,0,L|373:111,1,49.5000015106202,8|0,3:2|0:0,0:0:0:0:
279,234,77711,1,10,0:0:0:0:
324,163,77818,2,0,L|365:328,1,148.50000453186,6|0,3:2|0:0,0:0:0:0:
359,307,78354,6,0,P|399:269|456:284,1,108,2|0,0:0|0:0,0:0:0:0:
449,384,78782,6,0,P|390:359|267:310,1,180,6|2,3:2|1:2,0:0:0:0:
128,224,79425,1,0,0:0:0:0:
181,384,79640,2,0,L|164:322,1,45,0|0,3:0|1:0,0:0:0:0:
208,251,79854,1,2,0:0:0:0:
211,264,79961,1,0,0:0:0:0:
213,276,80068,2,0,L|229:214,1,45,2|2,1:2|0:0,0:0:0:0:
192,64,80282,1,2,0:0:0:0:
307,205,80497,6,0,P|246:151|152:184,1,180,2|0,3:2|1:0,0:0:0:0:
0,139,81140,1,0,0:0:0:0:
142,6,81354,2,0,L|125:67,1,45,2|2,3:2|0:0,0:0:0:0:
71,97,81568,1,2,0:1:0:0:
71,97,81675,2,0,L|87:158,1,45,0|2,0:0|1:0,0:0:0:0:
158,176,81890,1,2,0:1:0:0:
158,176,81997,2,0,L|141:237,1,45,0|0,0:1|0:0,0:0:0:0:
7,250,82211,6,0,B|52:230|111:275|58:276|119:323|168:301,1,180,6|0,3:2|1:0,0:0:0:0:
288,160,82854,1,2,0:0:0:0:
146,219,83068,1,2,3:2:0:0:
324,326,83282,2,0,L|336:370,1,45,2|0,0:1|0:0,0:0:0:0:
258,384,83497,1,0,1:0:0:0:
258,384,83604,2,0,L|235:281,1,90,2|0,0:1|0:0,0:0:0:0:
352,224,83925,6,0,P|397:222|437:265,1,90,6|0,3:2|0:1,0:0:0:0:
512,351,84247,1,4,0:0:0:0:
443,383,84354,2,0,P|434:360|439:335,1,45,0|0,1:0|0:0,0:0:0:0:
512,224,84568,2,0,P|527:189|497:129,1,90,2|0,0:0|3:0,0:0:0:0:
384,64,84890,5,0,0:0:0:0:
395,141,84997,2,0,L|401:179,2,30,2|0|0,0:0|1:0|1:0,0:0:0:0:
455,92,85211,5,2,1:2:0:0:
322,115,85425,1,0,3:0:0:0:
257,69,85532,6,0,L|261:47,2,22.5,0|0|4,1:0|1:0|3:2,0:0:0:0:
256,192,85747,12,0,90782,0:0:0:0:
