osu file format v14

[General]
AudioFilename: audio.mp3
AudioLeadIn: 0
PreviewTime: 49425
Countdown: 0
SampleSet: Soft
StackLeniency: 0.4
Mode: 0
LetterboxInBreaks: 0
WidescreenStoryboard: 0

[Editor]
Bookmarks: 34211,44497,51354,65070,78785,85642
DistanceSpacing: 1.3
BeatDivisor: 8
GridSize: 32
TimelineZoom: 2.4

[Metadata]
Title:Interstellar Journey (feat. Lea Sirk)
TitleUnicode:Interstellar Journey (feat. Lea Sirk)
Artist:HOYO-MiX
ArtistUnicode:HOYO-MiX
Creator:Ziny
Version:Cami's Starlight
Source:Honkai: Star Rail
Tags:王可鑫 苑迪萌 黑金雨 王可鑫 文驰 宫奇 王可鑫 宫奇 星间旅行 崩坏:星穹铁道 mihoyo hoyoverse houkai 崩壊:スターレイル 붕괴: 스타레일 benghuai xingqiong tiedao bunggoe seutaleil video_game video game english cami djulus maruoko walkingdivan4ik hyokar delette _milr electronic n pop wd
BeatmapID:4376238
BeatmapSetID:2088304

[Difficulty]
HPDrainRate:5
CircleSize:4.2
OverallDifficulty:8.5
ApproachRate:9
SliderMultiplier:2.4
SliderTickRate:1

[Events]
//Background and Video events
0,0,"kafka_silver_wolf_feet_uuuuuh.jpg",0,0
//Break Periods
2,20697,26754
//Storyboard Layer 0 (Background)
//Storyboard Layer 1 (Fail)
//Storyboard Layer 2 (Pass)
//Storyboard Layer 3 (Foreground)
//Storyboard Layer 4 (Overlay)
//Storyboard Sound Samples

[TimingPoints]
1640,428.571428571429,4,2,1,65,1,0
5925,-100,4,2,1,65,0,0
6782,-66.6666666666667,4,2,1,60,0,0
7425,-76.9230769230769,4,2,1,60,0,0
7854,-66.6666666666667,4,2,1,60,0,0
9140,-133.333333333333,4,2,1,60,0,0
9568,-76.9230769230769,4,2,1,60,0,0
9890,-90.9090909090909,4,2,1,60,0,0
10211,-66.6666666666667,4,2,1,60,0,0
10854,-90.9090909090909,4,2,1,60,0,0
11282,-76.9230769230769,4,2,1,60,0,0
11925,-66.6666666666667,4,2,1,60,0,0
12568,-153.846153846153,4,2,1,60,0,0
12997,-66.6666666666667,4,2,1,60,0,0
13318,-83.3333333333333,4,2,1,60,0,0
13640,-62.5,4,2,1,60,0,0
14068,-83.3333333333333,4,2,1,60,0,0
14282,-76.9230769230769,4,2,1,60,0,0
14711,-71.4285714285714,4,2,1,60,0,0
15354,-62.5,4,2,1,60,0,0
15782,-76.9230769230769,4,2,1,60,0,0
15997,-83.3333333333333,4,2,1,60,0,0
16211,-100,4,2,1,60,0,0
16425,-66.6666666666667,4,2,1,60,0,0
17068,-58.8235294117647,4,2,1,60,0,0
17711,-76.9230769230769,4,2,1,60,0,0
18140,-66.6666666666667,4,2,1,60,0,0
18782,-71.4285714285714,4,2,1,60,0,0
19104,-66.6666666666667,4,2,1,60,0,0
19425,-100,4,2,1,60,0,0
19854,-71.4285714285714,4,2,1,60,0,0
27354,-133.333333333333,4,2,1,45,0,0
27997,-166.666666666667,4,2,1,45,0,0
29068,-142.857142857143,4,2,1,45,0,0
29711,-166.666666666667,4,2,1,45,0,0
30782,-142.857142857143,4,2,1,45,0,0
34211,-100,4,2,1,55,0,0
35068,-117.647058823529,4,2,1,55,0,0
35925,-100,4,2,1,55,0,0
36354,-117.647058823529,4,2,1,55,0,0
37640,-100,4,2,1,55,0,0
38497,-117.647058823529,4,2,1,55,0,0
39354,-100,4,2,1,55,0,0
40211,-117.647058823529,4,2,1,55,0,0
41068,-90.9090909090909,4,2,1,55,0,0
41497,-142.857142857143,4,2,1,55,0,0
42140,-76.9230769230769,4,2,1,55,0,0
42461,-100,4,2,1,55,0,0
42782,-90.9090909090909,4,2,1,55,0,0
43425,-111.111111111111,4,2,1,55,0,0
43854,-90.9090909090909,4,2,1,55,0,0
44497,-83.3333333333333,4,2,1,55,0,0
45782,-90.9090909090909,4,2,1,55,0,0
45997,-76.9230769230769,4,2,1,55,0,0
46532,-90.9090909090909,4,2,1,55,0,0
46854,-100,4,2,1,55,0,0
47925,-142.857142857143,4,2,1,50,0,0
49640,-142.857142857143,4,2,1,40,0,0
50711,-142.857142857143,4,2,1,30,0,0
51354,-66.6666666666667,4,2,2,70,0,1
51997,-76.9230769230769,4,2,2,70,0,1
52640,-66.6666666666667,4,2,2,70,0,1
52854,-100,4,2,2,70,0,1
53068,-71.4285714285714,4,2,2,70,0,1
53497,-76.9230769230769,4,2,2,70,0,1
53925,-90.9090909090909,4,2,2,70,0,1
54782,-58.8235294117647,4,2,2,70,0,1
55425,-76.9230769230769,4,2,2,70,0,1
56068,-71.4285714285714,4,2,2,70,0,1
56282,-100,4,2,2,70,0,1
56497,-71.4285714285714,4,2,2,70,0,1
57140,-76.9230769230769,4,2,2,70,0,1
57568,-66.6666666666667,4,2,2,70,0,1
58211,-58.8235294117647,4,2,2,70,0,1
58640,-100,4,2,2,70,0,1
58854,-76.9230769230769,4,2,2,70,0,1
59068,-71.4285714285714,4,2,2,70,0,1
59497,-76.9230769230769,4,2,2,70,0,1
59711,-90.9090909090909,4,2,2,70,0,1
59925,-66.6666666666667,4,2,2,70,0,1
60354,-76.9230769230769,4,2,2,70,0,1
61211,-62.5,4,2,2,70,0,1
62068,-83.3333333333333,4,2,2,70,0,1
62497,-62.5,4,2,2,70,0,1
62925,-100,4,2,2,70,0,1
63354,-71.4285714285714,4,2,2,70,0,1
64425,-83.3333333333333,4,2,2,70,0,1
64640,-142.857142857143,4,2,2,70,0,1
65068,-55.5555555555556,4,2,2,70,0,1
65497,-83.3333333333333,4,2,2,70,0,1
65925,-62.5,4,2,2,70,0,1
66354,-76.9230769230769,4,2,2,70,0,1
66782,-66.6666666666667,4,2,2,70,0,1
67211,-76.9230769230769,4,2,2,70,0,1
68497,-55.5555555555556,4,2,2,70,0,1
68925,-100,4,2,2,70,0,1
69140,-76.9230769230769,4,2,2,70,0,1
69354,-71.4285714285714,4,2,2,70,0,1
69782,-83.3333333333333,4,2,2,70,0,1
69997,-100,4,2,2,70,0,1
70211,-62.5,4,2,2,70,0,1
70640,-76.9230769230769,4,2,2,70,0,1
71711,-100,4,2,2,70,0,1
71925,-50,4,2,2,70,0,1
72354,-76.9230769230769,4,2,2,70,0,1
72782,-71.4285714285714,4,2,2,70,0,1
73425,-100,4,2,2,70,0,1
73640,-58.8235294117647,4,2,2,70,0,1
74068,-66.6666666666667,4,2,2,70,0,1
74711,-76.9230769230769,4,2,2,70,0,1
74925,-66.6666666666667,4,2,2,70,0,1
75997,-90.9090909090909,4,2,2,70,0,1
76211,-83.3333333333333,4,2,2,70,0,1
77068,-62.5,4,2,2,70,0,1
77497,-76.9230769230769,4,2,2,70,0,1
77711,-66.6666666666667,4,2,2,70,0,1
77925,-66.6666666666667,4,2,1,70,0,1
78247,-66.6666666666667,4,2,1,5,0,0
78782,-83.3333333333333,4,2,1,65,0,0
79854,-111.111111111111,4,2,1,65,0,0
80497,-83.3333333333333,4,2,1,65,0,0
80925,-111.111111111111,4,2,1,65,0,0
81568,-76.9230769230769,4,2,1,65,0,0
82211,-90.9090909090909,4,2,1,65,0,0
83282,-71.4285714285714,4,2,1,65,0,0
83604,-66.6666666666667,4,2,1,65,0,0
83925,-71.4285714285714,4,2,1,65,0,0
84247,-83.3333333333333,4,2,1,65,0,0
84568,-105.263157894737,4,2,1,65,0,0
84997,-66.6666666666667,4,2,1,65,0,0
85532,-133.333333333333,4,2,1,65,0,0
90782,-133.333333333333,4,2,1,5,0,0

[Colours]
Combo1 : 164,240,247
Combo2 : 243,177,208
Combo3 : 167,140,247
Combo4 : 183,219,193

[HitObjects]
37,252,6782,6,0,B|85:181|201:204|201:204|140:197|116:242,1,270.000010299683,6|0,3:2|0:0,0:0:0:0:
117,331,7211,2,0,P|160:324|181:280,1,90.0000034332277,0|0,1:0|0:0,0:0:0:0:
377,191,7425,6,0,P|407:192|439:235,1,77.9999964294435,2|0,0:0|0:0,0:0:0:0:
495,278,7640,2,0,P|472:308|434:312,1,77.9999964294435,2|0,0:0|0:0,0:0:0:0:
313,141,7854,6,0,P|375:173|365:277,1,180.000006866455,2|0,3:3|1:0,0:0:0:0:
206,209,8175,2,0,P|191:125|262:77,1,180.000006866455,2|0,3:3|0:0,0:0:0:0:
313,141,8497,6,0,B|232:172|143:104|143:104|194:136|175:204,1,270.000010299683,2|0,3:2|0:0,0:0:0:0:
113,220,8925,1,0,1:0:0:0:
113,220,9140,6,0,P|117:191|140:178,1,45.0000017166138,2|0,0:0|0:0,0:0:0:0:
199,209,9354,2,0,P|195:238|172:251,1,45.0000017166138,0|0,0:0|0:2,0:0:0:0:
82,294,9568,6,0,P|59:290|8:316,1,77.9999964294435,4|0,3:2|0:2,0:2:0:0:
267,361,9782,1,2,1:2:0:0:
338,323,9890,2,0,P|366:271|311:207,1,132.00000402832,4|0,3:2|0:0,0:0:0:0:
282,156,10211,6,0,B|346:238|430:169|430:169|411:105|350:116,1,270.000010299683,6|0,3:2|0:0,0:0:0:0:
282,156,10640,1,0,1:0:0:0:
160,288,10854,6,0,P|144:322|153:353,1,66.0000020141602,2|0,0:0|0:0,0:0:0:0:
225,360,11068,2,0,P|240:331|234:299,1,66.0000020141602,2|0,0:0|0:0,0:0:0:0:
144,154,11282,6,0,B|104:169|73:142|73:142|30:122|0:151,1,155.999992858887,2|0,3:3|1:0,0:0:0:0:
148,158,11604,2,0,P|73:150|45:224,1,155.999992858887,2|0,3:0|0:0,0:0:0:0:
194,91,11925,6,0,P|226:118|227:167,1,90.0000034332277,6|0,3:2|0:0,0:0:0:0:
334,314,12140,5,0,1:0:0:0:
334,314,12247,2,0,P|341:272|383:247,1,90.0000034332277,4|0,3:2|0:0,0:0:0:0:
457,81,12461,5,0,1:0:0:0:
457,81,12568,2,0,P|417:95|355:51,1,116.999994644165,4|0,3:2|0:0,0:0:0:0:
305,2,12997,6,0,B|340:40|310:82|310:82|280:128|320:173,1,180.000006866455,4|0,3:2|1:0,0:0:0:0:
331,243,13318,2,0,B|352:274|335:307|335:307|315:342|343:379,1,143.999995605469,2|0,3:0|1:0,0:0:0:0:
422,212,13640,6,0,B|355:223|355:223|327:272|327:272|255:285,1,192,6|0,3:2|0:0,0:0:0:0:
183,272,13961,1,0,0:0:0:0:
183,272,14068,2,0,P|190:239|245:217,1,71.9999978027344,0|0,1:0|0:0,0:0:0:0:
40,65,14282,2,0,P|63:90|49:144,1,77.9999964294435,2|0,0:0|0:0,0:0:0:0:
290,44,14497,2,0,P|261:53|221:21,1,77.9999964294435,2|0,0:0|0:0,0:0:0:0:
297,178,14711,6,0,P|344:188|416:102,1,167.999994873047,2|0,3:0|1:0,0:0:0:0:
278,147,15032,2,0,P|325:149|373:251,1,167.999994873047,2|0,3:0|0:0,0:0:0:0:
409,369,15354,6,0,B|475:338|457:249|457:249|456:292|417:316,1,192,6|2,3:2|0:0,0:0:0:0:
374,246,15675,1,2,0:0:0:0:
342,321,15782,2,0,B|307:304|307:304|296:267,1,77.9999964294435,2|0,1:2|0:0,0:0:0:0:
150,59,15997,6,0,P|146:94|120:118,1,71.9999978027344,2|0,0:0|0:0,0:0:0:0:
17,179,16211,2,0,P|46:178|81:200,1,60,2|0,0:0|0:0,0:0:0:0:
144,234,16425,6,0,P|96:226|21:328,1,180.000006866455,4|0,3:2|1:0,0:0:0:0:
175,359,16747,2,0,P|121:355|96:318,1,90.0000034332277,4|0,3:2|0:0,0:0:0:0:
207,144,16961,1,2,0:0:0:0:
263,201,17068,6,0,B|336:259|302:309|289:371|289:371|296:304|366:295,1,306.000005836487,6|0,3:2|0:0,0:0:0:0:
440,295,17497,1,0,1:0:0:0:
308,88,17711,6,0,P|275:51|279:15,1,77.9999964294435,2|0,0:0|0:0,0:0:0:0:
379,58,17925,2,0,P|388:105|364:132,1,77.9999964294435,2|0,0:0|0:0,0:0:0:0:
22,148,18140,6,0,P|25:62|102:23,1,180.000006866455,2|0,3:0|1:0,0:0:0:0:
246,148,18461,2,0,P|165:200|96:149,1,180.000006866455,2|0,3:0|0:0,0:0:0:0:
17,319,18782,6,0,B|81:304|81:304|91:316|105:326,1,83.9999974365235,6|0,3:2|0:0,0:0:0:0:
163,285,18997,1,0,1:0:0:0:
284,309,19104,6,0,P|222:291|164:376,1,180.000006866455,2|0,3:2|1:0,0:0:0:0:
372,364,19425,6,0,B|356:333|370:306|370:306|391:277|370:231,1,120,2|0,3:2|0:0,0:0:0:0:
326,190,19747,1,0,0:0:0:0:
391,100,19854,6,0,P|445:83|512:163,1,167.999994873047,6|0,3:2|0:0,0:0:0:0:
512,304,20175,2,0,P|439:272|437:192,1,167.999994873047,0|0,3:2|0:0,0:0:0:0:
512,157,20497,1,0,3:0:0:0:
123,180,27354,6,0,B|80:157|27:159|27:159|49:188|45:210,2,135.000005149841,2|2|2,3:2|0:0|3:2,0:0:0:0:
183,225,28211,1,2,0:0:0:0:
187,300,28425,1,0,0:0:0:0:
120,336,28640,2,0,P|94:303|98:253,1,71.9999978027344
254,351,29068,6,0,B|352:366|352:366|371:337|426:331,1,167.999994873047,2|0,3:2|0:0,0:0:0:0:
475,374,29711,1,0,0:0:0:0:
475,374,30140,2,0,P|457:339|465:298,1,71.9999978027344
502,241,30568,1,2,0:0:0:0:
443,191,30782,6,0,P|382:138|304:159,1,167.999994873047,0|0,3:0|0:0,0:0:0:0:
195,89,31425,2,0,P|134:141|56:120,1,167.999994873047,0|0,3:0|0:0,0:0:0:0:
11,64,32068,1,0,3:0:0:0:
11,64,32282,1,0,0:0:0:0:
92,214,32497,6,0,B|110:253|110:253|93:298,1,83.9999974365235,2|0,3:2|0:0,0:0:0:0:
66,316,32818,1,2,0:0:0:0:
66,316,32925,2,0,L|14:303,1,41.9999987182618,2|0,0:0|0:0,0:0:0:0:
189,356,33140,5,0,3:0:0:0:
193,351,33247,2,0,P|232:323|318:343,1,125.999996154785,2|2,0:0|0:0,0:0:0:0:
442,211,33782,6,0,P|431:229|424:269,3,41.9999987182618,2|2|2|2,0:0|0:0|0:0|0:0,0:0:0:0:
417,329,34211,6,0,B|427:253|347:196|347:196|351:229|323:249,1,180,2|2,3:2|0:0,0:0:0:0:
275,165,34640,1,0,1:0:0:0:
275,165,34854,1,2,0:0:0:0:
128,250,35068,2,0,P|79:250|49:193,1,102.000001945496,2|0,3:2|0:0,0:0:0:0:
9,147,35390,1,2,0:0:0:0:
9,147,35497,2,0,P|25:118|59:113,2,51.0000009727478,0|0|0,1:0|0:0|0:0,0:0:0:0:
166,29,35925,6,0,P|242:78|235:165,1,180,2|2,3:2|0:0,0:0:0:0:
207,233,36354,2,0,P|229:271|247:277,1,51.0000009727478,0|0,1:0|0:0,0:0:0:0:
290,329,36568,1,2,0:0:0:0:
415,231,36782,6,0,P|467:226|499:179,1,102.000001945496,2|0,3:2|0:0,0:0:0:0:
440,92,37104,1,2,0:0:0:0:
440,92,37211,2,0,P|440:125|427:152,3,51.0000009727478,2|2|2|2,1:2|0:2|0:2|0:2,0:0:0:0:
361,117,37640,6,0,B|299:131|205:101|205:101|211:122|204:134,1,180,2|2,3:2|0:0,0:0:0:0:
130,117,38068,1,0,1:2:0:0:
279,39,38282,1,2,0:0:0:0:
133,120,38497,2,0,P|103:155|112:218,1,102.000001945496,2|0,3:2|0:0,0:0:0:0:
239,358,38925,1,0,1:0:0:0:
239,358,39032,2,0,P|202:324|139:333,1,102.000001945496,2|0,0:0|0:0,0:0:0:0:
77,303,39354,6,0,B|119:285|164:305|164:305|178:249|242:243,1,180,2|0,3:2|0:0,0:0:0:0:
300,283,39782,1,2,1:2:0:0:
300,283,39997,1,2,0:0:0:0:
448,284,40211,2,0,P|488:308|497:376,1,102.000001945496,2|0,3:2|0:0,0:0:0:0:
425,370,40532,1,0,0:0:0:0:
425,370,40640,2,0,P|393:358|383:331,3,51.0000009727478,0|0|0|0,1:0|3:0|0:0|0:0,0:0:0:0:
309,373,41068,6,0,B|370:349|368:253|368:253|325:249|302:267,1,198.000006042481,2|0,3:2|0:0,0:0:0:0:
253,314,41497,2,0,L|195:324,1,41.9999987182618,2|0,1:2|0:0,0:0:0:0:
136,336,41711,2,0,L|78:346,1,41.9999987182618,2|0,0:2|0:0,0:0:0:0:
18,355,41925,1,2,0:0:0:0:
18,355,42140,6,0,P|76:331|78:233,1,155.999992858887,2|0,3:0|1:0,0:0:0:0:
95,111,42461,2,0,P|147:138|138:206,1,120,2|0,3:0|0:0,0:0:0:0:
22,195,42782,6,0,B|50:188|82:211|82:211|147:193,1,132.00000402832,2|2,3:2|0:0,0:0:0:0:
223,224,43104,1,2,0:0:0:0:
223,224,43211,2,0,P|239:196|230:159,1,66.0000020141602,2|0,1:2|0:0,0:0:0:0:
140,33,43425,6,0,L|253:50,1,107.999996704102,2|0,3:2|0:2,0:2:0:0:
246,49,43854,6,0,P|281:95|364:94,1,132.00000402832,2|0,3:0|1:0,0:0:0:0:
472,96,44175,2,0,P|453:160|377:159,1,132.00000402832,2|0,3:0|0:0,0:0:0:0:
369,28,44497,6,0,B|421:142|382:273|382:273|373:242|354:226,1,287.999991210938,4|0,3:1|1:0,0:0:0:0:
144,264,45140,6,0,B|79:254|63:331|63:331|77:335|97:350,1,143.999995605469,2|0,3:2|0:0,0:0:0:0:
161,345,45461,1,0,3:0:0:0:
161,345,45568,1,0,3:0:0:0:
297,186,45782,6,0,P|288:222|282:258,1,66.0000020141602,0|0,1:0|0:0,0:0:0:0:
249,320,45997,2,0,B|239:249|239:249|230:241|230:241|219:158,1,155.999992858887,2|0,3:2|3:0,0:0:0:0:
97,72,46425,5,2,0:0:0:0:
97,72,46532,2,0,P|117:140|52:158,1,132.00000402832,0|0,1:0|0:0,0:0:0:0:
7,126,46854,6,0,B|72:91|116:137|116:137|151:197|225:167,1,240,2|0,3:2|3:0,0:0:0:0:
457,53,47497,1,0,1:0:0:0:
382,26,47604,2,0,B|373:42|373:42|404:167,1,120,2|0,3:2|0:0,0:0:0:0:
468,167,47925,6,0,P|410:154|353:242,1,167.999994873047,2|0,3:2|0:0,0:0:0:0:
265,355,48568,2,0,P|206:363|154:299,1,125.999996154785,0|0,3:2|0:0,0:0:0:0:
130,295,48997,2,0,P|161:248|214:252,1,83.9999974365235,0|0,1:0|0:0,0:0:0:0:
265,266,49425,5,0,0:0:0:0:
5,364,49640,1,0,3:0:0:0:
69,305,50711,5,8,0:0:0:0:
141,322,50925,1,8,0:0:0:0:
224,348,51140,1,8,0:0:0:0:
224,348,51247,1,8,0:0:0:0:
224,348,51354,6,0,B|258:168|258:168|240:226|188:227,1,270.000010299683,6|0,3:2|0:0,0:0:0:0:
125,249,51782,1,8,3:2:0:0:
312,336,51997,6,0,P|353:335|387:297,1,77.9999964294435,2|0,0:0|0:0,0:0:0:0:
468,119,52211,2,0,P|408:114|384:205,1,155.999992858887,2|0,3:2|0:0,0:0:0:0:
427,249,52532,1,2,0:0:0:0:
497,230,52640,2,0,P|501:198|457:150,1,90.0000034332277,8|0,3:2|0:0,0:0:0:0:
297,89,52854,6,0,L|219:102,1,60,2|0,0:0|0:0,0:0:0:0:
91,194,53068,2,0,B|117:264|201:249|201:249|177:243|178:231,1,167.999994873047,2|0,3:2|0:0,0:0:0:0:
238,178,53390,1,0,0:0:0:0:
238,178,53497,2,0,P|177:179|7:142,1,233.999989288331,10|0,3:2|0:0,0:0:0:0:
8,142,53925,6,0,P|65:139|117:120,1,66.0000020141602,2|0,3:2|0:0,0:0:0:0:
227,58,54140,1,2,0:0:0:0:
234,41,54247,1,2,0:0:0:0:
223,27,54354,2,0,P|154:24|130:85,1,132.00000402832,10|0,3:2|0:0,0:0:0:0:
201,276,54782,6,0,B|170:257|206:174|319:201|296:302|277:339|245:346|245:346|277:339|311:345,1,306.000005836487,6|0,3:2|0:0,0:0:0:0:
382,372,55211,1,8,3:2:0:0:
105,357,55425,6,0,P|71:338|62:302,1,77.9999964294435,2|0,0:0|0:0,0:0:0:0:
72,122,55640,2,0,P|129:165|101:232,1,155.999992858887,2|0,3:2|0:0,0:0:0:0:
24,213,55961,1,2,0:0:0:0:
0,137,56068,2,0,P|24:110|89:110,1,83.9999974365235,10|0,3:2|0:0,0:0:0:0:
288,158,56282,6,0,L|366:171,1,60,2|0,0:0|0:0,0:0:0:0:
488,46,56497,2,0,B|429:10|373:73|373:73|399:91|397:122,1,167.999994873047,2|0,3:2|0:0,0:0:0:0:
393,233,56818,1,2,0:0:0:0:
469,209,56925,2,0,P|486:172|456:125,1,83.9999974365235,8|0,3:2|0:0,0:0:0:0:
197,262,57140,6,0,B|193:305|167:330|167:330|170:388|244:376,1,155.999992858887,2|0,0:0|3:0,0:0:0:0:
269,320,57461,1,2,0:0:0:0:
269,320,57568,2,0,P|190:313|90:356,2,180.000006866455,2|8|8,0:0|3:2|3:2,0:0:0:0:
344,343,58104,1,8,0:0:0:0:
275,233,58211,6,0,B|293:264|359:259|378:159|299:144|299:144|322:144|358:98|299:30|265:91,1,306.000005836487,6|0,3:2|0:0,0:0:0:0:
198,59,58640,2,0,L|213:134,1,60,8|0,3:2|0:0,0:0:0:0:
408,118,58854,6,0,P|435:89|434:41,1,77.9999964294435,2|0,0:0|0:0,0:0:0:0:
440,254,59068,2,0,B|392:306|428:370|428:370|426:336|463:318,1,167.999994873047,2|0,3:2|0:0,0:0:0:0:
512,300,59390,1,2,0:0:0:0:
446,336,59497,2,0,P|403:348|367:330,1,77.9999964294435,8|0,3:2|0:0,0:0:0:0:
141,223,59711,2,0,P|163:199|195:197,1,66.0000020141602,2|0,0:0|0:0,0:0:0:0:
186,285,59925,6,0,B|127:199|25:244|25:244|25:307|88:305,1,270.000010299683,2|0,3:2|0:0,0:0:0:0:
141,345,60354,2,0,P|179:323|225:333,1,77.9999964294435,10|0,3:2|0:0,0:0:0:0:
384,196,60568,2,0,P|351:216|313:214,1,77.9999964294435,2|0,0:2|0:0,0:0:0:0:
82,25,60782,5,2,3:2:0:0:
155,8,60889,1,2,0:0:0:0:
220,46,60996,1,2,0:0:0:0:
243,117,61103,1,2,0:0:0:0:
213,186,61211,2,0,B|182:172|182:172|250:189,1,96,10|0,3:2|0:0,0:0:0:0:
446,336,61425,6,0,B|477:322|477:322|416:337,1,96,2|2,0:2|0:0,0:0:0:0:
235,364,61640,6,0,B|163:359|146:322|189:289|62:219|-31:290|6:336|70:299,1,288,2|0,3:2|0:0,0:0:0:0:
93,371,62068,2,0,B|105:352|105:352|89:217,1,143.999995605469,10|0,3:2|0:0,0:0:0:0:
78,59,62390,5,2,0:0:0:0:
147,20,62497,2,0,B|171:20|291:72|232:240|98:193|134:98,1,288,2|0,3:2|0:0,0:0:0:0:
78,59,62925,2,0,B|53:77|1:79|1:79|32:81|56:108,1,120,10|0,3:2|0:0,0:0:0:0:
314,317,63354,6,0,P|373:369|445:335,1,167.999994873047,2|0,3:0|0:0,0:0:0:0:
366,202,63675,2,0,P|286:196|249:266,1,167.999994873047,2|0,0:3|0:0,0:0:0:0:
183,312,63997,2,0,P|140:282|144:238,1,83.9999974365235,2|0,0:3|0:0,0:0:0:0:
224,24,64211,5,0,3:0:0:0:
283,71,64318,1,8,0:0:0:0:
238,131,64425,2,0,L|159:143,1,71.9999978027344,2|0,0:0|0:0,0:0:0:0:
443,26,64640,6,0,B|516:17|516:17|455:37,1,125.999996154785,2|0,3:0|0:0,0:0:0:0:
386,81,65068,6,0,B|373:123|368:179|368:179|434:195|434:195|455:161|455:161|432:220|427:299,1,323.999990112305,6|0,3:2|0:0,0:0:0:0:
416,348,65497,2,0,P|463:346|491:312,1,71.9999978027344,8|0,3:2|0:0,0:0:0:0:
152,188,65711,5,2,0:0:0:0:
99,249,65818,1,2,0:0:0:0:
146,312,65925,2,0,B|221:273|288:304|288:304|246:302|209:333,1,192,2|0,3:2|0:0,0:0:0:0:
198,373,66247,1,2,0:0:0:0:
248,315,66354,2,0,P|263:284|248:228,1,77.9999964294435,8|0,3:2|0:0,0:0:0:0:
53,59,66568,6,0,P|36:90|53:146,1,77.9999964294435,2|0,0:2|0:0,0:0:0:0:
243,150,66782,2,0,B|302:94|244:25|244:25|193:52,1,180.000006866455,2|0,3:2|0:0,0:0:0:0:
174,113,67104,1,0,0:0:0:0:
174,113,67211,2,0,P|291:131|411:186,1,233.999989288331,10|0,3:2|0:0,0:0:0:0:
396,176,67640,6,0,B|414:143|414:143|405:93,1,77.9999964294435,2|0,3:2|0:0,0:0:0:0:
439,248,67854,2,0,B|472:265|472:265|522:256,1,77.9999964294435,2|0,0:2|0:0,0:0:0:0:
367,290,68068,2,0,B|349:323|349:323|358:373,1,77.9999964294435,8|0,3:2|0:0,0:0:0:0:
325,218,68282,2,0,B|291:200|291:200|241:209,1,77.9999964294435,2|0,0:2|0:0,0:0:0:0:
67,348,68497,6,0,B|102:371|170:300|100:224|46:249|46:249|31:190|31:190|65:184|101:162,1,323.999990112305,6|0,3:2|0:0,0:0:0:0:
180,148,68925,2,0,L|164:205,1,60,8|0,3:2|0:0,0:0:0:0:
4,22,69140,6,0,P|41:30|70:76,1,77.9999964294435,2|0,0:0|0:0,0:0:0:0:
251,207,69354,2,0,P|311:215|350:117,1,167.999994873047,2|0,3:2|0:0,0:0:0:0:
287,92,69675,1,2,0:0:0:0:
255,211,69782,2,0,P|257:252|290:285,1,71.9999978027344,8|0,3:2|0:0,0:0:0:0:
467,326,69997,2,0,P|435:326|397:341,1,60,2|0,0:0|0:0,0:0:0:0:
205,332,70211,6,0,B|341:295|341:295|324:326|327:343,1,192,2|0,3:2|0:0,0:0:0:0:
142,285,70532,1,2,0:0:0:0:
93,343,70640,2,0,P|72:360|5:356,1,77.9999964294435,8|0,3:2|0:0,0:0:0:0:
29,172,70854,2,0,P|84:172|121:257,1,155.999992858887,2|0,0:0|3:0,0:0:0:0:
121,254,71282,5,2,0:0:0:0:
145,238,71353,1,2,0:0:0:0:
177,245,71424,1,2,0:0:0:0:
195,274,71496,1,10,0:0:0:0:
212,302,71568,1,2,0:0:0:0:
245,309,71639,1,2,0:0:0:0:
270,294,71711,2,0,L|316:291,2,40,2|2|2,3:2|0:2|0:2,0:0:0:0:
405,170,71925,6,0,B|339:190|268:283|299:388|414:410|475:320|410:222|354:230|349:245,1,360,6|0,3:2|0:2,0:2:0:0:
282,167,72354,2,0,P|268:130|308:78,1,77.9999964294435,10|0,3:2|0:0,0:0:0:0:
480,55,72568,2,0,P|454:85|389:76,1,77.9999964294435,2|0,0:2|0:0,0:0:0:0:
204,42,72782,6,0,P|124:27|86:114,1,167.999994873047,2|0,3:2|0:0,0:0:0:0:
124,160,73104,1,2,0:0:0:0:
197,136,73211,2,0,P|204:93|176:60,1,83.9999974365235,8|0,3:2|0:0,0:0:0:0:
8,203,73425,6,0,P|37:206|76:232,1,60,2|0,0:0|0:0,0:0:0:0:
69,364,73640,2,0,P|55:275|164:356,1,306.000005836487,2|0,3:2|0:0,0:0:0:0:
176,346,74068,2,0,P|186:279|233:375,1,270.000010299683,10|0,3:2|0:0,0:0:0:0:
251,373,74497,2,0,P|269:334|312:328,1,90.0000034332277,2|0,3:2|0:0,0:0:0:0:
420,242,74711,2,0,P|457:217|458:177,1,77.9999964294435,2|0,0:0|0:0,0:0:0:0:
385,173,74925,6,0,B|347:253|421:352|421:352|433:306|492:297,1,270.000010299683,10|0,3:2|0:0,0:0:0:0:
505,375,75354,6,0,B|465:352|465:352|405:372,1,90.0000034332277,6|0,3:2|0:0,0:0:0:0:
167,174,75568,1,2,0:0:0:0:
224,118,75675,2,0,B|276:102|276:102|312:48|312:48|393:24,1,180.000006866455,2|0,0:0|0:0,0:0:0:0:
452,6,75997,2,0,L|429:100,1,66.0000020141602,2|0,0:0|0:0,0:0:0:0:
277,276,76211,6,0,P|212:295|152:241,1,143.999995605469,2|0,3:2|0:0,0:0:0:0:
171,178,76532,1,2,0:0:0:0:
171,178,76640,2,0,P|236:159|296:213,1,143.999995605469,8|0,3:2|0:0,0:0:0:0:
80,371,77068,6,0,B|-1:372|-1:372|132:325,1,192,2|0,3:2|0:0,0:0:0:0:
244,359,77390,1,10,3:2:0:0:
244,359,77497,2,0,B|208:374|208:374|169:371,1,77.9999964294435,8|0,3:2|0:0,0:0:0:0:
392,197,77711,5,10,0:0:0:0:
497,230,77818,2,0,B|451:197|397:229|397:229|394:240|394:240|437:300|312:365|257:312|266:235|315:223,1,360.000013732911,6|0,3:2|0:0,0:0:0:0:
312,245,78782,6,0,P|289:265|238:262,1,71.9999978027344,6|0,3:2|0:0,0:0:0:0:
60,174,78997,2,0,P|83:154|134:157,1,71.9999978027344,2|0,0:2|0:0,0:0:0:0:
248,182,79211,2,0,B|195:196|195:196|166:230|166:230|122:240,1,143.999995605469,2|0,1:2|0:0,0:0:0:0:
122,240,79532,1,2,0:0:0:0:
51,276,79640,5,0,3:0:0:0:
69,315,79747,1,0,1:0:0:0:
112,320,79854,2,0,P|136:323|167:342,1,53.9999983520508,2|0,0:0|0:0,0:0:0:0:
329,162,80068,5,2,1:2:0:0:
371,167,80175,1,2,0:0:0:0:
399,133,80282,1,2,0:0:0:0:
339,91,80390,5,2,0:0:0:0:
339,91,80497,2,0,P|393:206|398:295,1,215.999993408203,2|0,3:2|0:0,0:0:0:0:
435,361,80925,2,0,P|477:346|479:285,1,107.999996704102,0|0,1:0|0:0,0:0:0:0:
248,106,81354,5,2,3:2:0:0:
248,106,81461,1,2,0:0:0:0:
248,106,81568,2,0,B|204:79|215:29|215:29|313:10,1,155.999992858887,2|0,0:1|1:0,0:0:0:0:
413,78,81890,2,0,B|499:104|499:104|405:90,1,155.999992858887,2|0,0:1|0:0,0:0:0:0:
339,91,82211,6,0,B|291:121|248:106|248:106|278:126|248:193|178:197|154:137,1,264.000008056641,6|0,3:2|1:0,0:0:0:0:
78,25,82854,1,2,0:0:0:0:
41,16,82961,1,2,0:0:0:0:
10,39,83068,1,2,3:2:0:0:
0,110,83175,1,2,0:0:0:0:
63,156,83282,6,0,B|108:177|116:256|116:256|91:242|55:265,1,167.999994873047,2|0,0:1|1:0,0:0:0:0:
15,314,83604,2,0,B|39:272|97:284|97:284|138:318|196:293,1,180.000006866455,2|0,0:1|0:0,0:0:0:0:
344,227,83925,6,0,B|300:192|300:192|260:233|191:220,1,167.999994873047,6|0,3:2|0:0,0:0:0:0:
316,315,84247,2,0,P|373:305|429:374,1,143.999995605469,4|0,0:0|0:0,0:0:0:0:
248,361,84568,2,0,B|183:381|183:381|242:349,1,113.999996955872,2|0,0:0|3:0,0:0:0:0:
465,166,84997,6,0,B|478:135|478:135|448:98,2,60.0000022888184,2|0|0,0:0|1:0|1:0,0:0:0:0:
391,144,85211,2,0,B|337:108|267:132|267:132|299:110|321:80,1,180.000006866455,2|0,1:2|3:0,0:1:0:0:
370,56,85532,5,0,1:0:0:0:
370,56,85586,1,0,1:0:0:0:
370,56,85640,1,4,3:2:0:0:
256,192,85747,12,0,90782,0:0:0:0:
