osu file format v14

[General]
AudioFilename: audio.mp3
AudioLeadIn: 0
PreviewTime: 35545
Countdown: 0
SampleSet: Soft
StackLeniency: 0.7
Mode: 0
LetterboxInBreaks: 0
WidescreenStoryboard: 1

[Editor]
Bookmarks: 614,9503,18392,27281,33948,36170,45059,53948,62837,72367
DistanceSpacing: 0.8
BeatDivisor: 8
GridSize: 32
TimelineZoom: 1.5

[Metadata]
Title:Immaculate Ardency
TitleUnicode:琼花映蕊
Artist:HOYO-MiX
ArtistUnicode:HOYO-MiX
Creator:Muziyami
Version:Yoshino's Another
Source:原神
Tags:Genshin Impact YuanShen qiong hua ying rui 瑶瑶 瑤瑤 Yaoyao ヨォーヨ 요요 仙桂莹澈 仙桂瑩澈 仙桂清澄 Sweet Clouds 樨馨云外飘 Purity of the Blossoming Osmanthus 순수한 선인의 계화꽃 月桂 Yuegui 월계 璃月 Liyue リーユェ 리월 Chinese 原声带 OST original sound track soundtrack video game videogame instrumental folk electronic 主题曲 Theme テーマ Yijun Jiang 姜以君 The Stellar Moments Vol. 4 Album 闪耀的群星4 輝く星々Vol.4 Volume four chuuwon yamakudzi zhongchujiguang -ClariS- Yorita Yoshino Character Demo 米哈游 mihoyo hoyoverse
BeatmapID:3997117
BeatmapSetID:1934236

[Difficulty]
HPDrainRate:5
CircleSize:4
OverallDifficulty:8
ApproachRate:9
SliderMultiplier:2.6
SliderTickRate:1

[Events]
//Background and Video events
Video,-3100,"video.mp4"
0,0,"104661351_p0.jpg",0,0
//Break Periods
//Storyboard Layer 0 (Background)
//Storyboard Layer 1 (Fail)
//Storyboard Layer 2 (Pass)
//Storyboard Layer 3 (Foreground)
//Storyboard Layer 4 (Overlay)
//Storyboard Sound Samples

[TimingPoints]
-8274,555.555555555556,4,2,1,40,1,0
337,-200,4,2,1,40,0,0
8114,-125,4,2,1,40,0,0
8948,-100,4,2,1,40,0,0
9503,-100,4,2,1,50,0,0
13114,-200,4,2,1,50,0,0
13948,-100,4,2,1,50,0,0
26031,-125,4,2,1,50,0,0
26170,-100,4,2,1,50,0,0
27281,-100,4,2,1,60,0,0
31726,-66.6666666666667,4,2,1,60,0,0
33392,-83.3333333333333,4,2,1,60,0,0
34087,-83.3333333333333,4,2,1,5,0,0
34503,-83.3333333333333,4,2,1,50,0,0
35614,-166.666666666667,4,2,1,50,0,0
36170,-166.666666666667,4,2,1,70,0,0
42837,-83.3333333333333,4,2,1,70,0,0
44503,-41.6666666666667,4,2,1,70,0,0
45059,-83.3333333333333,4,2,1,70,0,1
45128,-83.3333333333333,4,2,1,5,0,0
45198,-83.3333333333333,4,2,1,70,0,0
45684,-83.3333333333333,4,2,1,5,0,0
45753,-83.3333333333333,4,2,1,70,0,0
45962,-83.3333333333333,4,2,1,5,0,0
46031,-83.3333333333333,4,2,1,70,0,0
47281,-83.3333333333333,4,2,1,70,0,0
47351,-83.3333333333333,4,2,1,5,0,0
47420,-83.3333333333333,4,2,1,70,0,0
47906,-83.3333333333333,4,2,1,5,0,0
47976,-83.3333333333333,4,2,1,70,0,0
48184,-83.3333333333333,4,2,1,5,0,0
48253,-83.3333333333333,4,2,1,70,0,0
49503,-83.3333333333333,4,2,1,70,0,0
53878,-83.3333333333333,4,2,1,5,0,0
53948,-41.6666666666667,4,2,1,80,0,1
56170,-16.6666666666667,4,2,1,80,0,1
56587,-200,4,2,1,80,0,1
57281,-16.6666666666667,4,2,1,80,0,1
57837,-41.6666666666667,4,2,1,80,0,1
58114,-41.6666666666667,4,2,1,80,0,1
58323,-41.6666666666667,4,2,1,5,0,1
58392,-41.6666666666667,4,2,1,80,0,1
59503,-27.7777777777778,4,2,1,80,0,1
62281,-500,4,2,1,80,0,1
62698,-500,4,2,1,20,0,1
62837,-200,4,2,1,50,0,0
66170,631.578947368421,4,2,1,50,1,0
67433,652.173913043478,4,2,1,40,1,0
67433,-200,4,2,1,40,0,0
68085,714.285714285714,4,2,1,40,1,0
68799,750,4,2,1,30,1,0
69549,909.090909090909,4,2,1,30,1,0
71367,1000,4,2,1,20,1,0
73367,-200,4,2,1,15,0,0
74367,-200,4,2,1,10,0,0
75367,-200,4,2,1,5,0,0

[Colours]
Combo1 : 185,62,15
Combo2 : 88,216,3
Combo3 : 140,255,47
Combo4 : 129,231,134
Combo5 : 89,230,181
Combo6 : 61,241,241
Combo7 : 247,241,13
Combo8 : 255,128,0

[HitObjects]
42,287,337,37,0,0:0:0:0:
43,293,476,1,0,0:0:0:0:
44,299,614,1,2,0:2:0:0:
119,315,892,1,0,0:0:0:0:
158,249,1170,1,2,0:2:0:0:
106,192,1448,1,0,0:0:0:0:
35,222,1726,22,0,B|30:260|43:276|43:276|54:293|43:329,1,97.5,2|2,0:2|0:2,0:0:0:0:
44,338,2281,2,0,P|88:336|101:321,1,65,2|0,0:2|0:0,0:0:0:0:
209,280,2837,1,2,0:2:0:0:
273,326,3114,1,0,0:0:0:0:
256,192,3253,12,0,4503,0:0:0:0:
273,323,4781,85,2,0:2:0:0:
274,329,4920,1,2,0:2:0:0:
275,335,5059,1,2,0:2:0:0:
359,370,5337,1,0,0:0:0:0:
440,330,5614,1,2,0:2:0:0:
468,243,5892,1,0,0:0:0:0:
421,164,6170,22,0,P|376:168|320:208,1,97.5,2|2,0:2|0:2,0:0:0:0:
316,211,6726,2,0,P|286:214|252:191,1,65,2|0,0:2|0:0,0:0:0:0:
244,92,7281,85,2,0:2:0:0:
242,86,7420,1,2,0:2:0:0:
241,80,7559,1,0,0:0:0:0:
295,23,7837,1,0,0:0:0:0:
254,176,8114,2,0,B|209:183|164:133|164:133|127:85|61:82,1,208,0|0,0:0|0:0,0:0:0:0:
125,2,8948,1,2,0:1:0:0:
0,239,9226,1,0,0:0:0:0:
2,245,9364,1,0,0:0:0:0:
4,252,9503,85,0,1:0:0:0:
127,343,9781,1,2,0:1:0:0:
79,197,10059,1,2,0:1:0:0:
33,341,10337,1,0,1:0:0:0:
156,252,10614,6,0,B|196:242|222:263|222:263|252:285|292:268,1,130,2|0,0:1|1:0,0:0:0:0:
290,277,10962,1,0,0:0:0:0:
296,286,11031,2,0,P|321:262|368:267,1,65,0|8,0:0|0:1,0:0:0:0:
232,187,11448,1,0,0:0:0:0:
470,289,11726,6,0,B|477:234|442:198|442:198|404:157|432:84,2,195,0|0|0,1:0|1:0|1:0,0:0:0:0:
482,193,13114,6,0,L|396:208,1,65,0|8,1:0|0:1,0:0:0:0:
331,188,13670,1,0,0:0:0:0:
330,182,13809,1,0,0:0:0:0:
330,176,13948,69,0,1:0:0:0:
306,21,14226,1,2,0:1:0:0:
151,45,14503,1,2,0:1:0:0:
175,200,14781,1,0,1:0:0:0:
331,188,15059,6,0,P|325:120|207:149,1,195,2|0,0:1|0:0,0:0:0:0:
175,200,15614,2,0,B|160:236|165:265|165:265|193:292|192:347,1,130,8|0,0:1|1:0,0:0:0:0:
0,323,16170,5,0,1:0:0:0:
37,332,16309,1,2,0:1:0:0:
66,306,16448,1,0,0:0:0:0:
104,302,16587,1,0,1:0:0:0:
295,273,17003,1,0,1:0:0:0:
202,337,17142,1,0,0:0:0:0:
193,333,17212,1,0,0:0:0:0:
186,329,17281,2,0,B|196:325|213:321|213:321|222:326|240:328|240:328|252:314|265:311|265:311|281:316|295:319|295:319|310:305|324:301|324:301|341:309|359:310|359:310|371:297|386:293|386:293|414:306|468:300,1,260,0|8,0:0|0:1,0:0:0:0:
361,346,18253,5,0,0:0:0:0:
366,348,18392,1,4,1:3:0:0:
437,308,18809,1,2,0:1:0:0:
458,230,19226,1,2,0:1:0:0:
418,160,19503,69,0,1:0:0:0:
422,155,19642,1,2,0:1:0:0:
340,138,20059,21,0,1:0:0:0:
319,152,20337,1,0,1:0:0:0:
5,62,20614,21,0,1:0:0:0:
43,151,21031,1,2,0:1:0:0:
137,175,21448,1,2,0:1:0:0:
222,129,21726,53,0,1:0:0:0:
218,124,21864,1,2,0:1:0:0:
245,30,22281,21,0,1:0:0:0:
220,22,22559,1,0,1:0:0:0:
319,375,22837,21,0,1:0:0:0:
350,262,23253,1,2,0:1:0:0:
259,187,23670,1,2,0:1:0:0:
166,115,23948,53,0,1:0:0:0:
162,120,24087,1,2,0:1:0:0:
189,0,24503,21,0,1:0:0:0:
287,77,24781,1,0,1:0:0:0:
259,187,25059,2,0,B|197:179|162:211|162:211|116:247|51:217,1,195,0|2,1:0|0:1,0:0:0:0:
0,178,25614,1,0,1:0:0:0:
187,384,25892,21,2,0:1:0:0:
268,326,26031,2,0,L|264:281,1,26,0|0,0:0|0:0,0:0:0:0:
264,285,26170,54,0,P|284:271|321:284,7,43.3333333333333,0|0|0|0|0|2|0|0,1:0|0:0|0:0|0:0|0:0|0:1|1:0|0:0,0:0:0:0:
378,311,27003,1,2,1:0:0:0:
483,60,27281,5,4,1:3:0:0:
380,228,27559,1,0,0:0:0:0:
491,68,27837,5,8,0:1:0:0:
374,225,28114,1,0,0:0:0:0:
342,81,28392,5,8,0:1:0:0:
342,81,28531,1,0,0:0:0:0:
342,81,28670,1,0,0:0:0:0:
434,132,28948,1,8,0:1:0:0:
467,232,29226,1,0,0:0:0:0:
422,327,29503,5,8,0:1:0:0:
239,222,29781,1,0,0:0:0:0:
418,335,30059,53,8,0:1:0:0:
244,214,30337,1,0,0:0:0:0:
282,366,30614,6,0,P|276:322|299:282,1,65,8|0,0:1|0:0,0:0:0:0:
385,189,30892,1,0,0:0:0:0:
352,119,31031,2,0,L|363:83,2,32.5,0|0|8,0:0|0:0|0:1,0:0:0:0:
277,95,31309,1,0,1:0:0:0:
205,123,31448,1,0,0:0:0:0:
169,192,31587,2,0,L|176:243,1,32.5,0|0,0:0|0:0,0:0:0:0:
175,250,31726,70,0,P|83:260|38:179,1,195.00000743866,8|8,0:1|0:1,0:0:0:0:
287,324,32281,2,0,P|378:334|423:253,1,195.00000743866,8|8,0:1|0:1,0:0:0:0:
284,158,32837,1,8,0:1:0:0:
256,152,32976,1,8,0:1:0:0:
228,146,33114,1,8,0:1:0:0:
225,260,33392,102,0,B|211:207|256:152|256:152|297:104|279:42,1,233.999992858887,8|0,0:1|0:0,0:0:0:0:
207,6,33878,1,2,0:1:0:0:
204,12,33948,2,0,P|166:28|164:75,1,77.999997619629,4|0,1:2|0:0,0:0:0:0:
0,244,34781,53,2,0:1:0:0:
2,249,34920,1,0,0:0:0:0:
8,250,35059,1,2,0:2:0:0:
12,246,35198,1,2,0:1:0:0:
12,241,35337,1,2,0:2:0:0:
8,237,35476,1,0,0:0:0:0:
2,238,35614,6,0,L|104:223,1,77.999997619629,2|2,0:1|0:1,0:0:0:0:
160,122,36170,2,0,B|203:124|229:161|229:161|263:194|319:180,1,155.999995239258,4|8,1:3|0:2,0:0:0:0:
361,40,37003,1,2,0:1:0:0:
512,214,37281,2,0,P|438:211|423:177,1,116.999996429443,4|2,1:2|0:1,0:0:0:0:
424,169,37767,1,0,0:0:0:0:
425,158,37837,2,0,P|433:122|438:53,1,77.999997619629,8|2,0:2|0:1,0:0:0:0:
276,0,38392,86,0,B|269:16|269:16|278:80|358:78|370:23,1,155.999995239258,2|8,0:2|0:2,0:0:0:0:
223,122,39226,1,2,0:1:0:0:
223,122,39503,2,0,P|145:144|119:132,1,103.999996826172,2|0,0:1|0:0,0:0:0:0:
117,127,39966,1,0,0:0:0:0:
110,113,40059,2,0,P|109:161|134:182,1,77.999997619629,8|0,0:2|1:0,0:0:0:0:
287,234,40614,6,0,B|244:236|218:273|218:273|184:306|128:292,1,155.999995239258,0|8,1:0|0:2,0:0:0:0:
50,251,41448,1,2,1:0:0:0:
255,368,41726,2,0,P|313:375|351:331,1,116.999996429443,2|2,0:2|0:1,0:0:0:0:
351,326,42212,1,0,0:0:0:0:
352,314,42281,2,0,P|336:273|330:240,1,77.999997619629,8|2,0:2|0:1,0:0:0:0:
478,21,42837,53,2,0:2:0:0:
502,142,43022,101,2,0:2:0:0:
424,249,43207,22,0,B|369:243|325:285|325:285|278:330|224:301,1,207.999993652344,2|0,0:2|0:0,0:0:0:0:
80,331,43809,1,0,0:0:0:0:
78,346,43948,22,0,P|41:282|87:212,1,155.999995239258,2|0,0:1|1:0,0:0:0:0:
29,148,44364,1,2,0:2:0:0:
78,216,44503,6,0,P|190:280|78:346,1,311.999990478516,10|8,0:1|0:1,0:0:0:0:
18,288,44920,1,8,0:1:0:0:
103,362,45059,6,0,L|159:344,1,38.9999988098145,4|0,1:3|0:0,0:0:0:0:
256,299,45337,1,2,0:2:0:0:
103,362,45614,38,0,L|159:344,1,38.9999988098145,8|0,0:1|0:0,0:0:0:0:
256,299,45892,2,0,L|312:281,1,38.9999988098145,2|0,0:2|0:0,0:0:0:0:
300,285,46031,1,0,0:0:0:0:
412,225,46170,2,0,B|435:238|453:218|453:218|473:197|500:196|500:196|416:170|323:79,1,311.999990478516,4|8,1:2|0:1,0:0:0:0:
31,53,47003,1,2,0:2:0:0:
54,77,47073,1,0,0:0:0:0:
199,8,47281,38,0,L|194:66,1,38.9999988098145,0|0,1:0|0:0,0:0:0:0:
131,155,47559,1,2,0:2:0:0:
199,8,47837,6,0,L|194:66,1,38.9999988098145,8|0,0:1|0:0,0:0:0:0:
131,155,48114,2,0,L|126:213,1,38.9999988098145,2|0,0:2|0:0,0:0:0:0:
128,206,48253,1,2,0:2:0:0:
58,317,48392,2,0,B|74:342|91:357|116:362|116:362|170:324|298:300,1,233.999992858887,8|0,0:1|0:0,0:0:0:0:
342,283,48948,2,0,P|432:293|420:356,1,155.999995239258,8|8,0:1|0:1,0:0:0:0:
417,344,49364,1,8,0:1:0:0:
428,352,49503,53,10,0:1:0:0:
438,322,49781,1,8,0:1:0:0:
460,264,50059,1,8,0:1:0:0:
495,144,50337,1,8,0:1:0:0:
275,55,50614,5,10,0:1:0:0:
165,98,50753,1,8,0:1:0:0:
241,131,50892,1,8,0:1:0:0:
198,21,51031,1,8,0:1:0:0:
52,168,51170,101,8,0:1:0:0:
208,205,51309,1,8,0:1:0:0:
111,266,51448,1,8,0:1:0:0:
149,107,51587,1,8,0:1:0:0:
229,341,51726,5,2,1:0:0:0:
348,241,51864,1,8,0:1:0:0:
201,189,52003,1,8,0:1:0:0:
219,353,52142,101,2,1:0:0:0:
192,201,52281,1,8,0:1:0:0:
338,253,52420,1,8,0:1:0:0:
212,361,52559,5,2,1:0:0:0:
293,154,52698,1,8,0:1:0:0:
423,356,52837,102,0,B|416:297|447:275|447:275|479:246|470:184,1,155.999995239258,4|0,1:1|0:0,0:0:0:0:
403,152,53253,1,2,0:2:0:0:
391,156,53392,1,8,0:1:0:0:
512,372,53670,1,0,0:0:0:0:
438,0,53948,38,0,B|452:37|519:36|519:36|403:55|258:120|258:120|322:115|366:163,1,467.999985717774,4|2,1:3|0:2,0:0:0:0:
507,313,54503,2,0,B|454:303|426:338|426:338|443:303|473:273,1,155.999995239258,8|0,0:1|0:0,0:0:0:0:
259,281,54781,1,2,0:2:0:0:
261,294,54920,1,2,0:2:0:0:
263,305,55059,6,0,P|229:363|135:304,1,155.999995239258,0|2,1:0|0:2,0:0:0:0:
42,198,55337,2,0,B|55:186|50:163|50:163|50:137|57:117|57:117|8:169,1,155.999995239258,0|0,1:0|0:0,0:0:0:0:
64,356,55614,2,0,B|60:313|87:282|87:282|151:228|138:136|138:136|136:85|177:51,1,311.999990478516,8|0,0:1|1:0,0:0:0:0:
477,160,56031,1,0,0:0:0:0:
482,174,56170,6,0,P|303:142|358:82,1,390.00001487732,2|0,0:1|0:0,0:0:0:0:
361,177,56587,6,0,L|346:226,1,32.5,2|8,0:1|0:1,0:0:0:0:
307,283,57003,2,0,L|318:332,1,32.5,2|2,0:1|0:2,0:0:0:0:
386,372,57281,5,0,1:0:0:0:
382,384,57420,2,0,P|410:197|462:-7,1,390.00001487732,2|0,0:2|1:0,0:0:0:0:
58,257,57837,6,0,B|-14:281|-23:203|-23:203|11:157|45:175,1,155.999995239258,8|0,0:1|0:0,0:0:0:0:
73,67,58114,2,0,B|145:43|154:121|154:121|120:167|86:149,1,155.999995239258,0|0,1:0|0:0,0:0:0:0:
0,384,58392,2,0,P|29:264|340:261,1,467.999985717774,4|2,1:2|0:2,0:0:0:0:
385,310,58948,6,0,P|440:262|381:189,1,155.999995239258,8|0,0:1|0:0,0:0:0:0:
257,167,59226,2,0,P|202:215|261:288,1,155.999995239258,2|2,0:2|0:2,0:0:0:0:
376,341,59503,22,0,P|458:269|370:159,2,233.999992858887,0|2|0,1:0|0:2|1:0,0:0:0:0:
119,360,60059,5,8,0:1:0:0:
45,276,60244,5,2,0:2:0:0:
52,164,60429,5,2,0:2:0:0:
136,90,60614,5,2,1:0:0:0:
248,97,60800,5,2,0:2:0:0:
322,181,60985,6,0,B|368:203|388:257|394:275|394:275|345:280|300:243|286:230|286:230|265:275|211:295|192:300|192:300|189:252|226:207|238:193|238:193|193:173|173:118|167:100|167:100|216:95|261:132|275:145|275:145|295:101|350:80|368:75|368:75|374:133|319:187|319:187,1,935.999971435548,2|0,0:2|0:0,0:0:0:0:
0,180,61726,21,0,1:0:0:0:
164,226,61864,1,2,0:2:0:0:
5,286,62003,1,0,1:0:0:0:
100,143,62142,1,0,0:0:0:0:
106,313,62281,2,0,L|108:356,1,39,12|0,1:1|0:0,0:0:0:0:
263,50,62837,101,4,1:3:0:0:
338,70,63114,1,0,0:0:0:0:
351,146,63392,1,0,0:0:0:0:
363,223,63670,1,0,0:0:0:0:
438,243,63948,1,2,0:2:0:0:
0,364,64503,101,0,0:0:0:0:
64,320,64781,1,2,0:2:0:0:
60,309,64920,1,2,0:2:0:0:
56,298,65059,5,2,0:2:0:0:
108,355,65337,1,0,0:0:0:0:
185,365,65614,1,2,0:2:0:0:
250,321,65892,1,0,0:0:0:0:
264,244,66170,1,2,0:2:0:0:
260,220,66643,101,0,0:0:0:0:
256,206,66722,1,0,0:0:0:0:
254,193,66801,2,0,P|318:207|349:159,1,130,0|0,0:0|0:0,0:0:0:0:
177,113,67433,1,2,0:2:0:0:
177,113,68085,6,0,P|112:127|81:79,1,130,0|0,0:0|0:0,0:0:0:0:
266,30,68799,1,2,0:2:0:0:
266,30,69361,101,0,0:0:0:0:
266,30,69549,2,0,L|282:202,1,130,2|0,0:2|0:0,0:0:0:0:
219,261,70230,1,0,0:0:0:0:
218,271,70344,1,0,0:0:0:0:
217,281,70458,5,2,0:2:0:0:
125,329,70912,1,0,0:0:0:0:
51,257,71367,1,2,0:2:0:0:
97,164,71867,1,0,0:0:0:0:
199,179,72367,1,2,0:3:0:0:
