osu file format v14

[General]
AudioFilename: audio.mp3
AudioLeadIn: 0
PreviewTime: 156075
Countdown: 0
SampleSet: Soft
StackLeniency: 0
Mode: 0
LetterboxInBreaks: 0
WidescreenStoryboard: 1

[Editor]
Bookmarks: 169,12169,24169,36169,48169,60169,69169,78169,90169,102169,114169,120169,132169,141169,156169,168169,178669,190294,199294
DistanceSpacing: 0.9
BeatDivisor: 16
GridSize: 16
TimelineZoom: 2.1

[Metadata]
Title:If I Can Stop One Heart From Breaking
TitleUnicode:If I Can Stop One Heart From Breaking
Artist:HOYO-MiX
ArtistUnicode:HOYO-MiX
Creator:Mimari
Version:spread your wings
Source:Honkai: Star Rail
Tags:visionary i love ganyu english instrumental video game pop piano harmony robin firefly hsr hotaru ost soundtrack penacony if one dreams at midnight ホタル ロビン 傷つく誰かの心を守ることができたなら 使一颗心免于哀伤
BeatmapID:4483496
BeatmapSetID:2131561

[Difficulty]
HPDrainRate:4
CircleSize:4
OverallDifficulty:7.5
ApproachRate:8.5
SliderMultiplier:1.5
SliderTickRate:1

[Events]
//Background and Video events
0,0,"spreadyourwings.jpg",0,0
//Break Periods
2,141379,155505
2,180169,189644
//Storyboard Layer 0 (Background)
//Storyboard Layer 1 (Fail)
//Storyboard Layer 2 (Pass)
//Storyboard Layer 3 (Foreground)
//Storyboard Layer 4 (Overlay)
//Storyboard Sound Samples

[TimingPoints]
180,375,4,2,100,40,1,0
367,-100,4,2,2,45,0,0
555,-100,4,2,3,45,0,0
742,-100,4,2,2,45,0,0
930,-100,4,2,4,45,0,0
1117,-100,4,2,2,45,0,0
1305,-100,4,2,5,45,0,0
1492,-100,4,2,2,45,0,0
1680,-100,4,2,6,45,0,0
1867,-100,4,2,2,45,0,0
2055,-100,4,2,7,45,0,0
2242,-100,4,2,2,45,0,0
2430,-100,4,2,6,45,0,0
2617,-100,4,2,2,45,0,0
2805,-100,4,2,5,45,0,0
2992,-100,4,2,2,45,0,0
3180,-100,4,2,8,45,0,0
3367,-100,4,2,2,45,0,0
3555,-100,4,2,3,45,0,0
3742,-100,4,2,2,45,0,0
3930,-100,4,2,9,45,0,0
4117,-100,4,2,2,45,0,0
4305,-100,4,2,10,45,0,0
4492,-100,4,2,2,45,0,0
4680,-100,4,2,11,45,0,0
4867,-100,4,2,2,45,0,0
5055,-100,4,2,12,45,0,0
5242,-100,4,2,2,45,0,0
5430,-100,4,2,11,45,0,0
5617,-100,4,2,2,45,0,0
5805,-100,4,2,13,45,0,0
6180,-100,4,2,14,45,0,0
6367,-100,4,2,2,45,0,0
6555,-100,4,2,3,45,0,0
6742,-100,4,2,2,45,0,0
6930,-100,4,2,15,45,0,0
7117,-100,4,2,2,45,0,0
7305,-100,4,2,16,45,0,0
7492,-100,4,2,2,45,0,0
7680,-100,4,2,17,45,0,0
7867,-100,4,2,2,45,0,0
8055,-100,4,2,18,45,0,0
8242,-100,4,2,2,45,0,0
8430,-100,4,2,17,45,0,0
8617,-100,4,2,2,45,0,0
8805,-100,4,2,16,45,0,0
8992,-100,4,2,2,45,0,0
9180,-100,4,2,19,45,0,0
9367,-100,4,2,2,45,0,0
9555,-100,4,2,3,45,0,0
9742,-100,4,2,2,45,0,0
9930,-100,4,2,9,45,0,0
10305,-90.9090909090909,4,2,20,45,0,0
12180,-166.666666666667,4,2,21,45,0,0
12554,-166.666666666667,4,2,3,45,0,0
12742,-166.666666666667,4,2,2,45,0,0
12930,-142.857142857143,4,2,22,45,0,0
13304,-142.857142857143,4,2,5,45,0,0
13492,-142.857142857143,4,2,2,45,0,0
13680,-125,4,2,23,45,0,0
15180,-125,4,2,25,45,0,0
15367,-125,4,2,2,45,0,0
15555,-142.857142857143,4,2,3,45,0,0
15742,-142.857142857143,4,2,2,45,0,0
15930,-142.857142857143,4,2,22,45,0,0
16304,-142.857142857143,4,2,26,45,0,0
18180,-166.666666666667,4,2,27,45,0,0
18554,-166.666666666667,4,2,3,45,0,0
18742,-166.666666666667,4,2,2,45,0,0
18930,-142.857142857143,4,2,22,45,0,0
19304,-142.857142857143,4,2,5,45,0,0
19680,-142.857142857143,4,2,23,45,0,0
21180,-142.857142857143,4,2,28,45,0,0
21367,-142.857142857143,4,2,2,45,0,0
21555,-142.857142857143,4,2,3,45,0,0
21742,-142.857142857143,4,2,2,45,0,0
21930,-250,4,2,29,45,0,0
23805,-250,4,2,30,45,0,0
24180,-125,4,2,31,50,0,0
24555,-125,4,2,33,50,0,0
24742,-125,4,2,32,50,0,0
24930,-125,4,2,34,50,0,0
25117,-125,4,2,32,50,0,0
25305,-90.9090909090909,4,2,35,50,0,0
25680,-90.9090909090909,4,2,36,50,0,0
27180,-90.9090909090909,4,2,37,50,0,0
27367,-90.9090909090909,4,2,32,50,0,0
27555,-125,4,2,38,50,0,0
27742,-125,4,2,32,50,0,0
27930,-100,4,2,39,50,0,0
28305,-133.333333333334,4,2,40,50,0,0
29055,-133.333333333334,4,2,41,50,0,0
30180,-133.333333333334,4,2,43,50,0,0
30367,-133.333333333334,4,2,32,50,0,0
30555,-133.333333333334,4,2,44,50,0,0
30930,-133.333333333334,4,2,45,50,0,0
31117,-133.333333333334,4,2,32,50,0,0
31305,-133.333333333334,4,2,46,50,0,0
31492,-133.333333333334,4,2,32,50,0,0
31680,-133.333333333334,4,2,47,50,0,0
32055,-250,4,2,48,50,0,0
33180,-142.857142857143,4,2,50,50,0,0
33367,-142.857142857143,4,2,32,50,0,0
33555,-142.857142857143,4,2,33,50,0,0
33742,-142.857142857143,4,2,32,50,0,0
33930,-142.857142857143,4,2,51,50,0,0
34305,-333.333333333333,4,2,52,50,0,0
34867,-333.333333333333,4,2,5,50,0,0
35055,-333.333333333333,4,2,4,50,0,0
35242,-90.9090909090909,4,2,53,50,0,0
35804,-90.9090909090909,4,2,24,50,0,0
36180,-125,4,2,54,50,0,0
36555,-125,4,2,55,50,0,0
36742,-100,4,2,56,50,0,0
37117,-100,4,2,57,50,0,0
37305,-100,4,2,58,50,0,0
37492,-100,4,2,24,50,0,0
37679,-100,4,2,57,50,0,0
37867,-125,4,2,59,50,0,0
38429,-125,4,2,41,50,0,0
39180,-125,4,2,60,50,0,0
39555,-125,4,2,61,50,0,0
39742,-100,4,2,62,50,0,0
40117,-100,4,2,63,50,0,0
40305,-166.666666666667,4,2,64,50,0,0
40679,-166.666666666667,4,2,63,50,0,0
40867,-166.666666666667,4,2,65,50,0,0
41242,-166.666666666667,4,2,63,50,0,0
41430,-333.333333333334,4,2,66,50,0,0
41804,-333.333333333334,4,2,24,50,0,0
42180,-125,4,2,67,50,0,0
42742,-125,4,2,24,50,0,0
42930,-200,4,2,68,50,0,0
43305,-200,4,2,69,50,0,0
43492,-100,4,2,70,50,0,0
43867,-100,4,2,71,50,0,0
44055,-100,4,2,72,50,0,0
44242,-125,4,2,24,50,0,0
44617,-125,4,2,74,50,0,0
44805,-100,4,2,24,50,0,0
44992,-100,4,2,71,50,0,0
45180,-76.9230769230769,4,2,75,50,0,0
48180,-76.9230769230769,4,2,77,40,0,0
49680,-200,4,2,78,40,0,0
50055,-200,4,2,24,40,0,0
51180,-250,4,2,79,40,0,0
53430,-250,4,2,80,40,0,0
53992,-250,4,2,24,40,0,0
54180,-200,4,2,81,40,0,0
55305,-200,4,2,24,40,0,0
55680,-166.666666666667,4,2,82,40,0,0
56054,-166.666666666667,4,2,24,40,0,0
57180,-222.222222222222,4,2,83,40,0,0
59430,-333.333333333333,4,2,84,40,0,0
60086,-333.333333333333,4,2,1,40,0,0
60180,-142.857142857143,4,2,85,50,0,0
60554,-142.857142857143,4,2,86,50,0,0
60930,-111.111111111111,4,2,87,50,0,0
61305,-111.111111111111,4,2,88,50,0,0
61492,-111.111111111111,4,2,24,50,0,0
61680,-100,4,2,89,50,0,0
62055,-100,4,2,24,50,0,0
62429,-100,4,2,90,50,0,0
62617,-83.3333333333333,4,2,24,50,0,0
63180,-125,4,2,91,50,0,0
63930,-100,4,2,92,50,0,0
64305,-100,4,2,93,50,0,0
64680,-90.9090909090909,4,2,94,50,0,0
65055,-90.9090909090909,4,2,24,50,0,0
66180,-60.6060606060606,4,2,96,50,0,0
67492,-83.3333333333333,4,2,99,50,0,0
67866,-83.3333333333333,4,2,100,50,0,0
68055,-83.3333333333333,4,2,101,50,0,0
68242,-90.9090909090909,4,2,24,50,0,0
69180,-90.9090909090909,4,2,102,50,0,0
69555,-90.9090909090909,4,2,103,50,0,0
69930,-90.9090909090909,4,2,104,50,0,0
70117,-90.9090909090909,4,2,33,50,0,0
70305,-125,4,2,105,50,0,0
70680,-125,4,2,106,50,0,0
71430,-125,4,2,107,50,0,0
72180,-125,4,2,108,50,0,0
72555,-125,4,2,109,50,0,0
72930,-125,4,2,110,50,0,0
73117,-125,4,2,111,50,0,0
73305,-100,4,2,112,50,0,0
73680,-100,4,2,113,50,0,0
78180,-166.666666666667,4,2,119,50,0,0
78554,-166.666666666667,4,2,3,50,0,0
78742,-166.666666666667,4,2,2,50,0,0
78930,-111.111111111111,4,2,22,50,0,0
79305,-111.111111111111,4,2,5,50,0,0
79492,-111.111111111111,4,2,2,50,0,0
79680,-125,4,2,23,50,0,0
80055,-500,4,2,23,50,0,0
81180,-500,4,2,120,50,0,0
81367,-500,4,2,2,50,0,0
81555,-142.857142857143,4,2,3,50,0,0
81742,-142.857142857143,4,2,2,50,0,0
81930,-142.857142857143,4,2,121,50,0,0
82304,-142.857142857143,4,2,122,50,0,0
82680,-142.857142857143,4,2,1,50,0,0
83430,-250.000000000001,4,2,123,50,0,0
83805,-250.000000000001,4,2,24,50,0,0
84180,-142.857142857143,4,2,124,50,0,0
84554,-142.857142857143,4,2,3,50,0,0
84742,-142.857142857143,4,2,2,50,0,0
84930,-100,4,2,22,50,0,0
85305,-100,4,2,5,50,0,0
85492,-100,4,2,2,50,0,0
85680,-100,4,2,23,50,0,0
87180,-100,4,2,125,50,0,0
87367,-100,4,2,2,50,0,0
87555,-142.857142857143,4,2,3,50,0,0
87742,-142.857142857143,4,2,2,50,0,0
87930,-142.857142857143,4,2,126,50,0,0
88117,-142.857142857143,4,2,2,50,0,0
88305,-142.857142857143,4,2,127,50,0,0
88492,-142.857142857143,4,2,1,50,0,0
88680,-250.000000000001,4,2,1,50,0,0
90180,-125,4,2,128,50,0,0
90555,-125,4,2,129,50,0,0
90742,-125,4,2,2,50,0,0
90930,-125,4,2,130,50,0,0
91117,-125,4,2,2,50,0,0
91305,-200,4,2,131,50,0,0
91398,-200,4,2,1,50,0,0
91492,-200,4,2,2,50,0,0
91680,-76.9230769230769,4,2,132,50,0,0
92055,-100,4,2,133,50,0,0
92430,-142.857142857143,4,2,134,50,0,0
92804,-142.857142857143,4,2,135,50,0,0
93180,-142.857142857143,4,2,136,50,0,0
93367,-142.857142857143,4,2,2,50,0,0
93555,-125,4,2,137,50,0,0
93742,-125,4,2,2,50,0,0
93930,-100,4,2,130,50,0,0
94117,-100,4,2,2,50,0,0
94305,-100,4,2,138,50,0,0
94586,-100,4,2,1,50,0,0
94680,-83.3333333333333,4,2,139,50,0,0
95055,-83.3333333333333,4,2,140,50,0,0
95430,-83.3333333333333,4,2,134,50,0,0
96180,-83.3333333333333,4,2,142,50,0,0
96367,-83.3333333333333,4,2,2,50,0,0
96555,-83.3333333333333,4,2,143,50,0,0
96742,-83.3333333333333,4,2,2,50,0,0
96930,-83.3333333333333,4,2,144,50,0,0
97117,-83.3333333333333,4,2,2,50,0,0
97305,-83.3333333333333,4,2,145,50,0,0
97492,-83.3333333333333,4,2,146,50,0,0
97680,-83.3333333333333,4,2,147,50,0,0
98055,-83.3333333333333,4,2,148,50,0,0
98242,-250,4,2,24,50,0,0
99180,-250,4,2,150,50,0,0
99367,-250,4,2,151,50,0,0
99555,-250,4,2,152,50,0,0
99742,-125,4,2,153,50,0,0
100680,-125,4,2,154,50,0,0
101055,-125,4,2,155,50,0,0
101242,-125,4,2,1,50,0,0
101430,-125,4,2,156,50,0,0
101617,-125,4,2,7,50,0,0
101805,-125,4,2,157,50,0,0
101992,-125,4,2,158,50,0,0
102180,-200,4,2,159,60,0,0
102242,-200,4,2,159,5,0,0
102555,-142.857142857143,4,2,160,60,0,0
102617,-142.857142857143,4,2,160,5,0,0
102930,-111.111111111111,4,2,160,60,0,0
102992,-111.111111111111,4,2,160,5,0,0
103305,-90.909090909091,4,2,160,60,0,0
103367,-90.909090909091,4,2,160,5,0,0
103680,-76.9230769230769,4,2,161,60,0,0
103742,-76.9230769230769,4,2,161,5,0,0
104055,-66.6666666666667,4,2,162,60,0,0
104117,-66.6666666666667,4,2,162,5,0,0
104430,-200,4,2,163,60,0,0
104617,-200,4,2,164,60,0,0
104805,-83.3333333333333,4,2,165,60,0,0
104992,-83.3333333333333,4,2,166,60,0,0
105180,-142.857142857143,4,2,167,60,0,0
105242,-142.857142857143,4,2,167,5,0,0
105555,-111.111111111111,4,2,168,60,0,0
105617,-111.111111111111,4,2,168,5,0,0
105930,-90.9090909090909,4,2,168,60,0,0
105992,-90.9090909090909,4,2,168,5,0,0
106305,-76.9230769230769,4,2,168,60,0,0
106367,-76.9230769230769,4,2,168,5,0,0
106680,-66.6666666666667,4,2,169,60,0,0
106742,-66.6666666666667,4,2,169,5,0,0
107055,-58.8235294117647,4,2,170,60,0,0
107117,-58.8235294117647,4,2,170,5,0,0
107430,-142.857142857143,4,2,171,60,0,0
107617,-142.857142857143,4,2,172,60,0,0
107805,-66.6666666666667,4,2,173,60,0,0
107992,-66.6666666666667,4,2,172,60,0,0
108180,-100,4,2,174,60,0,0
108742,-100,4,2,24,60,0,0
108930,-125,4,2,175,60,0,0
109305,-125,4,2,176,60,0,0
109492,-100,4,2,177,60,0,0
109867,-100,4,2,71,60,0,0
110055,-100,4,2,179,60,0,0
110242,-166.666666666667,4,2,24,60,0,0
111180,-62.5,4,2,181,60,0,0
112305,-133.333333333333,4,2,183,60,0,0
112680,-133.333333333333,4,2,184,60,0,0
112930,-133.333333333333,4,2,185,60,0,0
113430,-117.647058823529,4,2,1,60,0,0
115305,-117.647058823529,4,2,187,60,0,0
115680,-117.647058823529,4,2,188,60,0,0
120180,-58.8235294117647,4,2,192,60,0,0
120461,-58.8235294117647,4,2,1,60,0,0
120555,-76.9230769230769,4,2,24,60,0,0
120930,-76.9230769230769,4,2,193,60,0,0
121305,-76.9230769230769,4,2,194,60,0,0
121492,-76.9230769230769,4,2,195,60,0,0
121680,-76.9230769230769,4,2,196,60,0,0
122055,-76.9230769230769,4,2,197,60,0,0
122242,-76.9230769230769,4,2,198,60,0,0
122430,-76.9230769230769,4,2,199,60,0,0
122804,-76.9230769230769,4,2,200,60,0,0
123180,-90.9090909090909,4,2,201,60,0,0
123555,-90.9090909090909,4,2,202,60,0,0
123742,-90.9090909090909,4,2,203,60,0,0
123930,-90.9090909090909,4,2,204,60,0,0
124117,-90.9090909090909,4,2,202,60,0,0
124305,-90.9090909090909,4,2,205,60,0,0
124492,-90.9090909090909,4,2,1,60,0,0
124680,-76.9230769230769,4,2,206,60,0,0
125055,-76.9230769230769,4,2,207,60,0,0
125242,-76.9230769230769,4,2,208,60,0,0
125430,-66.6666666666667,4,2,209,60,0,0
125617,-66.6666666666667,4,2,210,60,0,0
125805,-66.6666666666667,4,2,203,60,0,0
125992,-66.6666666666667,4,2,24,60,0,0
126180,-90.9090909090909,4,2,211,60,0,0
126555,-90.9090909090909,4,2,1,60,0,0
126930,-66.6666666666667,4,2,212,60,0,0
127305,-66.6666666666667,4,2,194,60,0,0
127492,-66.6666666666667,4,2,195,60,0,0
127680,-76.9230769230769,4,2,213,60,0,0
128054,-76.9230769230769,4,2,197,60,0,0
128242,-76.9230769230769,4,2,198,60,0,0
128429,-76.9230769230769,4,2,204,60,0,0
128617,-76.9230769230769,4,2,197,60,0,0
128805,-76.9230769230769,4,2,200,60,0,0
128992,-76.9230769230769,4,2,24,60,0,0
129180,-76.9230769230769,4,2,214,60,0,0
129554,-76.9230769230769,4,2,202,60,0,0
129742,-90.9090909090909,4,2,215,60,0,0
130117,-90.9090909090909,4,2,202,60,0,0
130305,-90.9090909090909,4,2,216,60,0,0
130492,-90.9090909090909,4,2,1,60,0,0
130680,-90.9090909090909,4,2,217,60,0,0
130867,-90.9090909090909,4,2,24,60,0,0
131055,-90.9090909090909,4,2,218,60,0,0
131242,-66.6666666666667,4,2,219,60,0,0
131617,-66.6666666666667,4,2,220,60,0,0
131804,-66.6666666666667,4,2,221,60,0,0
132180,-66.6666666666667,4,2,222,60,0,0
132555,-76.9230769230769,4,2,24,60,0,0
132930,-76.9230769230769,4,2,223,60,0,0
133305,-76.9230769230769,4,2,194,60,0,0
133492,-76.9230769230769,4,2,195,60,0,0
133680,-76.9230769230769,4,2,196,60,0,0
134055,-76.9230769230769,4,2,197,60,0,0
134242,-76.9230769230769,4,2,198,60,0,0
134430,-76.9230769230769,4,2,224,60,0,0
134804,-76.9230769230769,4,2,200,60,0,0
135180,-76.9230769230769,4,2,225,60,0,0
135742,-76.9230769230769,4,2,215,60,0,0
135930,-66.6666666666667,4,2,226,60,0,0
136117,-66.6666666666667,4,2,202,60,0,0
136305,-90.9090909090909,4,2,227,60,0,0
136586,-90.9090909090909,4,2,1,60,0,0
136680,-76.9230769230769,4,2,228,60,0,0
137055,-76.9230769230769,4,2,229,60,0,0
137242,-76.9230769230769,4,2,230,60,0,0
137430,-76.9230769230769,4,2,231,60,0,0
137617,-66.6666666666667,4,2,218,60,0,0
137992,-66.6666666666667,4,2,24,60,0,0
138180,-58.8235294117647,4,2,232,60,0,0
139398,-58.8235294117647,4,2,1,60,0,0
139492,-83.3333333333333,4,2,235,60,0,0
139866,-83.3333333333333,4,2,237,60,0,0
140055,-83.3333333333333,4,2,238,60,0,0
140242,-76.9230769230769,4,2,239,60,0,0
140616,-76.9230769230769,4,2,240,60,0,0
140805,-166.666666666667,4,2,198,60,0,0
141179,-166.666666666667,4,2,241,45,0,0
156180,-166.666666666667,4,2,265,40,0,0
157680,-200,4,2,266,40,0,0
158055,-200,4,2,24,40,0,0
159180,-166.666666666667,4,2,267,40,0,0
161430,-250.000000000001,4,2,268,40,0,0
161992,-250.000000000001,4,2,24,40,0,0
162180,-100,4,2,269,40,0,0
162555,-100,4,2,63,40,0,0
162742,-100,4,2,270,40,0,0
162930,-100,4,2,271,40,0,0
163117,-100,4,2,270,40,0,0
163305,-100,4,2,61,40,0,0
163492,-100,4,2,272,40,0,0
163680,-166.666666666667,4,2,273,40,0,0
164054,-166.666666666667,4,2,61,40,0,0
164242,-166.666666666667,4,2,275,40,0,0
164805,-166.666666666667,4,2,63,40,0,0
164992,-166.666666666667,4,2,275,40,0,0
165180,-90.9090909090909,4,2,276,45,0,0
166680,-90.9090909090909,4,2,63,50,0,0
166867,-90.9090909090909,4,2,270,50,0,0
167055,-90.9090909090909,4,2,3,55,0,0
167242,-90.9090909090909,4,2,278,55,0,0
167429,-90.9090909090909,4,2,1,60,0,0
167617,-90.9090909090909,4,2,279,60,0,0
167805,-66.6666666666667,4,2,4,60,0,0
168180,-66.6666666666667,4,2,280,65,0,0
168555,-76.9230769230769,4,2,281,65,0,0
168930,-71.4285714285714,4,2,5,65,0,0
169305,-71.4285714285714,4,2,282,65,0,0
169492,-71.4285714285714,4,2,24,65,0,0
169680,-71.4285714285714,4,2,283,65,0,0
169867,-71.4285714285714,4,2,1,65,0,0
170055,-71.4285714285714,4,2,24,65,0,0
170430,-62.5,4,2,6,65,0,0
170805,-71.4285714285714,4,2,284,65,0,0
170992,-71.4285714285714,4,2,24,65,0,0
171180,-58.8235294117647,4,2,7,65,0,0
171930,-58.8235294117647,4,2,8,65,0,0
172305,-100,4,2,285,65,0,0
172586,-100,4,2,1,65,0,0
172680,-71.4285714285714,4,2,286,65,0,0
172961,-71.4285714285714,4,2,1,65,0,0
173055,-71.4285714285714,4,2,287,65,0,0
173242,-71.4285714285714,4,2,24,65,0,0
173430,-71.4285714285714,4,2,9,65,0,0
173617,-58.8235294117647,4,2,24,65,0,0
174180,-50,4,2,10,65,0,0
175492,-66.6666666666667,4,2,289,65,0,0
176055,-66.6666666666667,4,2,2,65,0,0
176430,-103.092783505155,4,2,1,65,0,0
177180,-103.092783505155,4,2,1,60,0,0
178305,-103.092783505155,4,2,1,50,0,0
180170,375,4,2,1,50,1,0
189732,400,4,2,1,50,1,0
189932,387.096774193548,4,2,1,50,1,0
190319,409.276944065484,4,2,1,50,1,0
191055,-100,4,2,1,40,0,0
191137,375,4,2,1,35,1,0
191430,-100,4,2,1,40,0,0
191512,437.956204379562,4,2,1,35,1,0
191805,-100,4,2,1,40,0,0
191949,389.61038961039,4,2,1,35,1,0
192728,353.982300884956,4,2,1,35,1,0
192930,-100,4,2,1,40,0,0
193081,526.315789473684,4,2,1,35,1,0
193305,-100,4,2,1,40,0,0
193607,526.315789473684,4,2,1,35,1,0

[Colours]
Combo1 : 240,232,174
Combo2 : 135,146,152
Combo3 : 191,149,145

[HitObjects]
2,181,180,5,2,2:0:0:0:
2,178,367,1,2,2:0:0:0:
0,179,555,1,2,2:0:0:0:
3,179,742,1,2,2:0:0:0:
79,180,930,5,2,2:0:0:0:
77,186,1117,1,2,2:0:0:0:
155,179,1305,5,2,2:0:0:0:
157,190,1492,1,2,2:0:0:0:
230,164,1680,5,2,2:0:0:0:
237,186,1867,1,2,2:0:0:0:
323,148,2055,5,2,2:0:0:0:
317,182,2242,1,2,2:0:0:0:
416,150,2430,5,2,2:0:0:0:
398,201,2617,1,2,2:0:0:0:
511,180,2805,5,2,2:0:0:0:
454,253,2992,1,2,2:0:0:0:
502,318,3180,5,2,2:0:0:0:
502,315,3367,1,2,2:0:0:0:
500,316,3555,1,2,2:0:0:0:
503,316,3742,1,2,2:0:0:0:
486,99,3930,5,2,2:0:0:0:
454,253,4117,1,2,2:0:0:0:
379,98,4305,5,2,2:0:0:0:
381,202,4492,1,2,2:0:0:0:
284,114,4680,5,2,2:0:0:0:
303,188,4867,1,2,2:0:0:0:
197,146,5055,5,2,2:0:0:0:
214,189,5242,1,2,2:0:0:0:
123,190,5430,5,2,2:0:0:0:
126,211,5617,1,2,2:0:0:0:
41,193,5805,5,2,2:0:0:0:
471,193,6180,5,2,2:0:0:0:
399,209,6367,1,2,2:0:0:0:
471,196,6555,1,2,2:0:0:0:
398,205,6742,1,2,2:0:0:0:
453,293,6930,5,2,2:0:0:0:
417,112,7117,1,2,2:0:0:0:
350,289,7305,5,2,2:0:0:0:
344,142,7492,1,2,2:0:0:0:
246,262,7680,5,2,2:0:0:0:
264,155,7867,1,2,2:0:0:0:
159,221,8055,5,2,2:0:0:0:
180,144,8242,1,2,2:0:0:0:
92,180,8430,5,2,2:0:0:0:
82,120,8617,1,2,2:0:0:0:
15,188,8805,5,2,2:0:0:0:
3,153,8992,1,2,2:0:0:0:
17,68,9180,5,2,2:0:0:0:
95,42,9367,5,2,2:0:0:0:
197,67,9555,5,2,2:0:0:0:
266,189,9742,5,2,2:0:0:0:
260,364,9930,5,2,2:0:0:0:
255,3,10305,6,1,B|303:0|351:51|319:141|256:139|256:139|353:202|333:324|290:340|269:362|269:362|329:292|304:164|215:157|202:72|262:63,1,783.750023918153,2|0,2:0|2:0,2:0:0:0:
243,73,12180,6,1,L|345:88,1,89.9999972534181,2|2,2:0|2:0,2:0:0:0:
385,32,12742,1,2,2:0:0:0:
368,155,12930,6,1,L|483:139,1,104.999996795654,2|2,2:0|2:0,2:0:0:0:
367,156,13492,1,2,2:0:0:0:
492,14,13680,6,1,P|471:34|461:66,1,60,2|0,2:0|2:0,2:0:0:0:
461,62,15180,5,2,2:0:0:0:
509,117,15367,1,2,2:0:0:0:
460,174,15555,2,1,L|395:160,1,52.4999983978272,2|2,2:0|2:0,2:0:0:0:
243,5,15930,6,1,P|271:48|272:112,1,104.999996795654,2|2,2:0|2:0,2:0:0:0:
274,100,18180,6,1,L|260:209,1,89.9999972534181,2|2,2:0|2:0,2:0:0:0:
320,239,18742,1,2,2:0:0:0:
189,206,18930,6,1,L|205:323,1,104.999996795654,2|2,2:0|2:0,2:0:0:0:
256,18,19680,5,2,2:0:0:0:
256,18,21180,5,2,2:0:0:0:
208,73,21367,1,2,2:0:0:0:
257,130,21555,2,1,L|322:116,1,52.4999983978272,2|2,2:0|2:0,2:0:0:0:
255,357,21930,6,1,B|210:330|211:246|256:227|256:227|243:275|269:309|305:284|284:354|259:357,1,300,2|2,2:0|2:0,2:0:0:0:
333,244,24180,6,1,P|387:250|442:292,1,120,2|2,2:0|2:0,2:0:0:0:
332,245,24742,1,2,2:0:0:0:
512,272,24930,5,2,2:0:0:0:
492,342,25117,1,2,2:0:0:0:
443,110,25305,6,1,P|362:118|298:168,1,165.000005035401,2|2,2:0|2:0,2:0:0:0:
298,168,27180,5,2,2:0:0:0:
355,118,27367,1,2,2:0:0:0:
425,145,27555,2,1,L|413:206,1,60,2|2,2:0|2:0,2:0:0:0:
226,132,27930,6,1,P|213:98|216:56,1,75,2|0,2:0|2:0,2:0:0:0:
465,42,28305,6,1,P|356:80|295:178,1,225.000008583069,2|2,2:0|2:0,2:0:0:0:
297,167,30180,5,2,2:0:0:0:
223,192,30367,1,2,2:0:0:0:
279,243,30555,1,2,2:0:0:0:
279,244,30930,5,2,2:0:0:0:
321,93,31117,1,2,2:0:0:0:
364,232,31305,5,2,2:0:0:0:
441,150,31492,1,2,2:0:0:0:
445,232,31680,5,2,2:0:0:0:
446,234,32055,6,1,L|496:242,2,48.75,2|0|0,2:0|2:0|2:0,2:0:0:0:
445,235,33180,6,1,L|510:226,1,52.4999983978272,2|2,2:0|2:0,2:0:0:0:
225,163,33555,5,2,2:0:0:0:
299,189,33742,1,2,2:0:0:0:
243,240,33930,1,2,2:0:0:0:
62,151,34305,6,1,L|-1:163,1,56.2499982833863,2|0,2:0|2:0,2:0:0:0:
4,163,34867,5,2,2:0:0:0:
132,205,35055,5,2,2:0:0:0:
255,376,35242,6,1,P|246:278|332:136,1,247.500007553101,2|2,2:0|2:0,2:0:0:0:
254,376,36180,6,1,P|253:313|209:261,1,120,2|2,2:0|2:0,2:0:0:0:
153,138,36742,6,1,P|99:153|40:227,1,150,2|2,2:0|2:0,2:0:0:0:
219,186,37305,5,2,2:0:0:0:
221,184,37492,2,1,P|234:158|224:94,1,75,2|2,2:0|2:0,2:0:0:0:
105,306,37867,6,1,P|184:309|259:387,1,180,2|2,2:0|2:0,2:0:0:0:
254,375,39180,6,1,P|255:312|299:260,1,120,2|2,2:0|2:0,2:0:0:0:
357,129,39742,6,1,P|414:140|476:216,1,150,2|2,2:0|2:0,2:0:0:0:
368,235,40305,6,1,P|323:242|287:267,1,89.9999972534181,2|2,2:0|2:0,2:0:0:0:
255,337,40867,1,2,2:0:0:0:
255,338,41242,5,2,2:0:0:0:
259,188,41430,2,1,L|261:136,1,44.999998626709,2|2,2:0|2:0,2:0:0:0:
260,143,42180,6,1,P|328:149|372:262,1,180,2|2,2:0|2:0,2:0:0:0:
443,283,42930,2,1,L|527:268,1,75,2|2,2:0|2:0,2:0:0:0:
252,364,43492,6,1,P|192:327|112:328,1,150,2|2,2:0|2:0,2:0:0:0:
252,364,44055,5,2,2:0:0:0:
318,325,44242,2,1,L|329:199,1,120,2|2,2:0|2:0,2:0:0:0:
168,132,44805,2,1,L|178:212,1,75,2|2,2:0|2:0,2:0:0:0:
252,364,45180,6,1,B|289:347|313:303|320:223|253:182|253:182|285:139|296:75|252:39|252:39|271:82|250:134|225:166|225:166|170:228|228:293,1,633.749970989229,2|0,2:0|2:0,2:0:0:0:
256,192,46492,12,2,48180,2:0:0:0:
311,350,49680,6,1,P|314:316|333:274,1,75,2|2,2:0|2:0,2:0:0:0:
214,302,50242,2,1,P|240:275|258:242,1,75,2|2,2:0|2:0,2:0:0:0:
235,378,51180,6,1,P|258:327|355:234,1,180,2|0,2:0|2:0,2:0:0:0:
344,240,53430,6,1,L|392:250,2,45,2|0|2,2:0|2:0|2:0,2:0:0:0:
343,238,54180,6,1,P|409:218|398:330,1,225,2|2,2:0|2:0,2:0:0:0:
310,331,55492,5,2,2:0:0:0:
301,328,55680,2,1,P|280:299|264:232,1,89.9999972534181,2|2,2:0|2:0,2:0:0:0:
163,363,56242,2,1,P|164:327|141:262,1,89.9999972534181,2|2,2:0|2:0,2:0:0:0:
243,384,57180,6,1,P|217:283|9:215,1,337.499989700318,2|0,2:0|2:0,2:0:0:0:
14,212,59430,6,1,L|31:294,1,78.7499975967408,2|0,3:2|2:0,2:0:0:0:
90,334,60180,6,1,P|132:322|173:273,1,104.999996795654,2|2,3:2|2:0,2:0:0:0:
248,320,60930,6,1,P|264:282|253:215,1,101.249996910095,2|0,2:0|2:0,2:0:0:0:
247,212,61305,2,1,L|164:194,1,67.4999979400635,2|2,2:0|2:0,2:0:0:0:
25,33,61680,6,1,P|64:66|90:173,1,150,10|2,2:0|2:0,2:0:0:0:
201,57,62242,2,1,P|193:98|150:145,1,75,2|2,2:0|2:0,2:0:0:0:
146,322,62617,6,1,P|245:283|384:275,1,224.999993133545,2|0,2:0|2:0,2:0:0:0:
395,354,63180,6,1,P|434:321|444:233,1,120,2|0,2:0|2:0,2:0:0:0:
509,205,63930,6,1,P|499:153|430:108,1,112.5,2|0,2:0|2:0,2:0:0:0:
439,108,64305,2,1,L|528:126,1,75,2|0,2:0|2:0,2:0:0:0:
362,272,64680,6,1,P|294:259|230:190,1,165.000005035401,2|2,2:0|2:0,2:0:0:0:
143,361,65242,2,1,P|114:297|134:205,1,165.000005035401,2|2,2:0|2:0,2:0:0:0:
259,20,66180,6,1,B|283:2|387:-2|408:132|320:167|320:167|242:206|226:307|253:358|253:358|186:316|206:140|282:142|307:139|307:139|270:118|302:54,1,804.375007671118,2|0,2:0|2:0,2:0:0:0:
287,95,67492,6,1,P|372:97|448:176,1,179.999994506836,2|2,2:0|2:0,2:0:0:0:
392,214,68055,5,2,2:0:0:0:
452,76,68242,2,1,L|438:168,1,82.5000025177003,2|0,2:0|2:0,2:0:0:0:
289,384,69180,5,2,2:0:0:0:
258,306,69555,1,2,2:0:0:0:
307,241,69930,5,2,2:0:0:0:
289,383,70117,1,2,2:0:0:0:
179,307,70305,2,1,L|42:334,1,120,2|2,2:0|2:0,2:0:0:0:
9,269,71430,5,2,2:0:0:0:
228,384,72180,5,2,2:0:0:0:
268,296,72555,1,2,2:0:0:0:
201,222,72930,5,2,2:0:0:0:
228,383,73117,1,2,2:0:0:0:
357,289,73305,2,1,L|519:320,1,150,2|2,2:0|2:0,2:0:0:0:
495,234,74523,5,0,2:0:0:0:
256,192,74617,12,1,77805,2:0:0:0:
269,73,78180,6,1,L|167:88,1,89.9999972534181,2|2,1:2|2:0,2:0:0:0:
125,30,78742,1,2,2:0:0:0:
144,155,78930,6,1,L|30:138,1,101.249996910095,2|0,2:0|2:0,2:0:0:0:
145,156,79305,1,2,1:2:0:0:
179,86,79492,1,2,2:0:0:0:
20,14,79680,6,1,P|41:34|51:66,1,60,2|0,2:0|2:0,2:0:0:0:
230,164,80055,6,1,P|225:189|211:208,1,45,0|0,2:0|2:0,2:0:0:0:
214,204,81180,5,2,1:2:0:0:
266,260,81367,1,2,2:0:0:0:
227,326,81555,2,1,L|166:314,1,52.4999983978272,2|2,2:0|2:0,2:0:0:0:
242,85,81930,6,1,P|286:61|347:62,1,104.999996795654,2|2,2:0|1:2,2:0:0:0:
512,155,82680,5,8,2:0:0:0:
316,204,83055,1,0,2:0:0:0:
447,197,83430,6,1,L|389:178,1,60,2|2,2:0|2:0,2:0:0:0:
389,178,84180,6,1,L|414:303,1,104.999996795654,2|2,1:2|2:0,2:0:0:0:
479,317,84742,1,2,2:0:0:0:
321,250,84930,6,1,L|303:362,1,112.5,2|0,2:0|2:0,2:0:0:0:
322,251,85305,1,2,1:2:0:0:
402,360,85492,1,2,2:0:0:0:
403,279,85680,5,2,2:0:0:0:
403,279,87180,5,2,1:2:0:0:
348,221,87367,1,2,2:0:0:0:
394,162,87555,2,1,L|464:174,1,52.4999983978272,2|2,2:0|2:0,2:0:0:0:
369,347,87930,5,2,2:0:0:0:
301,161,88117,1,2,2:0:0:0:
235,327,88305,5,2,1:2:0:0:
251,224,88492,1,0,2:0:0:0:
180,264,88680,6,1,L|137:273,3,40,8|0|0|0,2:0|2:0|2:0|2:0,2:0:0:0:
140,272,90180,6,1,P|138:217|82:156,1,120,2|2,1:2|2:0,2:0:0:0:
17,164,90742,5,2,2:0:0:0:
162,104,90930,2,1,L|234:120,1,60,2|2,2:0|2:0,2:0:0:0:
100,166,91305,6,1,L|94:138,3,18.75,2|0|2|0,1:2|2:0|2:0|2:0,2:0:0:0:
95,303,91680,6,1,B|148:211|138:282|202:171,1,146.249993305207,10|0,2:0|2:0,2:0:0:0:
262,271,92055,6,1,B|262:191|286:242|286:139,1,112.5,2|0,2:0|2:0,2:0:0:0:
387,206,92430,6,1,B|343:138|391:168|341:87,1,104.999996795654,2|2,2:0|2:0,2:0:0:0:
353,108,93180,5,2,1:2:0:0:
422,135,93367,1,2,2:0:0:0:
477,83,93555,2,1,L|465:24,1,60,2|2,2:0|2:0,2:0:0:0:
276,126,93930,6,1,P|274:163|287:198,1,75,2|2,2:0|2:0,2:0:0:0:
479,264,94305,6,1,P|431:224|360:224,1,112.5,2|0,1:2|2:0,2:0:0:0:
320,267,94680,6,1,B|271:353|277:288|218:393,1,134.999995880127,10|0,2:0|2:0,2:0:0:0:
163,229,95055,6,1,B|182:293|151:256|171:327,1,89.9999972534181,2|0,2:0|2:0,2:0:0:0:
361,135,95430,5,2,2:0:0:0:
361,135,96180,5,2,1:2:0:0:
439,122,96367,1,2,2:0:0:0:
363,139,96555,1,2,2:0:0:0:
436,117,96742,1,2,2:0:0:0:
305,197,96930,5,2,2:0:0:0:
478,246,97117,1,2,2:0:0:0:
318,288,97305,5,2,1:2:0:0:
405,349,97492,1,2,2:0:0:0:
296,372,97680,5,10,2:0:0:0:
296,372,98055,5,2,2:0:0:0:
294,370,98242,2,1,L|222:382,2,60,2|2|2,2:0|2:0|2:0,2:0:0:0:
376,384,99180,5,2,1:2:0:0:
407,316,99367,1,2,2:0:0:0:
484,334,99555,1,2,2:0:0:0:
294,370,99742,6,1,P|293:272|365:138,1,240,2|0,2:0|2:0,2:0:0:0:
427,117,100680,5,10,2:0:0:0:
489,158,100867,1,0,2:0:0:0:
422,197,101055,1,2,1:2:0:0:
491,160,101242,1,0,2:0:0:0:
428,118,101430,5,2,2:0:0:0:
350,150,101617,5,2,1:2:0:0:
343,240,101805,5,2,2:0:0:0:
281,354,101992,5,2,2:0:0:0:
68,380,102180,6,1,L|51:364,1,12.5,2|0,2:0|2:0,2:0:0:0:
126,298,102555,6,1,L|94:303,1,17.4999994659424,2|0,2:0|2:0,2:0:0:0:
131,217,102930,6,1,L|98:197,1,22.4999993133545,2|0,2:0|2:0,2:0:0:0:
165,137,103305,6,1,L|141:95,1,27.5000008392334,2|0,2:0|2:0,2:0:0:0:
251,80,103680,6,1,L|248:32,1,32.4999985122681,2|0,2:0|2:0,2:0:0:0:
380,63,104055,6,1,L|400:8,1,37.5000014305115,2|0,2:0|2:0,2:0:0:0:
395,59,104430,6,1,L|385:44,1,18.75,2|0,2:0|2:0,2:0:0:0:
467,29,104617,2,1,L|463:10,1,18.75,2|0,2:0|2:0,2:0:0:0:
461,106,104805,6,1,L|494:199,1,89.9999972534181,2|2,2:0|2:0,2:0:0:0:
253,381,105180,6,1,L|259:357,1,17.4999994659424,2|0,2:0|2:0,2:0:0:0:
334,336,105555,6,1,L|318:299,1,22.4999993133545,2|0,2:0|2:0,2:0:0:0:
357,245,105930,6,1,L|324:231,1,27.5000008392334,2|0,2:0|2:0,2:0:0:0:
320,140,106305,6,1,L|267:155,1,32.4999985122681,2|0,2:0|2:0,2:0:0:0:
202,120,106680,6,1,L|178:172,1,37.5000014305115,2|0,2:0|2:0,2:0:0:0:
64,95,107055,6,1,L|16:128,1,42.5000008106232,2|0,2:0|2:0,2:0:0:0:
59,111,107430,6,1,L|32:104,1,26.2499991989136,2|0,2:0|2:0,2:0:0:0:
130,57,107617,2,1,L|112:24,1,26.2499991989136,2|0,2:0|2:0,2:0:0:0:
139,145,107805,6,1,L|210:249,1,112.500004291535,2|2,2:0|2:0,2:0:0:0:
420,361,108180,6,1,P|351:317|201:321,1,225,2|2,2:0|2:0,2:0:0:0:
161,384,108930,6,1,P|128:338|139:272,1,120,2|2,2:0|2:0,2:0:0:0:
94,97,109492,6,1,P|144:84|235:135,1,150,2|2,2:0|2:0,2:0:0:0:
220,210,110055,5,2,2:0:0:0:
144,181,110242,2,1,P|81:203|44:258,1,134.999995880127,2|2,2:0|2:0,2:0:0:0:
256,370,111180,6,1,B|292:361|316:317|323:237|256:196|256:196|288:153|299:89|256:26|256:26|274:96|253:148|228:180|228:180|173:242|231:307,1,660,2|0,2:0|2:0,2:0:0:0:
256,368,112305,6,1,L|262:320,1,28.1250010728836,2|0,2:0|2:0,2:0:0:0:
257,19,112680,5,2,2:0:0:0:
281,95,112930,5,2,2:0:0:0:
375,143,113148,5,0,2:0:0:0:
512,178,113430,6,1,P|338:178|-9:202,1,510.000009727478,2|0,2:3|2:0,2:0:0:0:
2,200,115305,5,2,2:0:0:0:
69,265,115680,5,2,2:0:0:0:
212,253,115961,5,0,2:0:0:0:
341,384,116219,5,0,2:0:0:0:
256,192,116336,12,1,120086,2:0:0:0:
420,324,120180,6,1,P|482:321|420:321,1,191.250003647804,6|0,1:2|2:0,2:0:0:0:
419,321,120555,6,1,L|300:338,1,97.4999955368044,2|0,2:0|2:0,2:0:0:0:
206,115,120930,2,1,P|278:115|321:192,1,146.249993305207,2|0,2:0|2:0,2:0:0:0:
385,217,121305,5,2,1:2:0:0:
459,190,121492,1,2,2:0:0:0:
301,19,121680,6,1,P|252:27|178:15,1,97.4999955368044,10|0,2:0|2:0,2:0:0:0:
141,66,122055,1,2,2:0:0:0:
362,140,122242,5,2,2:0:0:0:
235,318,122430,2,1,B|216:208|284:238|245:108,1,194.999991073609,2|2,2:0|2:0,2:0:0:0:
251,128,123180,6,1,P|175:165|86:177,1,165.000005035401,2|2,1:2|2:0,2:0:0:0:
49,241,123742,5,2,2:0:0:0:
66,315,123930,1,2,2:0:0:0:
141,329,124117,1,2,2:0:0:0:
96,177,124305,6,1,P|54:171|1:155,1,82.5000025177003,2|0,1:2|2:0,2:0:0:0:
202,380,124680,6,1,P|266:341|361:344,1,146.249993305207,10|0,2:0|2:0,2:0:0:0:
343,344,125055,1,2,2:0:0:0:
403,299,125242,6,1,P|410:280|405:231,1,48.7499977684022,2|0,2:0|2:0,2:0:0:0:
249,16,125430,6,1,L|258:133,1,112.500004291535,2|2,2:0|2:0,2:0:0:0:
169,303,125805,1,2,2:0:0:0:
120,247,125992,1,2,2:0:0:0:
362,149,126180,6,1,P|436:153|487:250,1,165.000005035401,2|0,1:2|2:0,2:0:0:0:
315,216,126742,5,0,2:0:0:0:
497,318,126930,2,1,P|446:303|368:303,1,112.500004291535,2|0,2:0|2:0,2:0:0:0:
134,205,127305,5,2,1:2:0:0:
362,149,127492,1,2,2:0:0:0:
243,347,127680,6,1,B|224:237|292:267|253:137,1,194.999991073609,10|2,2:0|2:0,2:0:0:0:
150,111,128242,6,1,P|123:79|55:52,1,97.4999955368044,2|2,2:0|2:0,2:0:0:0:
358,81,128617,5,2,2:0:0:0:
360,83,128805,2,1,P|370:42|421:-10,1,97.4999955368044,2|2,2:0|2:0,2:0:0:0:
182,190,129180,6,1,P|88:219|8:299,1,194.999991073609,2|2,1:2|2:0,2:0:0:0:
269,219,129742,6,1,P|230:294|230:408,1,165.000005035401,2|2,1:2|2:0,2:0:0:0:
299,384,130305,1,2,1:2:0:0:
351,324,130492,1,0,2:0:0:0:
199,268,130680,6,1,L|103:283,1,82.5000025177003,10|2,2:0|2:0,2:0:0:0:
223,373,131055,5,2,2:0:0:0:
342,163,131242,6,1,P|350:113|334:45,1,112.500004291535,2|0,2:0|2:0,2:0:0:0:
123,209,131617,2,1,P|110:263|118:318,1,112.500004291535,2|2,2:0|2:0,2:0:0:0:
351,324,131992,5,0,2:0:0:0:
87,114,132180,1,6,1:2:0:0:
89,116,132555,6,1,L|185:102,1,97.4999955368044,2|0,2:0|2:0,2:0:0:0:
367,207,132930,2,1,P|399:147|372:56,1,146.249993305207,2|0,2:0|2:0,2:0:0:0:
322,29,133305,5,2,1:2:0:0:
255,65,133492,1,2,2:0:0:0:
418,278,133680,6,1,P|465:270|528:280,1,97.4999955368044,10|0,2:0|2:0,2:0:0:0:
367,207,134055,1,2,2:0:0:0:
408,138,134242,1,2,2:0:0:0:
272,359,134430,6,1,P|230:282|272:154,1,194.999991073609,2|2,2:0|2:0,2:0:0:0:
249,180,135180,6,1,B|270:128|352:124|348:222|328:200|307:223|297:258|309:307|367:341|439:288,1,292.499986610413,2|2,1:2|2:0,2:0:0:0:
491,167,135930,6,1,P|491:117|511:37,1,112.500004291535,2|2,2:0|2:0,2:0:0:0:
181,1,136305,6,1,P|199:57|281:54,1,123.75000377655,2|0,1:2|2:0,2:0:0:0:
281,146,136680,6,1,P|345:107|440:110,1,146.249993305207,10|0,2:0|2:0,2:0:0:0:
419,110,137055,5,2,2:0:0:0:
372,22,137242,2,1,P|359:41|360:88,1,48.7499977684022,2|0,2:0|2:0,2:0:0:0:
368,179,137430,5,2,2:0:0:0:
473,54,137617,6,1,P|336:87|275:155,1,225.000008583069,2|2,2:0|2:0,2:0:0:0:
180,362,138180,6,1,B|238:394|295:364|317:319|324:239|257:198|257:198|296:156|305:70|244:-13|244:-13|275:98|254:150|229:182|229:182|174:244|232:309,1,828.750015807152,2|0,1:2|2:0,2:0:0:0:
352,183,139492,6,1,P|424:218|380:303,1,179.999994506836,2|2,2:0|2:0,2:0:0:0:
279,161,140055,5,2,2:0:0:0:
511,272,140242,2,1,P|389:233|348:171,1,194.999991073609,2|2,2:0|2:0,2:0:0:0:
410,128,140805,6,1,L|510:115,1,89.9999972534181,2|2,2:0|2:0,2:0:0:0:
255,370,156180,5,2,2:0:0:0:
266,231,157680,6,1,P|286:271|308:296,1,75,2|2,2:0|2:0,2:0:0:0:
190,251,158242,2,1,P|186:295|175:327,1,75,2|2,2:0|2:0,2:0:0:0:
255,370,159180,6,1,P|231:285|206:86,1,269.999991760254,2|0,2:0|2:0,2:0:0:0:
206,105,161430,6,1,L|257:117,2,45,2|0|2,2:0|2:0|2:0,2:0:0:0:
249,115,162180,6,1,P|185:100|183:165,1,150,2|2,2:0|2:0,2:0:0:0:
257,192,162742,5,2,2:0:0:0:
306,179,162930,5,2,2:0:0:0:
328,110,163117,5,2,2:0:0:0:
393,58,163305,5,2,2:0:0:0:
468,81,163492,5,2,2:0:0:0:
510,161,163680,6,1,P|486:196|472:253,1,89.9999972534181,2|2,2:0|2:0,2:0:0:0:
402,137,164242,6,1,P|408:178|395:236,1,89.9999972534181,2|2,2:0|2:0,2:0:0:0:
468,81,164805,5,2,2:0:0:0:
446,198,164992,5,2,2:0:0:0:
484,383,165180,6,1,P|412:252|-5:17,1,618.750018882752,2|0,2:0|2:0,2:0:0:0:
13,32,166680,5,10,2:0:0:0:
62,106,166867,1,10,2:0:0:0:
149,77,167055,1,10,2:3:0:0:
188,196,167242,1,10,2:0:0:0:
367,165,167429,1,8,2:3:0:0:
438,358,167617,1,10,2:0:0:0:
497,321,167805,6,1,P|494:275|507:200,1,112.500004291535,6|0,2:3|2:0,2:0:0:0:
97,8,168180,5,2,1:2:0:0:
98,9,168555,6,1,L|110:115,1,97.4999955368044,2|0,2:0|2:0,2:0:0:0:
246,304,168930,2,1,P|335:297|367:209,1,157.499995193482,2|0,2:3|2:0,2:0:0:0:
412,179,169305,5,2,1:2:0:0:
381,107,169492,1,2,2:0:0:0:
140,236,169680,6,1,L|4:210,1,104.999996795654,10|0,1:2|2:0,2:0:0:0:
242,31,170055,1,2,2:0:0:0:
307,83,170242,1,2,2:0:0:0:
288,341,170430,6,1,B|309:265|261:251|197:254|229:151,1,180,2|0,2:3|2:0,2:0:0:0:
313,243,170805,2,1,L|172:300,1,104.999996795654,2|2,1:2|2:0,2:0:0:0:
2,347,171180,6,1,B|-35:291|-12:213|79:204|107:246|137:229|161:157|160:136|199:63|129:-18|-34:53|77:156,1,510.000009727478,2|2,1:3|2:3,2:0:0:0:
57,132,172305,6,1,L|188:151,1,112.5,2|0,1:2|2:0,2:0:0:0:
261,182,172680,6,1,P|254:113|184:46,1,157.499995193482,10|0,1:2|2:0,2:0:0:0:
190,53,173055,5,2,2:0:0:0:
335,0,173242,2,1,P|307:17|300:66,1,52.4999983978272,2|0,2:0|2:0,2:0:0:0:
210,126,173430,5,2,2:3:0:0:
336,109,173617,6,1,P|223:90|92:-34,1,255.000004863739,2|2,1:2|2:0,2:0:0:0:
147,315,174180,6,1,B|174:341|237:345|227:254|358:218|436:357|436:357|505:314|476:192|367:161|294:170|234:206|205:298|205:298|207:241|123:203|71:252|67:305,1,975,2|0,1:3|2:0,2:0:0:0:
58,375,175492,6,1,P|60:279|148:317,1,225.000008583069,2|0,2:0|2:0,2:0:0:0:
59,374,176055,5,10,2:3:0:0:
0,331,176242,1,10,2:3:0:0:
246,383,176430,6,1,B|296:383|344:331|312:240|249:242|249:242|347:178|355:40|285:3|250:-12|250:-12|337:73|297:217|197:206|194:310|255:319,1,873.000020647431,0|0,1:0|2:0,2:0:0:0:
256,192,190319,12,1,199396,2:0:0:0:
