osu file format v14

[General]
AudioFilename: audio.mp3
AudioLeadIn: 0
PreviewTime: 156075
Countdown: 0
SampleSet: Soft
StackLeniency: 0.7
Mode: 0
LetterboxInBreaks: 0
WidescreenStoryboard: 1

[Editor]
Bookmarks: 169,12169,24169,36169,48169,60169,69169,78169,90169,102169,114169,120169,132169,141169,156169,168169,178669,190294,199294
DistanceSpacing: 0.9
BeatDivisor: 4
GridSize: 16
TimelineZoom: 2.1

[Metadata]
Title:If I Can Stop One Heart From Breaking
TitleUnicode:If I Can Stop One Heart From Breaking
Artist:HOYO-MiX
ArtistUnicode:HOYO-MiX
Creator:Mimari
Version:normal
Source:Honkai: Star Rail
Tags:visionary i love ganyu english instrumental video game pop piano harmony robin firefly hsr hotaru ost soundtrack penacony if one dreams at midnight ホタル ロビン 傷つく誰かの心を守ることができたなら 使一颗心免于哀伤
BeatmapID:4485738
BeatmapSetID:2131561

[Difficulty]
HPDrainRate:3
CircleSize:3
OverallDifficulty:3.5
ApproachRate:5.5
SliderMultiplier:1.3
SliderTickRate:1

[Events]
//Background and Video events
0,0,"spreadyourwings.jpg",0,0
//Break Periods
2,48380,59055
2,141169,155055
2,180169,189194
//Storyboard Layer 0 (Background)
//Storyboard Layer 1 (Fail)
//Storyboard Layer 2 (Pass)
//Storyboard Layer 3 (Foreground)
//Storyboard Layer 4 (Overlay)
//Storyboard Sound Samples

[TimingPoints]
180,375,4,2,100,40,1,0
180,-125,4,2,100,40,0,0
367,-125,4,2,2,45,0,0
555,-125,4,2,3,45,0,0
930,-125,4,2,4,45,0,0
1305,-125,4,2,5,45,0,0
1680,-125,4,2,6,45,0,0
2055,-125,4,2,7,45,0,0
2430,-125,4,2,6,45,0,0
2805,-125,4,2,5,45,0,0
3180,-125,4,2,8,45,0,0
3367,-125,4,2,2,45,0,0
3555,-125,4,2,3,45,0,0
3930,-125,4,2,9,45,0,0
4305,-125,4,2,10,45,0,0
4680,-125,4,2,11,45,0,0
5055,-125,4,2,12,45,0,0
5430,-125,4,2,11,45,0,0
5805,-125,4,2,13,45,0,0
6180,-125,4,2,14,45,0,0
6367,-125,4,2,2,45,0,0
6555,-125,4,2,3,45,0,0
6742,-125,4,2,2,45,0,0
6930,-125,4,2,15,45,0,0
7305,-125,4,2,16,45,0,0
7680,-125,4,2,17,45,0,0
8055,-125,4,2,18,45,0,0
8430,-125,4,2,17,45,0,0
8805,-125,4,2,16,45,0,0
9180,-125,4,2,19,45,0,0
9367,-125,4,2,2,45,0,0
9555,-125,4,2,3,45,0,0
9742,-125,4,2,2,45,0,0
9930,-125,4,2,9,45,0,0
10305,-125,4,2,20,45,0,0
12180,-133.333333333333,4,2,21,45,0,0
12555,-133.333333333333,4,2,3,45,0,0
12930,-133.333333333333,4,2,22,45,0,0
13305,-133.333333333333,4,2,5,45,0,0
13680,-133.333333333333,4,2,23,45,0,0
15180,-133.333333333333,4,2,25,45,0,0
15367,-133.333333333333,4,2,2,45,0,0
15555,-133.333333333333,4,2,3,45,0,0
15930,-133.333333333333,4,2,22,45,0,0
18180,-133.333333333333,4,2,27,45,0,0
18555,-133.333333333333,4,2,3,45,0,0
18930,-133.333333333333,4,2,22,45,0,0
19305,-133.333333333333,4,2,5,45,0,0
19680,-133.333333333333,4,2,23,45,0,0
21180,-133.333333333333,4,2,28,45,0,0
21367,-133.333333333333,4,2,2,45,0,0
21555,-133.333333333333,4,2,3,45,0,0
21742,-133.333333333333,4,2,2,45,0,0
21930,-133.333333333333,4,2,29,45,0,0
23805,-133.333333333333,4,2,30,45,0,0
24180,-133.333333333333,4,2,31,50,0,0
24367,-133.333333333333,4,2,32,50,0,0
24555,-133.333333333333,4,2,33,50,0,0
24930,-133.333333333333,4,2,34,50,0,0
25117,-133.333333333333,4,2,32,50,0,0
25305,-133.333333333333,4,2,35,50,0,0
25492,-133.333333333333,4,2,32,50,0,0
25680,-133.333333333333,4,2,36,50,0,0
27180,-133.333333333333,4,2,37,50,0,0
27555,-133.333333333333,4,2,38,50,0,0
27930,-133.333333333333,4,2,39,50,0,0
28305,-133.333333333333,4,2,40,50,0,0
29055,-133.333333333333,4,2,41,50,0,0
30180,-133.333333333333,4,2,43,50,0,0
30555,-133.333333333333,4,2,44,50,0,0
30930,-133.333333333333,4,2,45,50,0,0
31117,-133.333333333333,4,2,32,50,0,0
31305,-133.333333333333,4,2,46,50,0,0
31492,-133.333333333333,4,2,32,50,0,0
31680,-133.333333333333,4,2,47,50,0,0
33180,-133.333333333333,4,2,50,50,0,0
33555,-133.333333333333,4,2,33,50,0,0
33742,-133.333333333333,4,2,32,50,0,0
33930,-133.333333333333,4,2,51,50,0,0
34305,-133.333333333333,4,2,52,50,0,0
34867,-133.333333333333,4,2,5,50,0,0
35055,-133.333333333333,4,2,4,50,0,0
35242,-133.333333333333,4,2,53,50,0,0
36180,-125,4,2,54,50,0,0
36742,-125,4,2,56,50,0,0
37305,-125,4,2,58,50,0,0
37680,-125,4,2,57,50,0,0
37867,-125,4,2,59,50,0,0
38429,-125,4,2,41,50,0,0
39180,-125,4,2,60,50,0,0
39555,-125,4,2,61,50,0,0
39742,-125,4,2,62,50,0,0
40117,-125,4,2,63,50,0,0
40305,-125,4,2,64,50,0,0
40867,-125,4,2,65,50,0,0
41430,-125,4,2,66,50,0,0
42180,-125,4,2,67,50,0,0
42742,-125,4,2,24,50,0,0
42930,-125,4,2,68,50,0,0
43305,-125,4,2,69,50,0,0
43492,-125,4,2,70,50,0,0
43867,-125,4,2,71,50,0,0
44055,-125,4,2,72,50,0,0
44805,-125,4,2,24,50,0,0
45180,-125,4,2,75,50,0,0
48180,-125,4,2,77,40,0,0
60180,-117.647058823529,4,2,85,50,0,0
60555,-117.647058823529,4,2,86,50,0,0
60930,-117.647058823529,4,2,87,50,0,0
61305,-117.647058823529,4,2,88,50,0,0
61492,-117.647058823529,4,2,24,50,0,0
61680,-117.647058823529,4,2,89,50,0,0
62055,-117.647058823529,4,2,24,50,0,0
63180,-117.647058823529,4,2,91,50,0,0
63930,-117.647058823529,4,2,92,50,0,0
64305,-117.647058823529,4,2,93,50,0,0
64680,-117.647058823529,4,2,94,50,0,0
65055,-117.647058823529,4,2,24,50,0,0
66180,-117.647058823529,4,2,96,50,0,0
67492,-117.647058823529,4,2,99,50,0,0
68055,-117.647058823529,4,2,101,50,0,0
68242,-117.647058823529,4,2,24,50,0,0
69180,-133.333333333333,4,2,102,50,0,0
69555,-133.333333333333,4,2,103,50,0,0
69930,-133.333333333333,4,2,104,50,0,0
70117,-133.333333333333,4,2,33,50,0,0
70305,-133.333333333333,4,2,105,50,0,0
70680,-133.333333333333,4,2,106,50,0,0
72180,-133.333333333333,4,2,108,50,0,0
72555,-133.333333333333,4,2,109,50,0,0
72930,-133.333333333333,4,2,110,50,0,0
73117,-133.333333333333,4,2,111,50,0,0
73305,-133.333333333333,4,2,112,50,0,0
73680,-133.333333333333,4,2,113,50,0,0
78180,-125,4,2,119,50,0,0
78555,-125,4,2,3,50,0,0
78930,-125,4,2,22,50,0,0
79305,-125,4,2,5,50,0,0
79680,-125,4,2,23,50,0,0
81180,-125,4,2,120,50,0,0
81367,-125,4,2,2,50,0,0
81555,-125,4,2,3,50,0,0
81930,-125,4,2,121,50,0,0
82305,-125,4,2,122,50,0,0
82680,-125,4,2,1,50,0,0
84180,-125,4,2,124,50,0,0
84555,-125,4,2,3,50,0,0
84930,-125,4,2,22,50,0,0
85305,-125,4,2,5,50,0,0
85680,-125,4,2,23,50,0,0
87180,-125,4,2,125,50,0,0
87367,-125,4,2,2,50,0,0
87555,-125,4,2,3,50,0,0
87742,-125,4,2,2,50,0,0
87930,-125,4,2,126,50,0,0
88305,-125,4,2,127,50,0,0
88680,-125,4,2,1,50,0,0
90180,-125,4,2,128,50,0,0
90555,-125,4,2,129,50,0,0
90930,-125,4,2,130,50,0,0
91117,-125,4,2,2,50,0,0
91305,-125,4,2,131,50,0,0
91492,-125,4,2,2,50,0,0
91680,-125,4,2,132,50,0,0
92055,-125,4,2,133,50,0,0
92430,-125,4,2,134,50,0,0
92805,-125,4,2,135,50,0,0
93180,-125,4,2,136,50,0,0
93555,-125,4,2,137,50,0,0
93930,-125,4,2,130,50,0,0
94305,-125,4,2,138,50,0,0
94492,-125,4,2,100,50,0,0
94680,-125,4,2,139,50,0,0
95055,-125,4,2,140,50,0,0
96180,-125,4,2,142,50,0,0
96555,-125,4,2,143,50,0,0
96930,-125,4,2,144,50,0,0
97117,-125,4,2,2,50,0,0
97305,-125,4,2,145,50,0,0
97492,-125,4,2,146,50,0,0
97680,-125,4,2,147,50,0,0
99180,-125,4,2,150,50,0,0
99555,-125,4,2,152,50,0,0
99742,-125,4,2,153,50,0,0
100679,-125,4,2,154,50,0,0
101055,-125,4,2,155,50,0,0
101430,-125,4,2,156,50,0,0
101617,-125,4,2,7,50,0,0
101805,-125,4,2,157,50,0,0
101992,-125,4,2,158,50,0,0
102180,-117.647058823529,4,2,159,60,0,0
102555,-117.647058823529,4,2,160,60,0,0
103680,-117.647058823529,4,2,161,60,0,0
103867,-117.647058823529,4,2,24,60,0,0
104055,-117.647058823529,4,2,162,60,0,0
104430,-117.647058823529,4,2,163,60,0,0
104617,-117.647058823529,4,2,164,60,0,0
104805,-117.647058823529,4,2,165,60,0,0
105180,-117.647058823529,4,2,167,60,0,0
105555,-117.647058823529,4,2,168,60,0,0
106680,-117.647058823529,4,2,169,60,0,0
106867,-117.647058823529,4,2,24,60,0,0
107055,-117.647058823529,4,2,170,60,0,0
107430,-117.647058823529,4,2,171,60,0,0
107617,-117.647058823529,4,2,172,60,0,0
107805,-117.647058823529,4,2,173,60,0,0
108180,-117.647058823529,4,2,174,60,0,0
108930,-117.647058823529,4,2,175,60,0,0
109492,-133.333333333333,4,2,177,60,0,0
110054,-133.333333333333,4,2,179,60,0,0
110242,-133.333333333333,4,2,24,60,0,0
111180,-133.333333333333,4,2,181,60,0,0
112305,-133.333333333333,4,2,183,60,0,0
112680,-133.333333333333,4,2,184,60,0,0
112930,-133.333333333333,4,2,185,60,0,0
113429,-133.333333333333,4,2,1,60,0,0
120180,-117.647058823529,4,2,192,60,0,0
120555,-117.647058823529,4,2,24,60,0,0
120930,-117.647058823529,4,2,193,60,0,0
121305,-117.647058823529,4,2,194,60,0,0
121492,-117.647058823529,4,2,195,60,0,0
121680,-117.647058823529,4,2,196,60,0,0
122055,-117.647058823529,4,2,197,60,0,0
122242,-117.647058823529,4,2,198,60,0,0
122430,-117.647058823529,4,2,199,60,0,0
122805,-117.647058823529,4,2,200,60,0,0
123180,-117.647058823529,4,2,201,60,0,0
123555,-117.647058823529,4,2,202,60,0,0
123742,-117.647058823529,4,2,203,60,0,0
124117,-117.647058823529,4,2,202,60,0,0
124305,-117.647058823529,4,2,205,60,0,0
124680,-117.647058823529,4,2,206,60,0,0
125055,-117.647058823529,4,2,207,60,0,0
125242,-117.647058823529,4,2,208,60,0,0
125430,-117.647058823529,4,2,209,60,0,0
125617,-117.647058823529,4,2,210,60,0,0
125805,-117.647058823529,4,2,203,60,0,0
126180,-117.647058823529,4,2,211,60,0,0
126555,-117.647058823529,4,2,100,60,0,0
126930,-117.647058823529,4,2,212,60,0,0
127305,-117.647058823529,4,2,194,60,0,0
127492,-117.647058823529,4,2,195,60,0,0
127680,-117.647058823529,4,2,213,60,0,0
128055,-117.647058823529,4,2,197,60,0,0
128242,-117.647058823529,4,2,198,60,0,0
128430,-117.647058823529,4,2,204,60,0,0
128617,-117.647058823529,4,2,197,60,0,0
128805,-117.647058823529,4,2,200,60,0,0
129180,-117.647058823529,4,2,214,60,0,0
129742,-117.647058823529,4,2,215,60,0,0
129930,-117.647058823529,4,2,204,60,0,0
130305,-117.647058823529,4,2,216,60,0,0
130680,-117.647058823529,4,2,217,60,0,0
130867,-117.647058823529,4,2,24,60,0,0
131055,-117.647058823529,4,2,218,60,0,0
131242,-117.647058823529,4,2,219,60,0,0
131617,-117.647058823529,4,2,220,60,0,0
131805,-117.647058823529,4,2,221,60,0,0
132180,-117.647058823529,4,2,222,60,0,0
132555,-117.647058823529,4,2,24,60,0,0
132930,-117.647058823529,4,2,223,60,0,0
133305,-117.647058823529,4,2,194,60,0,0
133492,-117.647058823529,4,2,195,60,0,0
133680,-117.647058823529,4,2,196,60,0,0
134055,-117.647058823529,4,2,197,60,0,0
134242,-117.647058823529,4,2,198,60,0,0
134430,-117.647058823529,4,2,224,60,0,0
134805,-117.647058823529,4,2,200,60,0,0
135180,-117.647058823529,4,2,225,60,0,0
135742,-117.647058823529,4,2,215,60,0,0
135930,-117.647058823529,4,2,226,60,0,0
136305,-117.647058823529,4,2,227,60,0,0
136680,-117.647058823529,4,2,228,60,0,0
137055,-117.647058823529,4,2,229,60,0,0
137242,-117.647058823529,4,2,230,60,0,0
137430,-117.647058823529,4,2,231,60,0,0
137617,-117.647058823529,4,2,218,60,0,0
138180,-117.647058823529,4,2,232,60,0,0
139305,-117.647058823529,4,2,195,60,0,0
139492,-117.647058823529,4,2,235,60,0,0
139867,-117.647058823529,4,2,237,60,0,0
140055,-117.647058823529,4,2,238,60,0,0
140242,-117.647058823529,4,2,239,60,0,0
140804,-117.647058823529,4,2,198,60,0,0
156180,-153.846153846153,4,2,265,40,0,0
157679,-153.846153846153,4,2,266,40,0,0
159179,-153.846153846153,4,2,267,40,0,0
161430,-153.846153846153,4,2,268,40,0,0
162180,-142.857142857143,4,2,269,40,0,0
162554,-142.857142857143,4,2,63,40,0,0
162742,-142.857142857143,4,2,270,40,0,0
162930,-142.857142857143,4,2,271,40,0,0
163304,-142.857142857143,4,2,61,40,0,0
163680,-133.333333333333,4,2,273,40,0,0
164055,-133.333333333333,4,2,61,40,0,0
164242,-133.333333333333,4,2,275,40,0,0
164805,-133.333333333333,4,2,63,40,0,0
165180,-125,4,2,276,45,0,0
166305,-125,4,2,277,45,0,0
166680,-125,4,2,63,50,0,0
166867,-125,4,2,270,50,0,0
167054,-125,4,2,3,55,0,0
167242,-125,4,2,278,55,0,0
167429,-125,4,2,1,60,0,0
167804,-125,4,2,4,60,0,0
168180,-117.647058823529,4,2,280,65,0,0
168555,-117.647058823529,4,2,281,65,0,0
168930,-117.647058823529,4,2,5,65,0,0
169305,-117.647058823529,4,2,282,65,0,0
169492,-117.647058823529,4,2,24,65,0,0
169680,-117.647058823529,4,2,283,65,0,0
170055,-117.647058823529,4,2,24,65,0,0
170430,-117.647058823529,4,2,6,65,0,0
170805,-117.647058823529,4,2,284,65,0,0
171180,-117.647058823529,4,2,7,65,0,0
171930,-117.647058823529,4,2,8,65,0,0
172305,-117.647058823529,4,2,285,65,0,0
172680,-117.647058823529,4,2,286,65,0,0
173055,-117.647058823529,4,2,287,65,0,0
173242,-117.647058823529,4,2,24,65,0,0
173430,-117.647058823529,4,2,9,65,0,0
173617,-117.647058823529,4,2,24,65,0,0
174180,-117.647058823529,4,2,10,65,0,0
175305,-117.647058823529,4,2,288,65,0,0
175492,-117.647058823529,4,2,289,65,0,0
175680,-117.647058823529,4,2,290,65,0,0
176055,-117.647058823529,4,2,2,65,0,0
176242,-105.263157894737,4,2,2,65,0,0
177180,-105.263157894737,4,2,100,60,0,0
178305,-105.263157894737,4,2,100,50,0,0
178679,-105.263157894737,4,2,2,50,0,0
180170,375,4,2,2,50,1,0
189732,400,4,2,2,50,1,0
189932,387.096774193548,4,2,2,50,1,0
190319,409.276944065484,4,2,2,50,1,0
191055,-100,4,2,2,40,0,0
191137,375,4,2,2,35,1,0
191430,-100,4,2,2,40,0,0
191512,437.956204379562,4,2,2,35,1,0
191805,-100,4,2,2,40,0,0
191949,389.61038961039,4,2,2,35,1,0
192728,353.982300884956,4,2,2,35,1,0
192930,-100,4,2,2,40,0,0
193081,526.315789473684,4,2,2,35,1,0
193305,-100,4,2,2,40,0,0
193607,526.315789473684,4,2,2,35,1,0

[Colours]
Combo1 : 240,232,174
Combo2 : 135,146,152
Combo3 : 191,149,145

[HitObjects]
60,356,180,6,1,P|55:331|69:294,1,52,2|2,2:0|2:0,2:0:0:0:
95,273,555,2,1,L|215:294,1,104,2|2,2:0|2:0,2:0:0:0:
265,355,1305,1,2,2:0:0:0:
352,320,1680,1,2,2:0:0:0:
349,226,2055,1,2,2:0:0:0:
273,170,2430,1,2,2:0:0:0:
209,101,2805,1,2,2:0:0:0:
254,19,3180,6,1,L|325:27,1,52,2|2,2:0|2:0,2:0:0:0:
335,58,3555,2,1,L|447:44,1,104,2|2,2:0|2:0,2:0:0:0:
495,119,4305,1,2,2:0:0:0:
439,194,4680,1,2,2:0:0:0:
508,256,5055,1,2,2:0:0:0:
453,332,5430,2,1,L|341:318,1,104,2|2,2:0|2:0,2:0:0:0:
262,352,6180,6,1,P|252:330|255:286,1,52,2|2,2:0|2:0,2:0:0:0:
274,262,6555,2,1,P|284:240|281:196,1,52,2|2,2:0|2:0,2:0:0:0:
255,176,6930,1,2,2:0:0:0:
163,155,7305,1,2,2:0:0:0:
99,223,7680,1,2,2:0:0:0:
14,182,8055,1,2,2:0:0:0:
24,89,8430,1,2,2:0:0:0:
116,72,8805,1,2,2:0:0:0:
163,155,9180,6,1,L|237:136,1,52,2|2,2:0|2:0,2:0:0:0:
249,172,9555,2,1,L|299:184,1,52,2|2,2:0|2:0,2:0:0:0:
341,162,9930,2,1,P|368:125|354:58,1,104,2|2,2:0|2:0,2:0:0:0:
271,9,12180,6,1,L|277:112,1,97.50000371933,2|2,2:0|2:0,2:0:0:0:
205,158,12930,1,2,2:0:0:0:
125,119,13305,1,2,2:0:0:0:
45,155,13680,2,1,P|32:198|53:265,1,97.50000371933,2|0,2:0|2:0,2:0:0:0:
42,248,15180,6,1,L|111:239,1,48.750001859665,2|2,2:0|2:0,2:0:0:0:
128,263,15555,2,1,L|246:250,1,97.50000371933,2|2,2:0|2:0,2:0:0:0:
232,155,18180,6,1,L|226:258,1,97.50000371933,2|2,2:0|2:0,2:0:0:0:
294,307,18930,1,2,2:0:0:0:
368,260,19305,1,2,2:0:0:0:
444,302,19680,2,1,P|454:254|441:208,1,97.50000371933,2|0,2:0|2:0,2:0:0:0:
441,208,21180,6,1,L|375:201,1,48.750001859665,2|2,2:0|2:0,2:0:0:0:
358,230,21555,2,1,L|292:223,1,48.750001859665,2|2,2:0|2:0,2:0:0:0:
268,240,21930,1,2,2:0:0:0:
268,240,23805,6,1,B|250:195|250:195|268:143,1,97.50000371933,2|2,2:0|2:0,2:0:0:0:
291,114,24367,1,2,2:0:0:0:
291,114,24555,1,2,2:0:0:0:
256,33,24930,2,1,L|201:39,1,48.750001859665,2|2,2:0|2:0,2:0:0:0:
176,69,25305,2,1,L|121:75,1,48.750001859665,2|2,2:0|2:0,2:0:0:0:
93,102,25680,1,2,2:0:0:0:
93,102,27180,6,1,L|90:205,1,97.50000371933,2|2,2:0|2:0,2:0:0:0:
33,266,27930,1,2,2:0:0:0:
83,337,28305,2,1,B|172:368|170:276|276:317,1,195.00000743866,2|2,2:0|2:0,2:0:0:0:
268,314,30180,6,1,P|278:269|256:212,1,97.50000371933,2|2,2:0|2:0,2:0:0:0:
223,142,30930,2,1,L|167:151,1,48.750001859665,2|2,2:0|2:0,2:0:0:0:
142,179,31305,2,1,L|86:188,1,48.750001859665,2|2,2:0|2:0,2:0:0:0:
58,212,31680,1,2,2:0:0:0:
58,212,33180,6,1,P|45:170|64:107,1,97.50000371933,2|2,2:0|2:0,2:0:0:0:
89,90,33742,1,2,2:0:0:0:
89,90,33930,1,2,2:0:0:0:
173,111,34305,2,1,P|242:134|325:100,1,146.250005578995,2|2,2:0|2:0,2:0:0:0:
336,71,35055,1,2,2:0:0:0:
316,26,35242,1,2,2:0:0:0:
316,26,36180,6,1,B|287:53|287:53|320:176,2,156,2|2|2,2:0|2:0|2:0,2:0:0:0:
413,21,37680,1,2,2:0:0:0:
413,21,37867,2,1,P|464:34|490:137,1,156,2|2,2:0|2:0,2:0:0:0:
495,124,39180,6,1,L|378:110,1,104,2|2,2:0|2:0,2:0:0:0:
358,144,39742,2,1,L|241:130,1,104,2|2,2:0|2:0,2:0:0:0:
216,158,40305,2,1,P|165:145|139:42,2,156,2|2|2,2:0|2:0|2:0,2:0:0:0:
216,158,42180,6,1,P|245:231|208:317,1,156,2|2,2:0|2:0,2:0:0:0:
189,335,42930,2,1,L|69:319,1,104,2|2,2:0|2:0,2:0:0:0:
48,348,43492,1,2,2:0:0:0:
13,260,43867,1,2,2:0:0:0:
13,260,44055,2,1,B|-6:135|83:192|53:48,1,208,2|2,2:0|2:0,2:0:0:0:
146,38,45180,6,1,B|243:-14|323:32|339:138|293:109|198:119|210:187|237:231,1,338,2|0,2:0|2:0,2:0:0:0:
256,192,46492,12,2,48180,2:0:0:0:
258,356,60180,6,1,P|271:309|246:246,1,110.50000210762,2|2,3:2|2:0,2:0:0:0:
183,179,60930,1,2,2:0:0:0:
108,244,61305,2,1,L|49:237,1,55.2500010538101,2|2,2:0|2:0,2:0:0:0:
23,197,61680,2,1,P|10:150|35:87,1,110.50000210762,10|2,2:0|2:0,2:0:0:0:
71,66,62242,2,1,L|205:57,1,110.50000210762,2|2,2:0|2:0,2:0:0:0:
323,12,63180,6,1,B|357:95|281:85|318:174,1,165.75000316143,2|0,2:0|2:0,2:0:0:0:
357,198,63930,1,2,2:0:0:0:
437,139,64305,1,2,2:0:0:0:
510,205,64680,2,1,L|498:321,1,110.50000210762,2|2,2:0|2:0,2:0:0:0:
494,364,65242,2,1,P|443:335|381:339,1,110.50000210762,2|2,2:0|2:0,2:0:0:0:
248,375,66180,6,1,B|217:361|211:360|187:322|188:275|202:216|294:309|327:191|302:126|256:117|256:117|175:139,1,386.750007376671,2|2,2:0|2:0,2:0:0:0:
96,24,68055,5,2,2:0:0:0:
96,24,68242,2,1,L|25:11,1,55.2500010538101,2|0,2:0|2:0,2:0:0:0:
6,186,69180,6,1,L|114:163,1,97.50000371933,2|2,2:0|2:0,2:0:0:0:
171,218,69930,2,1,L|237:202,1,48.750001859665,2|2,2:0|2:0,2:0:0:0:
261,196,70305,2,1,P|277:157|266:101,1,97.50000371933,2|2,2:0|2:0,2:0:0:0:
267,103,72180,6,1,L|374:88,1,97.50000371933,2|2,2:0|2:0,2:0:0:0:
444,123,72930,2,1,L|432:184,1,48.750001859665,2|2,2:0|2:0,2:0:0:0:
467,200,73305,2,1,L|484:302,1,97.50000371933,2|2,2:0|2:0,2:0:0:0:
298,367,74523,1,0,2:0:0:0:
256,192,74617,12,1,77430,2:0:0:0:
384,308,78180,6,1,L|264:288,1,104,2|2,1:2|2:0,2:0:0:0:
197,333,78930,1,2,2:0:0:0:
129,267,79305,1,2,1:2:0:0:
42,302,79680,2,1,P|27:248|47:191,1,104,2|0,2:0|2:0,2:0:0:0:
39,202,81180,6,1,L|103:192,1,52,2|2,1:2|2:0,2:0:0:0:
134,208,81555,2,1,L|244:188,1,104,2|2,2:0|2:0,2:0:0:0:
328,173,82305,2,1,P|343:119|323:62,1,104,2|8,1:2|2:0,2:0:0:0:
250,25,83055,1,0,2:0:0:0:
250,25,84180,6,1,L|137:14,1,104,2|2,1:2|2:0,2:0:0:0:
70,69,84930,1,2,2:0:0:0:
121,147,85305,1,2,1:2:0:0:
56,215,85680,2,1,P|40:264|57:324,1,104,2|0,2:0|2:0,2:0:0:0:
51,314,87180,6,1,L|127:303,1,52,2|2,1:2|2:0,2:0:0:0:
141,332,87555,2,1,L|217:321,1,52,2|2,2:0|2:0,2:0:0:0:
233,347,87930,2,1,L|349:334,1,104,2|2,2:0|1:2,2:0:0:0:
424,368,88680,1,8,2:0:0:0:
424,368,90180,6,1,P|438:323|415:258,1,104,2|2,1:2|2:0,2:0:0:0:
348,212,90930,2,1,L|282:222,1,52,2|2,2:0|2:0,2:0:0:0:
268,257,91305,2,1,L|202:267,1,52,2|2,1:2|2:0,2:0:0:0:
187,301,91680,1,10,2:0:0:0:
105,254,92055,1,2,2:0:0:0:
15,281,92430,2,1,P|1:236|24:171,1,104,2|2,2:0|2:0,2:0:0:0:
44,93,93180,6,1,L|158:106,1,104,2|2,1:2|2:0,2:0:0:0:
218,166,93930,1,2,2:0:0:0:
299,119,94305,2,1,L|289:60,1,52,2|0,1:2|2:0,2:0:0:0:
324,35,94680,2,1,P|394:38|430:65,1,104,10|2,2:0|2:0,2:0:0:0:
442,97,95242,1,0,2:0:0:0:
442,97,96180,6,1,L|433:206,1,104,2|2,1:2|2:0,2:0:0:0:
364,264,96930,2,1,L|308:255,1,52,2|2,2:0|2:0,2:0:0:0:
284,217,97305,2,1,L|228:209,1,52,2|2,1:2|2:0,2:0:0:0:
195,179,97680,1,10,2:0:0:0:
195,179,99180,6,1,P|138:169|78:197,1,104,2|2,1:2|2:0,2:0:0:0:
73,225,99742,2,1,P|74:291|242:327,1,260,2|10,2:0|2:0,2:0:0:0:
296,266,101055,2,1,L|417:295,1,104,2|2,1:2|2:0,2:0:0:0:
445,270,101617,1,2,1:2:0:0:
474,226,101805,2,1,L|462:160,1,52,2|2,2:0|2:0,2:0:0:0:
432,136,102180,6,1,L|444:27,1,110.50000210762,2|2,2:0|2:0,2:0:0:0:
345,12,102930,2,1,L|333:121,1,110.50000210762,2|2,2:0|2:0,2:0:0:0:
240,83,103680,2,1,L|249:12,1,55.2500010538101,2|2,2:0|2:0,2:0:0:0:
202,50,104055,1,2,2:0:0:0:
107,43,104430,2,1,L|33:32,2,55.2500010538101,2|2|2,2:0|2:0|2:0,2:0:0:0:
89,141,105180,6,1,L|98:250,1,110.50000210762,2|2,2:0|2:0,2:0:0:0:
198,246,105930,2,1,L|188:136,1,110.50000210762,2|2,2:0|2:0,2:0:0:0:
287,156,106680,2,1,L|291:227,1,55.2500010538101,2|2,2:0|2:0,2:0:0:0:
331,181,107055,1,2,2:0:0:0:
433,173,107430,2,1,L|507:169,2,55.2500010538101,2|2|2,2:0|2:0|2:0,2:0:0:0:
425,272,108180,6,1,B|384:321|409:377|409:377|375:320|293:342,1,221.000004215241,2|2,2:0|2:0,2:0:0:0:
185,319,109492,2,1,P|170:270|246:213,1,146.250005578995,2|2,2:0|2:0,2:0:0:0:
275,200,110242,2,1,P|299:136|294:57,1,146.250005578995,2|2,2:0|2:0,2:0:0:0:
212,26,111180,6,1,B|118:-8|58:44|39:124|101:166|165:142|170:101,1,292.50001115799,2|2,2:0|2:0,2:0:0:0:
253,107,112680,6,1,P|269:136|279:172,1,65.0000024795533,2|2,2:0|2:0,2:0:0:0:
238,199,113148,2,1,P|222:228|207:273,1,73.1250027894975,0|2,2:0|2:3,2:0:0:0:
256,192,113617,12,1,116242,2:0:0:0:
146,344,120180,6,1,P|130:295|153:232,1,110.50000210762,6|2,1:2|2:0,2:0:0:0:
232,190,120930,2,1,L|353:203,1,110.50000210762,2|2,2:0|1:2,2:0:0:0:
395,206,121492,1,2,2:0:0:0:
395,206,121680,2,1,P|407:161|385:93,1,110.50000210762,10|2,2:0|2:0,2:0:0:0:
358,62,122242,1,2,2:0:0:0:
312,83,122430,1,2,2:0:0:0:
230,26,122805,1,2,2:0:0:0:
133,51,123180,6,1,L|151:169,1,110.50000210762,2|2,1:2|2:0,2:0:0:0:
199,162,123742,2,1,L|217:280,1,110.50000210762,2|2,2:0|2:0,2:0:0:0:
244,311,124305,1,2,1:2:0:0:
157,360,124680,2,1,P|108:376|45:353,1,110.50000210762,10|2,2:0|2:0,2:0:0:0:
26,317,125242,1,2,2:0:0:0:
47,271,125430,2,1,L|38:206,1,55.2500010538101,2|2,2:0|2:0,2:0:0:0:
32,166,125805,1,2,2:0:0:0:
129,147,126180,6,1,L|147:31,1,110.50000210762,2|0,1:2|2:0,2:0:0:0:
190,14,126742,1,0,2:0:0:0:
233,38,126930,1,2,2:0:0:0:
331,24,127305,2,1,L|322:86,1,55.2500010538101,2|2,1:2|2:0,2:0:0:0:
289,115,127680,2,1,P|282:173|307:231,1,110.50000210762,10|2,2:0|2:0,2:0:0:0:
341,247,128242,1,2,2:0:0:0:
385,225,128430,2,1,L|446:238,1,55.2500010538101,2|2,2:0|2:0,2:0:0:0:
485,254,128805,1,2,2:0:0:0:
508,350,129180,6,1,L|339:370,1,165.75000316143,2|2,1:2|1:2,2:0:0:0:
304,337,129930,2,1,L|188:318,1,110.50000210762,2|2,2:0|1:2,2:0:0:0:
122,251,130680,2,1,L|45:268,2,55.2500010538101,10|2|2,2:0|2:0|2:0,2:0:0:0:
159,218,131242,1,2,2:0:0:0:
245,166,131617,1,2,2:0:0:0:
245,166,131805,2,1,L|315:178,1,55.2500010538101,2|0,2:0|2:0,2:0:0:0:
348,182,132180,6,1,P|370:144|361:70,1,110.50000210762,6|2,1:2|2:0,2:0:0:0:
333,49,132742,1,0,2:0:0:0:
284,61,132930,1,2,2:0:0:0:
195,14,133305,2,1,L|123:29,1,55.2500010538101,2|2,1:2|2:0,2:0:0:0:
92,35,133680,2,1,L|74:158,1,110.50000210762,10|2,2:0|2:0,2:0:0:0:
64,192,134242,1,2,2:0:0:0:
55,241,134430,1,2,2:0:0:0:
110,323,134805,1,2,2:0:0:0:
202,287,135180,6,1,B|286:258|276:343|376:315,1,165.75000316143,2|2,1:2|2:0,2:0:0:0:
403,339,135930,1,2,2:0:0:0:
467,263,136305,1,2,1:2:0:0:
398,190,136680,2,1,P|381:146|412:80,1,110.50000210762,10|2,2:0|2:0,2:0:0:0:
407,39,137242,1,2,2:0:0:0:
364,13,137430,2,1,L|294:22,1,55.2500010538101,2|2,2:0|2:0,2:0:0:0:
171,78,138180,6,1,B|143:98|142:148|185:253|256:157|303:195|324:232|332:277|308:326,1,331.500006322861,2|2,1:2|1:2,2:0:0:0:
277,351,139492,2,1,L|161:332,1,110.50000210762,2|2,2:0|2:0,2:0:0:0:
127,360,140055,1,2,2:0:0:0:
127,360,140242,2,1,P|88:308|87:198,1,165.75000316143,2|2,2:0|2:0,2:0:0:0:
255,366,156180,6,1,L|253:21,2,337.999984527589,2|2|2,2:0|2:0|2:0,2:0:0:0:
255,366,161430,1,2,2:0:0:0:
400,290,162180,6,1,P|417:253|404:193,1,90.9999972229005,2|2,2:0|2:0,2:0:0:0:
378,179,162742,1,2,2:0:0:0:
378,179,162930,2,1,L|279:193,1,90.9999972229005,2|2,2:0|2:0,2:0:0:0:
223,251,163680,2,1,L|116:235,1,97.50000371933,2|2,2:0|2:0,2:0:0:0:
83,227,164242,2,1,P|69:188|80:125,1,97.50000371933,2|2,2:0|2:0,2:0:0:0:
109,99,164805,1,2,2:0:0:0:
190,145,165180,6,1,P|261:163|446:33,1,312,2|2,2:0|2:0,2:0:0:0:
502,111,166680,1,10,2:0:0:0:
502,111,166867,2,1,L|493:173,1,52,10|10,2:0|2:3,2:0:0:0:
490,212,167242,1,10,2:0:0:0:
490,212,167429,2,1,L|476:331,1,104,8|6,2:3|2:3,2:0:0:0:
386,355,168180,6,1,P|337:371|274:348,1,110.50000210762,2|2,1:2|2:0,2:0:0:0:
193,309,168930,2,1,L|184:176,1,110.50000210762,2|2,2:3|1:2,2:0:0:0:
227,171,169492,1,2,2:0:0:0:
227,171,169680,2,1,L|218:38,1,110.50000210762,10|2,1:2|2:0,2:0:0:0:
176,35,170242,1,2,2:0:0:0:
133,60,170430,1,2,2:3:0:0:
36,38,170805,1,2,1:2:0:0:
12,134,171180,6,1,L|38:356,1,221.000004215241,2|2,1:3|2:3,2:0:0:0:
134,377,172305,1,2,1:2:0:0:
214,318,172680,2,1,P|263:302|326:325,1,110.50000210762,10|2,1:2|2:0,2:0:0:0:
356,349,173242,1,2,2:0:0:0:
403,333,173430,2,1,L|411:275,1,55.2500010538101,2|2,2:3|1:2,2:0:0:0:
444,132,174180,6,1,B|496:88|429:2|309:57|358:122|385:182|318:231|246:203,1,331.500006322861,2|2,1:3|1:2,2:0:0:0:
232,179,175492,1,2,2:0:0:0:
232,179,175680,1,10,2:0:0:0:
252,81,176055,1,10,2:3:0:0:
252,81,176242,2,1,B|206:47|133:60|98:103|85:155|98:217|145:339|247:269|247:338|247:338|320:329|374:245|438:200|427:109|367:80|305:112|306:157,1,802.749978564263,10|0,2:3|2:0,2:0:0:0:
256,192,190319,12,1,199396,2:0:0:0:
