osu file format v14

[General]
AudioFilename: audio.mp3
AudioLeadIn: 0
PreviewTime: 156075
Countdown: 0
SampleSet: Soft
StackLeniency: 0.5
Mode: 0
LetterboxInBreaks: 0
WidescreenStoryboard: 1

[Editor]
Bookmarks: 169,12169,24169,36169,48169,60169,69169,78169,90169,102169,114169,120169,132169,141169,156169,168169,178669,190294,199294
DistanceSpacing: 0.9
BeatDivisor: 4
GridSize: 16
TimelineZoom: 2.1

[Metadata]
Title:If I Can Stop One Heart From Breaking
TitleUnicode:If I Can Stop One Heart From Breaking
Artist:HOYO-MiX
ArtistUnicode:HOYO-MiX
Creator:Mimari
Version:hard
Source:Honkai: Star Rail
Tags:visionary i love ganyu english instrumental video game pop piano harmony robin firefly hsr hotaru ost soundtrack penacony if one dreams at midnight ホタル ロビン 傷つく誰かの心を守ることができたなら 使一颗心免于哀伤
BeatmapID:4499188
BeatmapSetID:2131561

[Difficulty]
HPDrainRate:3.5
CircleSize:3.5
OverallDifficulty:6
ApproachRate:7.5
SliderMultiplier:1.4
SliderTickRate:1

[Events]
//Background and Video events
0,0,"spreadyourwings.jpg",0,0
//Break Periods
2,48380,59355
2,141380,155355
2,180180,189494
//Storyboard Layer 0 (Background)
//Storyboard Layer 1 (Fail)
//Storyboard Layer 2 (Pass)
//Storyboard Layer 3 (Foreground)
//Storyboard Layer 4 (Overlay)
//Storyboard Sound Samples

[TimingPoints]
180,375,4,2,100,40,1,0
180,-133.333333333333,4,2,100,40,0,0
367,-133.333333333333,4,2,2,45,0,0
555,-133.333333333333,4,2,3,45,0,0
742,-133.333333333333,4,2,2,45,0,0
930,-111.111111111111,4,2,4,45,0,0
1117,-111.111111111111,4,2,2,45,0,0
1305,-111.111111111111,4,2,5,45,0,0
1492,-111.111111111111,4,2,2,45,0,0
1680,-111.111111111111,4,2,6,45,0,0
1867,-111.111111111111,4,2,2,45,0,0
2055,-111.111111111111,4,2,7,45,0,0
2242,-111.111111111111,4,2,2,45,0,0
2430,-111.111111111111,4,2,6,45,0,0
2617,-111.111111111111,4,2,2,45,0,0
2805,-111.111111111111,4,2,5,45,0,0
2992,-111.111111111111,4,2,2,45,0,0
3180,-111.111111111111,4,2,8,45,0,0
3367,-111.111111111111,4,2,2,45,0,0
3554,-111.111111111111,4,2,3,45,0,0
3742,-111.111111111111,4,2,2,45,0,0
3930,-99.9999999999999,4,2,9,45,0,0
4117,-99.9999999999999,4,2,2,45,0,0
4305,-99.9999999999999,4,2,10,45,0,0
4492,-99.9999999999999,4,2,2,45,0,0
4680,-99.9999999999999,4,2,11,45,0,0
4867,-99.9999999999999,4,2,2,45,0,0
5055,-99.9999999999999,4,2,12,45,0,0
5242,-99.9999999999999,4,2,2,45,0,0
5430,-99.9999999999999,4,2,11,45,0,0
5617,-99.9999999999999,4,2,2,45,0,0
5805,-99.9999999999999,4,2,13,45,0,0
6180,-99.9999999999999,4,2,14,45,0,0
6367,-99.9999999999999,4,2,2,45,0,0
6555,-99.9999999999999,4,2,3,45,0,0
6742,-99.9999999999999,4,2,2,45,0,0
6930,-99.9999999999999,4,2,15,45,0,0
7117,-99.9999999999999,4,2,2,45,0,0
7305,-99.9999999999999,4,2,16,45,0,0
7492,-99.9999999999999,4,2,2,45,0,0
7680,-99.9999999999999,4,2,17,45,0,0
7867,-99.9999999999999,4,2,2,45,0,0
8055,-99.9999999999999,4,2,18,45,0,0
8242,-99.9999999999999,4,2,2,45,0,0
8430,-111.111111111111,4,2,17,45,0,0
8617,-111.111111111111,4,2,2,45,0,0
8805,-111.111111111111,4,2,16,45,0,0
8992,-111.111111111111,4,2,2,45,0,0
9180,-111.111111111111,4,2,19,45,0,0
9367,-111.111111111111,4,2,2,45,0,0
9555,-111.111111111111,4,2,3,45,0,0
9742,-111.111111111111,4,2,2,45,0,0
9930,-111.111111111111,4,2,9,45,0,0
10305,-166.666666666667,4,2,20,45,0,0
12180,-142.857142857143,4,2,21,45,0,0
12554,-142.857142857143,4,2,3,45,0,0
12742,-142.857142857143,4,2,2,45,0,0
12930,-142.857142857143,4,2,22,45,0,0
13304,-142.857142857143,4,2,5,45,0,0
13492,-142.857142857143,4,2,2,45,0,0
13680,-142.857142857143,4,2,23,45,0,0
15180,-142.857142857143,4,2,25,45,0,0
15367,-142.857142857143,4,2,2,45,0,0
15555,-142.857142857143,4,2,3,45,0,0
15742,-142.857142857143,4,2,2,45,0,0
15930,-142.857142857143,4,2,22,45,0,0
16304,-142.857142857143,4,2,26,45,0,0
18180,-142.857142857143,4,2,27,45,0,0
18554,-142.857142857143,4,2,3,45,0,0
18742,-142.857142857143,4,2,2,45,0,0
18930,-142.857142857143,4,2,22,45,0,0
19492,-142.857142857143,4,2,2,45,0,0
19680,-142.857142857143,4,2,23,45,0,0
21180,-142.857142857143,4,2,28,45,0,0
21367,-142.857142857143,4,2,2,45,0,0
21555,-142.857142857143,4,2,3,45,0,0
21742,-142.857142857143,4,2,2,45,0,0
21930,-166.666666666667,4,2,29,45,0,0
23804,-166.666666666667,4,2,30,45,0,0
24180,-133.333333333333,4,2,31,50,0,0
24555,-133.333333333333,4,2,33,50,0,0
24742,-133.333333333333,4,2,32,50,0,0
24930,-133.333333333333,4,2,34,50,0,0
25117,-133.333333333333,4,2,32,50,0,0
25305,-133.333333333333,4,2,35,50,0,0
25680,-133.333333333333,4,2,36,50,0,0
27180,-133.333333333333,4,2,37,50,0,0
27367,-133.333333333333,4,2,32,50,0,0
27555,-133.333333333333,4,2,38,50,0,0
27742,-133.333333333333,4,2,32,50,0,0
27930,-133.333333333333,4,2,39,50,0,0
28305,-133.333333333333,4,2,40,50,0,0
29430,-133.333333333333,4,2,24,50,0,0
30180,-133.333333333333,4,2,43,50,0,0
30367,-133.333333333333,4,2,32,50,0,0
30555,-133.333333333333,4,2,44,50,0,0
30930,-133.333333333333,4,2,45,50,0,0
31117,-133.333333333333,4,2,32,50,0,0
31305,-133.333333333333,4,2,46,50,0,0
31492,-133.333333333333,4,2,32,50,0,0
31680,-133.333333333333,4,2,47,50,0,0
32055,-133.333333333333,4,2,48,50,0,0
33180,-133.333333333333,4,2,50,50,0,0
33367,-133.333333333333,4,2,32,50,0,0
33555,-133.333333333333,4,2,33,50,0,0
33742,-133.333333333333,4,2,32,50,0,0
33930,-133.333333333333,4,2,51,50,0,0
34305,-133.333333333333,4,2,52,50,0,0
34867,-133.333333333333,4,2,5,50,0,0
35055,-133.333333333333,4,2,4,50,0,0
35242,-133.333333333333,4,2,53,50,0,0
35804,-133.333333333333,4,2,24,50,0,0
36180,-133.333333333333,4,2,54,50,0,0
36555,-133.333333333333,4,2,55,50,0,0
36742,-133.333333333333,4,2,56,50,0,0
37304,-133.333333333333,4,2,58,50,0,0
37492,-133.333333333333,4,2,24,50,0,0
37679,-133.333333333333,4,2,57,50,0,0
37867,-133.333333333333,4,2,59,50,0,0
38429,-133.333333333333,4,2,41,50,0,0
39180,-133.333333333333,4,2,60,50,0,0
39555,-133.333333333333,4,2,61,50,0,0
39742,-133.333333333333,4,2,62,50,0,0
40117,-133.333333333333,4,2,63,50,0,0
40305,-133.333333333333,4,2,64,50,0,0
40867,-133.333333333333,4,2,65,50,0,0
41242,-133.333333333333,4,2,63,50,0,0
41430,-133.333333333333,4,2,66,50,0,0
42180,-133.333333333333,4,2,67,50,0,0
42742,-133.333333333333,4,2,24,50,0,0
42930,-133.333333333333,4,2,68,50,0,0
43305,-133.333333333333,4,2,69,50,0,0
43492,-117.647058823529,4,2,70,50,0,0
43867,-117.647058823529,4,2,71,50,0,0
44055,-117.647058823529,4,2,72,50,0,0
44242,-117.647058823529,4,2,24,50,0,0
44617,-117.647058823529,4,2,74,50,0,0
44805,-117.647058823529,4,2,24,50,0,0
44992,-117.647058823529,4,2,71,50,0,0
45180,-117.647058823529,4,2,75,50,0,0
48180,-117.647058823529,4,2,77,40,0,0
60180,-166.666666666667,4,2,85,50,0,0
60554,-166.666666666667,4,2,86,50,0,0
60930,-166.666666666667,4,2,87,50,0,0
61305,-166.666666666667,4,2,88,50,0,0
61492,-166.666666666667,4,2,24,50,0,0
61680,-166.666666666667,4,2,89,50,0,0
62054,-166.666666666667,4,2,24,50,0,0
63180,-166.666666666667,4,2,91,50,0,0
63930,-142.857142857143,4,2,92,50,0,0
64305,-142.857142857143,4,2,93,50,0,0
64680,-142.857142857143,4,2,94,50,0,0
65054,-142.857142857143,4,2,24,50,0,0
66180,-142.857142857143,4,2,96,50,0,0
67304,-142.857142857143,4,2,24,50,0,0
67492,-142.857142857143,4,2,99,50,0,0
67866,-142.857142857143,4,2,100,50,0,0
68055,-142.857142857143,4,2,101,50,0,0
68242,-142.857142857143,4,2,24,50,0,0
69180,-166.666666666667,4,2,102,50,0,0
69554,-166.666666666667,4,2,103,50,0,0
69930,-166.666666666667,4,2,104,50,0,0
70117,-166.666666666667,4,2,33,50,0,0
70305,-166.666666666667,4,2,105,50,0,0
70679,-166.666666666667,4,2,106,50,0,0
71430,-166.666666666667,4,2,107,50,0,0
72180,-166.666666666667,4,2,108,50,0,0
72554,-166.666666666667,4,2,109,50,0,0
72930,-166.666666666667,4,2,110,50,0,0
73117,-166.666666666667,4,2,111,50,0,0
73305,-166.666666666667,4,2,112,50,0,0
73679,-166.666666666667,4,2,113,50,0,0
78180,-125,4,2,119,50,0,0
78555,-125,4,2,3,50,0,0
78742,-125,4,2,2,50,0,0
78930,-125,4,2,22,50,0,0
79117,-125,4,2,2,50,0,0
79305,-125,4,2,5,50,0,0
79492,-125,4,2,2,50,0,0
79680,-125,4,2,23,50,0,0
81180,-125,4,2,120,50,0,0
81367,-125,4,2,2,50,0,0
81555,-125,4,2,3,50,0,0
81742,-125,4,2,2,50,0,0
81930,-125,4,2,121,50,0,0
82305,-125,4,2,122,50,0,0
82680,-125,4,2,1,50,0,0
83430,-125,4,2,123,50,0,0
84180,-125,4,2,124,50,0,0
84555,-125,4,2,3,50,0,0
84742,-125,4,2,2,50,0,0
84930,-125,4,2,22,50,0,0
85117,-125,4,2,2,50,0,0
85305,-125,4,2,5,50,0,0
85492,-125,4,2,2,50,0,0
85680,-125,4,2,23,50,0,0
87180,-125,4,2,125,50,0,0
87367,-125,4,2,2,50,0,0
87555,-125,4,2,3,50,0,0
87742,-125,4,2,2,50,0,0
87930,-125,4,2,126,50,0,0
88117,-125,4,2,2,50,0,0
88305,-125,4,2,127,50,0,0
88492,-125,4,2,1,50,0,0
90180,-125,4,2,128,50,0,0
90555,-125,4,2,129,50,0,0
90742,-125,4,2,2,50,0,0
90930,-125,4,2,130,50,0,0
91117,-125,4,2,2,50,0,0
91305,-125,4,2,131,50,0,0
91492,-125,4,2,2,50,0,0
91680,-111.111111111111,4,2,132,50,0,0
92055,-111.111111111111,4,2,133,50,0,0
92430,-111.111111111111,4,2,134,50,0,0
92804,-111.111111111111,4,2,135,50,0,0
93180,-111.111111111111,4,2,136,50,0,0
93367,-111.111111111111,4,2,2,50,0,0
93555,-125,4,2,137,50,0,0
93742,-125,4,2,2,50,0,0
93930,-125,4,2,130,50,0,0
94305,-125,4,2,138,50,0,0
94680,-125,4,2,139,50,0,0
95055,-125,4,2,140,50,0,0
95430,-125,4,2,134,50,0,0
96180,-125,4,2,142,50,0,0
96367,-125,4,2,2,50,0,0
96555,-125,4,2,143,50,0,0
96742,-125,4,2,2,50,0,0
96930,-125,4,2,144,50,0,0
97117,-125,4,2,2,50,0,0
97305,-125,4,2,145,50,0,0
97492,-125,4,2,146,50,0,0
97680,-125,4,2,147,50,0,0
98055,-125,4,2,148,50,0,0
98242,-125,4,2,24,50,0,0
99180,-125,4,2,150,50,0,0
99367,-125,4,2,151,50,0,0
99555,-125,4,2,152,50,0,0
99742,-125,4,2,153,50,0,0
100680,-125,4,2,154,50,0,0
101055,-125,4,2,155,50,0,0
101242,-125,4,2,1,50,0,0
101430,-125,4,2,156,50,0,0
101617,-125,4,2,7,50,0,0
101805,-125,4,2,157,50,0,0
101992,-125,4,2,158,50,0,0
102180,-125,4,2,159,60,0,0
102555,-125,4,2,160,60,0,0
103680,-125,4,2,161,60,0,0
104055,-125,4,2,162,60,0,0
104430,-125,4,2,163,60,0,0
104617,-125,4,2,164,60,0,0
104805,-125,4,2,165,60,0,0
104992,-125,4,2,166,60,0,0
105180,-125,4,2,167,60,0,0
105555,-125,4,2,168,60,0,0
106680,-125,4,2,169,60,0,0
107055,-125,4,2,170,60,0,0
107430,-125,4,2,171,60,0,0
107617,-125,4,2,172,60,0,0
107805,-125,4,2,173,60,0,0
107992,-125,4,2,172,60,0,0
108180,-142.857142857143,4,2,174,60,0,0
108929,-142.857142857143,4,2,175,60,0,0
109679,-142.857142857143,4,2,178,60,0,0
110055,-142.857142857143,4,2,179,60,0,0
110242,-142.857142857143,4,2,24,60,0,0
111180,-142.857142857143,4,2,181,60,0,0
112304,-142.857142857143,4,2,183,60,0,0
112680,-142.857142857143,4,2,184,60,0,0
112929,-142.857142857143,4,2,185,60,0,0
113430,-142.857142857143,4,2,1,60,0,0
115305,-142.857142857143,4,2,187,60,0,0
115680,-142.857142857143,4,2,188,60,0,0
120180,-100,4,2,192,60,0,0
120461,-100,4,2,1,60,0,0
120555,-100,4,2,24,60,0,0
120930,-100,4,2,193,60,0,0
121305,-100,4,2,194,60,0,0
121492,-100,4,2,195,60,0,0
121680,-100,4,2,196,60,0,0
122055,-100,4,2,197,60,0,0
122242,-100,4,2,198,60,0,0
122430,-100,4,2,199,60,0,0
122805,-100,4,2,200,60,0,0
123180,-100,4,2,201,60,0,0
123555,-100,4,2,202,60,0,0
123742,-100,4,2,203,60,0,0
123930,-100,4,2,204,60,0,0
124117,-100,4,2,202,60,0,0
124305,-100,4,2,205,60,0,0
124492,-100,4,2,1,60,0,0
124680,-100,4,2,206,60,0,0
125055,-100,4,2,207,60,0,0
125242,-100,4,2,208,60,0,0
125430,-100,4,2,209,60,0,0
125805,-100,4,2,203,60,0,0
125992,-100,4,2,24,60,0,0
126180,-100,4,2,211,60,0,0
126555,-100,4,2,1,60,0,0
126930,-100,4,2,212,60,0,0
127305,-100,4,2,194,60,0,0
127492,-100,4,2,195,60,0,0
127680,-100,4,2,213,60,0,0
128055,-100,4,2,197,60,0,0
128242,-100,4,2,198,60,0,0
128429,-100,4,2,204,60,0,0
128617,-100,4,2,197,60,0,0
128805,-100,4,2,200,60,0,0
129180,-100,4,2,214,60,0,0
129367,-100,4,2,1,60,0,0
129742,-100,4,2,215,60,0,0
130117,-100,4,2,202,60,0,0
130305,-100,4,2,216,60,0,0
130492,-100,4,2,1,60,0,0
130680,-100,4,2,217,60,0,0
130867,-100,4,2,24,60,0,0
131055,-100,4,2,218,60,0,0
131242,-100,4,2,219,60,0,0
131617,-100,4,2,220,60,0,0
131804,-100,4,2,221,60,0,0
132180,-100,4,2,222,60,0,0
132555,-100,4,2,24,60,0,0
132930,-100,4,2,223,60,0,0
133305,-100,4,2,194,60,0,0
133492,-100,4,2,195,60,0,0
133680,-100,4,2,196,60,0,0
134055,-100,4,2,197,60,0,0
134242,-100,4,2,198,60,0,0
134430,-100,4,2,224,60,0,0
134805,-100,4,2,200,60,0,0
135180,-100,4,2,225,60,0,0
135742,-100,4,2,215,60,0,0
135930,-100,4,2,226,60,0,0
136117,-100,4,2,202,60,0,0
136305,-100,4,2,227,60,0,0
136492,-100,4,2,1,60,0,0
136680,-100,4,2,228,60,0,0
137055,-100,4,2,229,60,0,0
137242,-100,4,2,230,60,0,0
137429,-100,4,2,231,60,0,0
137617,-100,4,2,218,60,0,0
137992,-100,4,2,24,60,0,0
138180,-100,4,2,232,60,0,0
139305,-100,4,2,195,60,0,0
139492,-100,4,2,235,60,0,0
139867,-100,4,2,237,60,0,0
140055,-100,4,2,238,60,0,0
140242,-100,4,2,239,60,0,0
140617,-100,4,2,240,60,0,0
140805,-133.333333333333,4,2,198,60,0,0
141180,-133.333333333333,4,2,241,45,0,0
156180,-153.846153846153,4,2,265,40,0,0
157679,-153.846153846153,4,2,266,40,0,0
159180,-153.846153846153,4,2,267,40,0,0
161430,-153.846153846153,4,2,268,40,0,0
161992,-153.846153846153,4,2,24,40,0,0
162180,-153.846153846153,4,2,269,40,0,0
162554,-153.846153846153,4,2,63,40,0,0
162742,-153.846153846153,4,2,270,40,0,0
162930,-153.846153846153,4,2,271,40,0,0
163117,-133.333333333333,4,2,270,40,0,0
163304,-133.333333333333,4,2,61,40,0,0
163492,-133.333333333333,4,2,272,40,0,0
163680,-133.333333333333,4,2,273,40,0,0
164055,-133.333333333333,4,2,61,40,0,0
164242,-133.333333333333,4,2,275,40,0,0
164805,-133.333333333333,4,2,63,40,0,0
164992,-133.333333333333,4,2,275,40,0,0
165180,-133.333333333333,4,2,276,45,0,0
166680,-133.333333333333,4,2,63,50,0,0
167055,-133.333333333333,4,2,3,55,0,0
167242,-133.333333333333,4,2,278,55,0,0
167430,-133.333333333333,4,2,1,60,0,0
167617,-133.333333333333,4,2,279,60,0,0
167805,-100,4,2,4,60,0,0
168180,-100,4,2,280,65,0,0
168555,-100,4,2,281,65,0,0
168930,-100,4,2,5,65,0,0
169305,-100,4,2,282,65,0,0
169492,-100,4,2,24,65,0,0
169680,-100,4,2,283,65,0,0
169867,-100,4,2,1,65,0,0
170055,-100,4,2,24,65,0,0
170430,-100,4,2,6,65,0,0
170617,-100,4,2,24,65,0,0
170805,-100,4,2,284,65,0,0
170992,-100,4,2,24,65,0,0
171180,-100,4,2,7,65,0,0
171930,-100,4,2,8,65,0,0
172305,-100,4,2,285,65,0,0
172586,-100,4,2,1,65,0,0
172680,-100,4,2,286,65,0,0
173055,-100,4,2,287,65,0,0
173242,-100,4,2,24,65,0,0
173429,-100,4,2,9,65,0,0
173617,-100,4,2,24,65,0,0
174180,-100,4,2,10,65,0,0
175305,-100,4,2,288,65,0,0
175492,-100,4,2,289,65,0,0
176055,-100,4,2,2,65,0,0
177180,-100,4,2,1,60,0,0
178305,-100,4,2,1,50,0,0
178679,-100,4,2,2,50,0,0
180170,375,4,2,2,50,1,0
189732,400,4,2,2,50,1,0
189932,387.096774193548,4,2,2,50,1,0
190319,409.276944065484,4,2,2,50,1,0
191055,-100,4,2,2,40,0,0
191137,375,4,2,2,35,1,0
191430,-100,4,2,2,40,0,0
191512,437.956204379562,4,2,2,35,1,0
191805,-100,4,2,2,40,0,0
191949,389.61038961039,4,2,2,35,1,0
192728,353.982300884956,4,2,2,35,1,0
192930,-100,4,2,2,40,0,0
193081,526.315789473684,4,2,2,35,1,0
193305,-100,4,2,2,40,0,0
193607,526.315789473684,4,2,2,35,1,0

[Colours]
Combo1 : 240,232,174
Combo2 : 135,146,152
Combo3 : 191,149,145

[HitObjects]
174,29,180,6,1,L|102:40,3,52.5000020027161,2|2|2|2,2:0|2:0|2:0|2:0,2:0:0:0:
256,1,930,6,1,P|262:34|253:69,1,62.9999980773926,2|2,2:0|2:0,2:0:0:0:
331,96,1305,2,1,P|311:123|280:141,1,62.9999980773926,2|2,2:0|2:0,2:0:0:0:
317,214,1680,2,1,P|284:220|248:211,1,62.9999980773926,2|2,2:0|2:0,2:0:0:0:
205,147,2055,1,2,2:0:0:0:
205,147,2242,1,2,2:0:0:0:
130,188,2430,2,1,L|139:257,1,62.9999980773926,2|2,2:0|2:0,2:0:0:0:
156,334,2805,1,2,2:0:0:0:
217,275,2992,1,2,2:0:0:0:
290,317,3180,6,1,L|279:385,3,62.9999980773926,2|2|2|2,2:0|2:0|2:0|2:0,2:0:0:0:
359,262,3930,6,1,P|330:239|277:233,1,70,2|2,2:0|2:0,2:0:0:0:
306,149,4305,2,1,P|269:153|227:186,1,70,2|2,2:0|2:0,2:0:0:0:
188,105,4680,2,1,P|164:133|159:187,1,70,2|2,2:0|2:0,2:0:0:0:
196,243,5055,1,2,2:0:0:0:
196,243,5242,1,2,2:0:0:0:
142,308,5430,2,1,L|67:290,1,70,2|2,2:0|2:0,2:0:0:0:
179,384,5805,1,2,2:0:0:0:
277,273,6180,6,1,L|352:255,1,70,2|2,2:0|2:0,2:0:0:0:
413,195,6555,1,2,2:0:0:0:
438,279,6742,1,2,2:0:0:0:
498,217,6930,6,1,P|509:190|499:135,1,70,2|2,2:0|2:0,2:0:0:0:
432,111,7305,2,1,P|420:84|374:52,1,70,2|2,2:0|2:0,2:0:0:0:
314,82,7680,2,1,P|287:71|231:81,1,70,2|2,2:0|2:0,2:0:0:0:
207,148,8055,1,2,2:0:0:0:
207,148,8242,1,2,2:0:0:0:
277,199,8430,2,1,L|352:209,1,62.9999980773926,2|2,2:0|2:0,2:0:0:0:
299,284,8805,2,1,L|224:294,1,62.9999980773926,2|2,2:0|2:0,2:0:0:0:
179,356,9180,5,2,2:0:0:0:
179,356,9367,1,2,2:0:0:0:
106,307,9555,1,2,2:0:0:0:
106,307,9742,1,2,2:0:0:0:
46,368,9930,1,2,2:0:0:0:
4,226,10305,6,1,P|91:161|166:365,1,398.999987823487,2|0,2:0|2:0,2:0:0:0:
174,359,12180,6,1,L|287:344,1,97.9999970092774,2|2,2:0|2:0,2:0:0:0:
351,379,12742,1,2,2:0:0:0:
351,379,12930,2,1,P|369:345|365:274,1,97.9999970092774,2|2,2:0|2:0,2:0:0:0:
310,226,13492,1,2,2:0:0:0:
242,266,13680,1,2,2:0:0:0:
242,266,15180,5,2,2:0:0:0:
242,266,15367,1,2,2:0:0:0:
185,200,15555,2,1,L|192:128,1,48.9999985046387,2|2,2:0|2:0,2:0:0:0:
263,116,15930,2,1,P|269:77|251:2,1,97.9999970092774,2|2,2:0|2:0,2:0:0:0:
259,19,18180,6,1,L|372:34,1,97.9999970092774,2|2,2:0|2:0,2:0:0:0:
436,3,18742,1,2,2:0:0:0:
436,3,18930,2,1,P|454:37|447:143,1,146.999995513916,2|2,2:0|2:0,2:0:0:0:
371,163,19680,1,2,2:0:0:0:
371,163,21180,5,2,2:0:0:0:
371,163,21367,1,2,2:0:0:0:
436,208,21555,2,1,L|495:219,1,48.9999985046387,2|2,2:0|2:0,2:0:0:0:
512,295,21930,2,1,P|429:364|375:160,1,419.999987182618,2|2,2:0|2:0,2:0:0:0:
387,59,24180,6,1,L|369:177,1,105.000004005432,2|2,2:0|2:0,2:0:0:0:
430,221,24742,1,2,2:0:0:0:
367,283,24930,1,2,2:0:0:0:
367,283,25117,1,2,2:0:0:0:
417,350,25305,2,1,P|480:342|519:299,1,105.000004005432,2|2,2:0|2:0,2:0:0:0:
509,315,27180,5,2,2:0:0:0:
509,315,27367,1,2,2:0:0:0:
438,265,27555,2,1,L|372:277,1,52.5000020027161,2|2,2:0|2:0,2:0:0:0:
342,340,27930,2,1,L|276:328,1,52.5000020027161,2|0,2:0|2:0,2:0:0:0:
215,355,28305,2,1,P|203:269|293:44,1,315.000012016297,2|2,2:0|2:0,2:0:0:0:
279,59,30180,6,1,L|285:127,1,52.5000020027161,2|2,2:0|2:0,2:0:0:0:
211,147,30555,2,1,P|159:145|111:104,1,105.000004005432,2|2,2:0|2:0,2:0:0:0:
53,69,31117,1,2,2:0:0:0:
0,130,31305,1,2,2:0:0:0:
0,130,31492,1,2,2:0:0:0:
64,178,31680,2,1,L|50:300,1,105.000004005432,2|2,2:0|2:0,2:0:0:0:
52,282,33180,6,1,P|79:284|105:301,1,52.5000020027161,2|2,2:0|2:0,2:0:0:0:
158,357,33555,1,2,2:0:0:0:
158,357,33742,1,2,2:0:0:0:
220,310,33930,2,1,L|233:181,1,105.000004005432,2|2,2:0|2:0,2:0:0:0:
248,19,34867,5,2,2:0:0:0:
298,84,35055,1,2,2:0:0:0:
369,40,35242,2,1,P|433:46|468:141,1,157.500006008148,2|2,2:0|2:0,2:0:0:0:
364,199,36180,6,1,L|244:182,1,105.000004005432,2|2,2:0|2:0,2:0:0:0:
185,215,36742,2,1,P|155:155|157:56,1,157.500006008148,2|2,2:0|2:0,2:0:0:0:
224,26,37492,2,1,P|235:57|225:97,1,52.5000020027161,2|2,2:0|2:0,2:0:0:0:
177,134,37867,2,1,L|20:109,1,157.500006008148,2|2,2:0|2:0,2:0:0:0:
21,109,39180,6,1,P|45:160|53:232,1,105.000004005432,2|2,2:0|2:0,2:0:0:0:
131,222,39742,2,1,P|112:275|68:332,1,105.000004005432,2|2,2:0|2:0,2:0:0:0:
15,352,40305,1,2,2:0:0:0:
182,376,40867,6,1,L|305:364,1,105.000004005432,2|2,2:0|2:0,2:0:0:0:
366,357,41430,1,2,2:0:0:0:
366,358,42180,6,1,P|405:310|373:205,1,157.500006008148,2|2,2:0|2:0,2:0:0:0:
311,197,42930,2,1,L|198:216,1,105.000004005432,2|2,2:0|2:0,2:0:0:0:
121,180,43492,6,1,P|93:133|119:63,1,119.000002269745,2|2,2:0|2:0,2:0:0:0:
180,29,44055,1,2,2:0:0:0:
180,29,44242,2,1,L|306:46,1,119.000002269745,2|2,2:0|2:0,2:0:0:0:
358,107,44805,2,1,L|431:95,1,59.5000011348725,2|2,2:0|2:0,2:0:0:0:
485,42,45180,6,1,P|449:83|506:377,1,386.750007376671,2|0,2:0|2:0,2:0:0:0:
256,192,46492,12,2,48180,2:0:0:0:
268,21,60180,6,1,L|255:111,1,83.9999974365235,2|2,3:2|2:0,2:0:0:0:
154,180,60930,2,1,L|163:234,1,41.9999987182618,2|0,2:0|2:0,2:0:0:0:
239,241,61305,2,1,L|248:295,1,41.9999987182618,2|2,2:0|2:0,2:0:0:0:
178,332,61680,6,1,P|132:332|83:305,1,83.9999974365235,10|2,2:0|2:0,2:0:0:0:
83,239,62242,1,2,2:0:0:0:
0,157,62617,2,1,P|19:102|48:74,1,83.9999974365235,2|2,2:0|2:0,2:0:0:0:
120,65,63180,6,1,P|169:81|254:95,1,125.999996154785,2|0,2:0|2:0,2:0:0:0:
303,149,63930,2,1,L|374:136,1,48.9999985046387,2|0,2:0|2:0,2:0:0:0:
399,74,64305,2,1,L|470:61,1,48.9999985046387,2|0,2:0|2:0,2:0:0:0:
505,138,64680,6,1,L|488:242,1,97.9999970092774,2|2,2:0|2:0,2:0:0:0:
411,257,65242,2,1,L|394:361,1,97.9999970092774,2|2,2:0|2:0,2:0:0:0:
243,335,66180,6,1,P|160:363|133:199,1,293.999991027832,2|2,2:0|2:0,2:0:0:0:
193,170,67492,6,1,P|216:131|214:61,1,97.9999970092774,2|2,2:0|2:0,2:0:0:0:
164,19,68055,1,2,2:0:0:0:
98,73,68242,2,1,L|-9:52,1,97.9999970092774,2|0,2:0|2:0,2:0:0:0:
122,206,69180,6,1,L|212:193,1,83.9999974365235,2|2,2:0|2:0,2:0:0:0:
316,262,69930,1,2,2:0:0:0:
316,262,70117,1,2,2:0:0:0:
388,226,70305,2,1,P|401:194|404:140,1,83.9999974365235,2|2,2:0|2:0,2:0:0:0:
251,11,71430,5,2,2:0:0:0:
390,206,72180,6,1,L|300:193,1,83.9999974365235,2|2,2:0|2:0,2:0:0:0:
196,262,72930,1,2,2:0:0:0:
196,262,73117,1,2,2:0:0:0:
124,226,73305,2,1,P|111:194|108:140,1,83.9999974365235,2|2,2:0|2:0,2:0:0:0:
251,11,74523,5,0,2:0:0:0:
256,192,74617,12,1,77805,2:0:0:0:
194,31,78180,6,1,P|185:83|188:142,1,112,2|2,1:2|2:0,2:0:0:0:
121,193,78742,1,2,2:0:0:0:
121,193,78930,2,1,L|40:181,1,56,2|2,2:0|2:0,2:0:0:0:
11,247,79305,1,2,1:2:0:0:
11,247,79492,1,2,2:0:0:0:
60,317,79680,2,1,L|176:298,1,112,2|0,2:0|2:0,2:0:0:0:
170,298,81180,5,2,1:2:0:0:
170,298,81367,1,2,2:0:0:0:
229,353,81555,2,1,P|256:365|298:367,1,56,2|2,2:0|2:0,2:0:0:0:
354,307,81930,2,1,P|316:281|244:276,1,112,2|2,2:0|1:2,2:0:0:0:
124,371,82680,5,8,2:0:0:0:
52,251,83055,1,0,2:0:0:0:
176,174,83430,1,2,2:0:0:0:
176,174,84180,6,1,L|155:304,1,112,2|2,1:2|2:0,2:0:0:0:
83,321,84742,1,2,2:0:0:0:
18,266,84930,2,1,L|32:190,1,56,2|2,2:0|2:0,2:0:0:0:
90,153,85305,1,2,1:2:0:0:
90,153,85492,1,2,2:0:0:0:
26,94,85680,1,2,2:0:0:0:
26,94,87180,5,2,1:2:0:0:
26,94,87367,1,2,2:0:0:0:
86,36,87555,2,1,L|155:47,1,56,2|2,2:0|2:0,2:0:0:0:
174,121,87930,2,1,L|243:110,1,56,2|2,2:0|2:0,2:0:0:0:
291,57,88305,1,2,1:2:0:0:
291,57,88492,1,0,2:0:0:0:
360,101,88680,1,8,2:0:0:0:
360,101,90180,6,1,P|329:143|333:210,1,112,2|2,1:2|2:0,2:0:0:0:
402,244,90742,1,2,2:0:0:0:
402,244,90930,2,1,L|459:237,1,56,2|2,2:0|2:0,2:0:0:0:
470,319,91305,2,1,L|414:325,1,56,2|2,1:2|2:0,2:0:0:0:
349,375,91680,6,1,P|299:363|264:327,1,94.499997116089,10|0,2:0|2:0,2:0:0:0:
243,342,92055,2,1,P|216:298|216:247,1,94.499997116089,2|0,2:0|2:0,2:0:0:0:
191,239,92430,2,1,P|180:187|225:120,1,125.999996154785,2|2,2:0|2:0,2:0:0:0:
291,29,93180,5,2,1:2:0:0:
291,29,93367,1,2,2:0:0:0:
211,0,93555,2,1,L|133:11,1,56,2|2,2:0|2:0,2:0:0:0:
116,80,93930,2,1,L|-4:60,1,112,2|2,2:0|1:2,2:0:0:0:
11,209,94680,6,1,P|65:204|89:167,1,84,10|0,2:0|2:0,2:0:0:0:
103,173,95055,2,1,P|153:173|198:227,1,112,2|2,2:0|2:0,2:0:0:0:
194,214,96180,5,2,1:2:0:0:
194,214,96367,1,2,2:0:0:0:
141,274,96555,2,1,L|149:345,1,56,2|2,2:0|2:0,2:0:0:0:
216,372,96930,5,2,2:0:0:0:
268,305,97117,1,2,2:0:0:0:
325,367,97305,2,1,L|389:375,1,56,2|2,1:2|2:0,2:0:0:0:
449,330,97680,1,10,2:0:0:0:
435,178,98055,5,2,2:0:0:0:
435,178,98242,2,1,L|452:50,2,112,2|2|2,2:0|2:0|2:0,2:0:0:0:
362,226,99180,5,2,1:2:0:0:
362,226,99367,1,2,2:0:0:0:
296,171,99555,1,2,2:0:0:0:
362,118,99742,2,1,P|331:74|215:60,1,168,2|0,2:0|2:0,2:0:0:0:
76,22,100680,6,1,L|9:34,1,56,10|0,2:0|2:0,2:0:0:0:
36,108,101055,2,1,L|91:98,1,56,2|0,1:2|2:0,2:0:0:0:
162,148,101430,1,2,2:0:0:0:
162,148,101617,1,2,1:2:0:0:
234,190,101805,1,2,2:0:0:0:
244,274,101992,1,2,2:0:0:0:
194,344,102180,5,2,2:0:0:0:
337,335,102555,1,2,2:0:0:0:
418,217,102930,1,2,2:0:0:0:
377,81,103305,1,2,2:0:0:0:
244,27,103680,1,2,2:0:0:0:
120,98,104055,1,2,2:0:0:0:
98,239,104430,1,2,2:0:0:0:
69,167,104617,1,2,2:0:0:0:
69,167,104805,2,1,L|9:179,1,56,2|2,2:0|2:0,2:0:0:0:
120,98,105180,5,2,2:0:0:0:
244,27,105555,1,2,2:0:0:0:
377,81,105930,1,2,2:0:0:0:
418,217,106305,1,2,2:0:0:0:
337,335,106680,1,2,2:0:0:0:
194,344,107055,1,2,2:0:0:0:
98,239,107430,1,2,2:0:0:0:
182,255,107617,1,2,2:0:0:0:
182,255,107805,2,1,L|252:266,1,56,2|2,2:0|2:0,2:0:0:0:
294,203,108180,6,1,P|294:142|193:57,2,195.999994018555,2|2|2,2:0|2:0|2:0,2:0:0:0:
396,278,110055,1,2,2:0:0:0:
396,278,110242,2,1,P|414:228|477:143,1,146.999995513916,2|2,2:0|2:0,2:0:0:0:
404,43,111180,6,1,P|278:43|271:194,1,293.999991027832,2|2,2:0|2:0,2:0:0:0:
285,306,112680,6,1,L|210:294,1,65.3333313395183,2|2,2:0|2:0,2:0:0:0:
150,231,113148,5,0,2:0:0:0:
64,326,113430,1,2,2:3:0:0:
256,192,113523,8,2,115305,2:0:0:0:
258,280,115680,6,1,P|255:325|257:368,1,73.4999977569581,2|0,2:0|2:0,2:0:0:0:
256,192,116242,12,1,119805,2:0:0:0:
232,370,120180,6,1,P|225:321|238:263,1,105,6|0,1:2|2:0,2:0:0:0:
258,256,120555,2,1,L|344:272,1,70,2|0,2:0|2:0,2:0:0:0:
410,231,120930,2,1,L|496:247,1,70,2|0,2:0|2:0,2:0:0:0:
512,158,121305,1,2,1:2:0:0:
446,84,121492,1,2,2:0:0:0:
372,140,121680,6,1,L|286:156,1,70,10|0,2:0|2:0,2:0:0:0:
205,69,122055,1,2,2:0:0:0:
289,71,122242,1,2,2:0:0:0:
213,152,122430,2,1,P|129:130|112:66,1,140,2|2,2:0|2:0,2:0:0:0:
268,215,123180,6,1,P|271:298|236:371,1,140,2|2,1:2|2:0,2:0:0:0:
175,383,123742,1,2,2:0:0:0:
138,298,123930,1,2,2:0:0:0:
88,384,124117,1,2,2:0:0:0:
34,313,124305,2,1,L|21:235,1,70,2|0,1:2|2:0,2:0:0:0:
0,150,124680,6,1,P|54:150|113:198,1,105,10|0,2:0|2:0,2:0:0:0:
106,202,125055,1,2,2:0:0:0:
192,155,125242,1,2,2:0:0:0:
256,227,125430,2,1,P|323:221|397:173,1,140,2|2,2:0|2:0,2:0:0:0:
395,91,125992,1,2,2:0:0:0:
487,149,126180,6,1,L|461:298,1,140,2|0,1:2|2:0,2:0:0:0:
505,361,126742,1,0,2:0:0:0:
409,370,126930,2,1,L|339:377,1,70,2|0,2:0|2:0,2:0:0:0:
285,315,127305,1,2,1:2:0:0:
341,248,127492,1,2,2:0:0:0:
262,181,127680,6,1,P|183:194|124:246,1,140,10|2,2:0|2:0,2:0:0:0:
51,197,128242,2,1,P|52:153|74:114,1,70,2|2,2:0|2:0,2:0:0:0:
152,106,128617,1,2,2:0:0:0:
152,106,128805,2,1,P|142:65|76:10,1,105,2|0,2:0|2:0,2:0:0:0:
82,16,129180,6,1,L|-8:34,1,70,2|0,1:2|2:0,2:0:0:0:
231,64,129742,2,1,L|377:92,1,140,2|2,1:2|2:0,2:0:0:0:
450,35,130305,1,2,1:2:0:0:
450,35,130492,1,0,2:0:0:0:
512,106,130680,6,1,P|517:141|510:180,1,70,10|2,2:0|2:0,2:0:0:0:
440,254,131055,1,2,2:0:0:0:
373,176,131242,2,1,L|273:187,1,70,2|0,2:0|2:0,2:0:0:0:
246,259,131617,2,1,L|146:270,1,70,2|2,2:0|2:0,2:0:0:0:
108,197,131992,1,0,2:0:0:0:
181,131,132180,1,6,1:2:0:0:
228,340,132555,6,1,L|339:352,1,105,2|0,2:0|2:0,2:0:0:0:
354,347,132930,2,1,P|384:303|370:222,1,140,2|2,2:0|1:2,2:0:0:0:
280,179,133492,1,2,2:0:0:0:
348,117,133680,2,1,L|431:140,1,70,10|0,2:0|2:0,2:0:0:0:
491,73,134055,1,2,2:0:0:0:
491,73,134242,1,2,2:0:0:0:
405,22,134430,2,1,L|234:40,1,140,2|2,2:0|2:0,2:0:0:0:
93,22,135180,6,1,P|156:44|206:177,1,210,2|2,1:2|2:0,2:0:0:0:
165,238,135930,2,1,L|85:219,1,70,2|2,2:0|2:0,2:0:0:0:
134,329,136305,2,1,L|214:310,1,70,2|0,1:2|2:0,2:0:0:0:
274,376,136680,6,1,P|292:324|291:251,1,105,10|0,2:0|2:0,2:0:0:0:
282,263,137055,1,2,2:0:0:0:
361,209,137242,2,1,L|435:232,1,70,2|2,2:0|2:0,2:0:0:0:
497,151,137617,2,1,P|479:99|474:-10,1,140,2|2,2:0|2:0,2:0:0:0:
383,10,138180,6,1,P|258:15|291:263,1,420,2|2,1:2|1:2,2:0:0:0:
318,322,139492,6,1,L|464:298,1,140,2|2,2:0|2:0,2:0:0:0:
488,218,140055,1,2,2:0:0:0:
431,151,140242,2,1,P|391:186|393:284,1,140,2|2,2:0|2:0,2:0:0:0:
318,322,140805,6,1,L|200:306,1,105.000004005432,2|2,2:0|2:0,2:0:0:0:
257,370,156180,6,1,P|236:287|-8:182,1,363.999983337403,2|2,2:0|2:0,2:0:0:0:
2,179,159180,6,1,P|128:168|284:134,1,272.999987503052,2|0,2:0|2:0,2:0:0:0:
271,137,161430,6,1,L|280:66,2,68.2499968757631,2|0|2,2:0|2:0|2:0,2:0:0:0:
342,180,162180,6,1,L|433:163,1,90.9999958343508,2|2,2:0|2:0,2:0:0:0:
499,214,162742,1,2,2:0:0:0:
499,214,162930,1,2,2:0:0:0:
446,276,163117,2,1,L|437:339,1,52.5000020027161,2|2,2:0|2:0,2:0:0:0:
372,371,163492,1,2,2:0:0:0:
298,332,163680,6,1,L|173:350,1,105.000004005432,2|2,2:0|2:0,2:0:0:0:
130,294,164242,2,1,L|5:312,1,105.000004005432,2|2,2:0|2:0,2:0:0:0:
11,229,164805,1,2,2:0:0:0:
74,178,164992,1,2,2:0:0:0:
161,178,165180,1,2,2:0:0:0:
256,192,165273,12,10,166680,2:0:0:0:
230,349,167055,5,10,2:3:0:0:
215,268,167242,1,10,2:0:0:0:
296,254,167430,1,8,2:3:0:0:
310,334,167617,1,10,2:0:0:0:
232,351,167805,2,1,L|90:328,1,140,6|2,2:3|1:2,2:0:0:0:
297,253,168555,6,1,L|388:274,1,70,2|0,2:0|2:0,2:0:0:0:
442,229,168930,2,1,P|457:180|441:126,1,105,2|0,2:3|2:0,2:0:0:0:
426,122,169305,1,2,1:2:0:0:
346,159,169492,1,2,2:0:0:0:
277,114,169680,2,1,L|293:13,1,70,10|0,1:2|2:0,2:0:0:0:
210,3,170055,1,2,2:0:0:0:
210,3,170242,1,2,2:0:0:0:
130,48,170430,2,1,L|142:134,1,70,2|2,2:3|2:0,2:0:0:0:
206,165,170805,2,1,L|194:251,1,70,2|2,1:2|2:0,2:0:0:0:
143,305,171180,6,1,P|206:265|430:254,1,280,2|2,1:3|2:3,2:0:0:0:
479,126,172305,2,1,P|502:94|477:25,1,105,2|0,1:2|2:0,2:0:0:0:
475,22,172680,6,1,L|319:45,1,140,10|2,1:2|2:0,2:0:0:0:
311,129,173242,2,1,L|220:113,1,70,2|2,2:0|2:3,2:0:0:0:
190,49,173617,2,1,P|119:47|65:94,1,140,2|2,1:2|2:0,2:0:0:0:
11,176,174180,2,1,P|82:167|362:360,1,420,2|2,1:3|1:2,2:0:0:0:
459,347,175492,6,1,P|483:297|481:193,1,140,2|0,2:0|2:0,2:0:0:0:
456,132,176055,1,10,2:3:0:0:
378,173,176242,6,1,B|334:133|367:70|424:39|284:-8|257:7|222:1|180:52|180:76|183:109|183:109|148:103|83:66|22:208|91:329|155:371|300:303|234:212|328:212|389:250|400:320|373:358,1,910,10|0,2:3|2:0,2:0:0:0:
256,192,190319,12,1,199396,2:0:0:0:
