osu file format v14

[General]
AudioFilename: audio.mp3
AudioLeadIn: 0
PreviewTime: 54485
Countdown: 0
SampleSet: Soft
StackLeniency: 0.7
Mode: 0
LetterboxInBreaks: 0
WidescreenStoryboard: 1

[Editor]
DistanceSpacing: 0.1
BeatDivisor: 4
GridSize: 32
TimelineZoom: 1.499999

[Metadata]
Title:Fantasy Note
TitleUnicode:Fantasy Note
Artist:HOYO-MiX
ArtistUnicode:HOYO-MiX
Creator:Esutarosa
Version:Hard
Source:崩坏3
Tags:erisu lanzhu moph Pepekcz Nymphe keevy Soraka l1ght_u light_u -Hitomi hi3 hi third 3rd alive fallen rosemary rita rossweise ost video game videogame instrumental mihoyo original soundtrack asuna 文驰 wen chi 崩壞3 Honkai Impact hoyoverse mihoyo classical folk electronic mayuzumi fuyuko kiyoshi guarden kang sae-byeok
BeatmapID:3547324
BeatmapSetID:1734712

[Difficulty]
HPDrainRate:4.5
CircleSize:3.8
OverallDifficulty:7
ApproachRate:7
SliderMultiplier:1.44
SliderTickRate:1

[Events]
//Background and Video events
0,0,"mommy.jpg",0,0
//Break Periods
2,26722,32284
//Storyboard Layer 0 (Background)
//Storyboard Layer 1 (Fail)
//Storyboard Layer 2 (Pass)
//Storyboard Layer 3 (Foreground)
//Storyboard Layer 4 (Overlay)
//Storyboard Sound Samples

[TimingPoints]
867,845.070422535211,4,2,10,35,1,0
867,-135.135135135135,4,2,10,35,0,0
1606,-135.135135135135,4,2,10,20,0,0
1712,-135.135135135135,4,2,11,40,0,0
3402,882.352941176471,4,2,68,20,1,0
4284,895.522388059701,4,2,13,40,1,0
4284,-135.135135135135,4,2,13,40,0,0
4507,-135.135135135135,4,2,14,43,0,0
4731,-135.135135135135,4,2,35,45,0,0
5179,-135.135135135135,4,2,35,47,0,0
6075,-135.135135135135,4,2,68,20,0,0
6970,652.173913043479,4,2,68,20,1,0
7623,937.5,4,2,16,40,1,0
7623,-135.135135135135,4,2,16,40,0,0
7935,769.230769230769,4,2,17,40,1,0
7935,-135.135135135135,4,2,17,40,0,0
8191,769.230769230769,4,2,18,40,1,0
8191,-135.135135135135,4,2,18,40,0,0
8447,845.070422535211,4,2,19,40,1,0
8447,-135.135135135135,4,2,19,40,0,0
9151,-135.135135135135,4,2,19,5,0,0
9292,754.716981132075,4,2,36,40,1,0
9292,-119.047619047619,4,2,36,40,0,0
9543,-119.047619047619,4,2,16,40,0,0
9795,-119.047619047619,4,2,17,40,0,0
10046,805.369127516779,4,2,18,40,1,0
10717,-100,4,2,1,5,0,0
10851,784.313725490196,4,2,37,40,1,0
10851,-119.047619047619,4,2,37,40,0,0
11112,-119.047619047619,4,2,36,40,0,0
11373,-119.047619047619,4,2,16,40,0,0
11635,1100.91743119266,4,2,17,40,1,0
12735,1276.59574468085,4,2,1,20,1,0
13054,731.70731707317,4,2,1,26,1,0
13236,833.333333333332,4,2,1,30,1,0
13444,571.428571428571,4,2,1,35,1,0
13586,714.285714285714,4,2,1,40,1,0
13764,500,4,2,1,43,1,0
14014,300,4,2,1,45,1,0
14089,375,4,2,1,47,1,0
14182,300,4,2,1,49,1,0
14257,500,4,2,1,51,1,0
14382,272.727272727273,4,2,1,45,1,0
14450,333.333333333334,4,2,1,45,1,0
14533,352.941176470589,4,2,1,45,1,0
14621,387.096774193549,4,2,1,45,1,0
14717,681.818181818184,4,2,1,45,1,0
14887,530.973451327435,4,2,1,45,1,0
15019,342.857142857143,4,2,1,45,1,0
15104,285.714285714286,4,2,77,45,1,0
15175,480.000000000001,4,2,69,40,1,0
15295,631.578947368421,4,2,69,40,1,0
15505,833.333333333333,4,2,69,40,1,0
15643,652.173913043478,4,2,69,40,1,0
15751,560.747663551402,4,2,69,40,1,0
15937,681.818181818182,4,2,69,40,1,0
16051,813.559322033898,4,2,69,40,1,0
16254,-100,4,2,68,40,0,0
16880,428.571428571429,4,2,2,50,1,0
16880,-96.1538461538461,4,2,2,50,0,0
19665,-96.1538461538461,4,2,68,50,0,0
19880,-96.1538461538461,4,2,69,50,0,0
20201,-96.1538461538461,4,2,69,50,0,0
20308,-96.1538461538461,4,2,2,50,0,0
21594,-96.1538461538461,4,2,1,50,0,0
21915,-96.1538461538461,4,2,2,50,0,0
23308,-96.1538461538461,4,2,1,50,0,0
23737,-96.1538461538461,4,2,2,50,0,0
24165,-96.1538461538461,4,2,2,55,0,0
24594,-96.1538461538461,4,2,2,60,0,0
25022,-96.1538461538461,4,2,2,65,0,0
25437,857.142857142857,4,2,2,60,1,0
26722,869.565217391304,4,2,69,40,1,0
27048,-100,4,2,68,40,0,0
27168,869.565217391304,4,2,68,40,1,0
27747,1111.11111111111,4,2,68,40,1,0
28119,1034.48275862069,4,2,68,40,1,0
28377,983.60655737705,4,2,68,40,1,0
28662,983.60655737705,4,2,68,40,1,0
28868,1034.48275862069,4,2,68,40,1,0
29126,1132.07547169811,4,2,68,40,1,0
29409,1250,4,2,68,40,1,0
29721,952.380952380953,4,2,68,40,1,0
30038,983.60655737705,4,2,68,40,1,0
30365,659.34065934066,4,2,68,40,1,0
30584,722.891566265061,4,2,2,40,1,0
31306,666.666666666667,4,2,68,40,1,0
31639,517.241379310345,4,2,68,40,1,0
32285,437.956204379563,4,2,68,40,1,0
33184,854.092526690391,4,2,69,50,1,0
33184,-106.382978723404,4,2,69,50,0,0
33469,789.473684210527,4,2,69,50,1,0
33732,821.917808219178,4,2,69,50,1,0
34013,428.571428571429,4,2,1,60,1,0
34013,-96.1538461538461,4,2,1,60,0,0
34870,-96.1538461538461,4,2,3,60,0,0
34977,-96.1538461538461,4,2,1,60,0,0
36584,-96.1538461538461,4,2,3,60,0,0
36691,-96.1538461538461,4,2,1,60,0,0
38298,-96.1538461538461,4,2,3,60,0,0
38405,-96.1538461538461,4,2,1,60,0,0
39155,441.176470588236,4,2,1,60,1,0
39927,400.000000000001,4,2,1,60,1,0
40026,441.176470588236,4,2,1,60,1,0
40113,428.571428571429,4,2,1,60,1,0
40220,428.571428571429,4,2,1,60,1,0
40362,422.535211267606,4,2,1,60,1,0
40784,422.535211267606,4,2,1,60,1,0
40884,428.571428571429,4,2,1,60,1,0
40884,-119.047619047619,4,2,1,60,0,0
41312,-119.047619047619,4,2,1,45,0,0
42169,-119.047619047619,4,2,68,45,0,0
42384,-119.047619047619,4,2,1,45,0,0
42598,-119.047619047619,4,2,68,45,0,0
43026,-119.047619047619,4,2,1,45,0,0
43776,-119.047619047619,4,2,68,45,0,0
43884,-119.047619047619,4,2,1,45,0,0
44098,-119.047619047619,4,2,68,45,0,0
44205,-119.047619047619,4,2,1,45,0,0
44312,-119.047619047619,4,2,68,45,0,0
44741,-119.047619047619,4,2,1,45,0,0
45598,-119.047619047619,4,2,68,45,0,0
45919,-119.047619047619,4,2,68,5,0,0
46026,-119.047619047619,4,2,69,45,0,0
46080,-119.047619047619,4,2,1,45,0,0
47735,428.571428571429,4,2,2,50,1,0
47735,-96.1538461538461,4,2,2,50,0,0
52877,-96.1538461538461,4,2,1,40,0,0
53735,-96.1538461538461,4,2,2,45,0,0
54485,-96.1538461538461,4,2,1,50,0,0
54592,-80.6451612903226,4,2,3,70,0,1
54806,-80.6451612903226,4,2,1,70,0,1
66592,-80.6451612903226,4,2,87,70,0,1
66967,-80.6451612903226,4,2,70,70,0,1
67449,-80.6451612903226,4,2,1,70,0,1
67663,-80.6451612903226,4,2,2,70,0,1
67877,-80.6451612903226,4,2,1,70,0,1
68306,-80.6451612903226,4,2,98,70,0,1
68520,-80.6451612903226,4,2,1,70,0,1
71627,-80.6451612903226,4,2,1,70,0,1
71735,-80.6451612903226,4,2,1,70,0,1
75056,-80.6451612903226,4,2,1,70,0,1
75163,-80.6451612903226,4,2,1,70,0,1
76877,-80.6451612903226,4,2,47,70,0,0
77199,-80.6451612903226,4,2,1,70,0,0
77735,-185.185185185185,4,2,1,70,0,0
78270,-185.185185185185,4,2,2,70,0,0
78377,-185.185185185185,4,2,1,70,0,0
78485,-185.185185185185,4,2,2,70,0,0
78592,-80.6451612903225,4,2,57,70,0,1
78806,-80.6451612903225,4,2,1,70,0,1
79020,-80.6451612903225,4,2,20,70,0,1
79449,-80.6451612903225,4,2,1,70,0,1
79770,-80.6451612903225,4,2,1,70,0,1
79877,-80.6451612903225,4,2,38,70,0,1
80413,-80.6451612903225,4,2,38,70,0,1
80520,-80.6451612903225,4,2,1,70,0,1
80735,-80.6451612903225,4,2,22,70,0,1
81163,-80.6451612903225,4,2,39,70,0,1
82020,-80.6451612903225,4,2,1,70,0,1
82663,-80.6451612903225,4,2,40,70,0,1
83306,-80.6451612903225,4,2,2,70,0,1
84592,-80.6451612903225,4,2,1,70,0,1
85449,-80.6451612903225,4,2,98,70,0,1
85663,-80.6451612903225,4,2,1,70,0,1
87592,-80.6451612903225,4,2,29,70,0,1
87806,-80.6451612903225,4,2,1,70,0,1
88020,-80.6451612903225,4,2,25,70,0,1
88449,-80.6451612903225,4,2,1,70,0,1
90592,-80.6451612903225,4,2,26,70,0,1
90806,-80.6451612903225,4,2,1,70,0,1
91449,-80.6451612903225,4,2,28,70,0,1
91663,-80.6451612903225,4,2,1,70,0,1
91877,-80.6451612903225,4,2,27,70,0,1
92092,-80.6451612903225,4,2,1,70,0,1
92306,-119.047619047619,4,2,1,70,0,0
92520,-119.047619047619,4,2,68,60,0,0
93163,-185.185185185185,4,2,68,60,0,0
93913,-185.185185185185,4,2,68,40,0,0
94020,-294.117647058823,4,2,68,40,0,0
97663,-333.333333333333,4,2,68,40,0,0
101735,-333.333333333333,4,2,2,20,0,0

[Colours]
Combo1 : 128,128,255
Combo2 : 255,128,128

[HitObjects]
86,264,867,6,0,P|134:266|181:232,1,106.560002601563,2|2,0:0|0:0,0:0:0:0:
345,66,4284,6,0,L|349:92,2,26.6400006503906,2|2|2,0:0|0:0|0:0,0:0:0:0:
421,113,5179,6,0,P|369:113|327:144,2,106.560002601563,2|2|2,0:0|0:0|0:0,0:0:0:0:
192,36,7623,5,2,0:0:0:0:
141,97,7935,2,0,L|152:143,2,35.5200008671875,2|2|2,0:0|0:0|0:0,0:0:0:0:
355,254,9292,6,0,P|374:252|394:246,2,40.3199987695313,2|2|2,0:0|0:0|0:0,0:0:0:0:
299,311,10046,1,2,0:0:0:0:
152,194,10851,6,0,P|132:191|112:185,2,40.3199987695313,2|2|2,0:0|0:0|0:0,0:0:0:0:
208,250,11635,1,2,0:0:0:0:
256,192,11818,12,2,16051,3:2:0:0:
428,22,16880,6,0,P|355:23|315:83,1,149.759999085937,12|8,1:3|3:3,0:0:0:0:
254,126,17522,1,8,0:3:0:0:
313,171,17737,2,0,P|328:204|334:241,1,74.8799995429687,8|0,3:3|0:0,0:0:0:0:
373,305,18165,2,0,P|404:323|441:320,1,74.8799995429687,0|0,3:0|3:0,0:0:0:0:
287,313,18594,6,0,P|222:350|148:353,1,149.759999085937,8|0,0:3|3:0,0:0:0:0:
80,384,19237,1,8,3:3:0:0:
20,338,19451,2,0,P|3:305|9:268,1,74.8799995429687,8|2,3:3|0:0,0:0:0:0:
63,215,19880,2,0,B|100:224|100:224|125:246|125:246|164:256,1,112.319999314453,2|0,0:0|0:0,0:0:0:0:
198,268,20308,6,0,P|241:208|223:138,1,149.759999085937,12|0,1:3|3:0,0:0:0:0:
152,113,20951,1,8,3:0:0:0:
190,48,21165,2,0,P|222:30|259:28,1,74.8799995429687,8|0,3:3|3:0,0:0:0:0:
328,0,21594,2,0,P|359:19|374:53,1,74.8799995429687,2|2,3:2|3:2,0:0:0:0:
426,106,22022,6,0,P|384:167|365:239,1,149.759999085937,12|0,1:3|3:0,0:0:0:0:
416,295,22665,1,8,3:0:0:0:
368,354,22880,2,0,P|336:372|299:375,1,74.8799995429687,8|0,3:0|3:0,0:0:0:0:
231,341,23308,2,0,P|216:308|225:273,1,74.8799995429687,2|2,3:2|3:2,0:0:0:0:
285,229,23737,5,8,3:0:0:0:
252,161,23951,1,8,3:0:0:0:
308,112,24165,5,8,3:0:0:0:
337,42,24380,1,8,3:0:0:0:
271,6,24594,5,8,3:0:0:0:
206,43,24808,1,8,3:0:0:0:
169,129,25022,5,8,3:0:0:0:
80,107,25237,1,8,3:0:0:0:
67,23,25437,1,12,1:3:0:0:
489,193,33184,6,0,L|444:203,1,45.3599986157227,2|2,0:0|0:0,0:0:0:0:
480,273,33732,1,2,0:0:0:0:
424,326,34013,2,0,B|362:336|392:355|321:367,1,112.319999314453,4|2,1:0|3:2,0:0:0:0:
286,379,34441,1,2,3:2:0:0:
239,320,34655,2,0,L|255:277,2,37.4399997714844,2|2|12,1:2|1:2|0:0,0:0:0:0:
352,221,35298,1,8,0:0:0:0:
215,159,35727,6,0,P|197:107|229:63,1,112.319999314453,2|2,1:2|3:2,0:0:0:0:
245,29,36155,1,2,3:2:0:0:
304,74,36370,2,0,L|347:90,2,37.4399997714844,2|2|12,1:2|1:2|0:0,0:0:0:0:
163,20,37013,1,8,1:2:0:0:
55,123,37441,6,0,P|85:170|137:190,1,112.319999314453,2|2,1:2|3:2,0:0:0:0:
172,177,37870,1,2,3:2:0:0:
223,230,38084,2,0,L|208:273,2,37.4399997714844,2|2|12,1:2|1:2|0:0,0:0:0:0:
351,152,38727,1,10,1:2:0:0:
403,204,38941,1,10,0:2:0:0:
412,209,39048,1,10,0:2:0:0:
421,213,39155,1,4,1:0:0:0:
0,93,40884,5,6,3:2:0:0:
83,180,41312,2,0,L|75:209,4,30.2399990771485,2|2|2|2|2,0:0|0:0|0:0|0:0|3:2,0:0:0:0:
177,104,42169,5,2,0:0:0:0:
177,104,42384,1,2,0:0:0:0:
243,63,42598,5,2,0:0:0:0:
327,149,43026,2,0,L|319:178,4,30.2399990771485,2|2|2|2|2,2:0|2:0|2:0|2:0|3:2,0:0:0:0:
423,75,43884,5,2,3:2:0:0:
423,75,44098,1,2,0:0:0:0:
465,143,44312,5,2,0:0:0:0:
381,229,44740,2,0,L|388:258,4,30.2399990771485,2|2|2|2|2,0:0|0:0|0:0|0:0|3:2,0:0:0:0:
286,333,45598,6,0,B|335:341|311:356|368:365,1,90.7199972314454,2|0,0:0|0:0,0:0:0:0:
398,373,46026,1,2,0:0:0:0:
217,246,46669,6,0,L|224:275,2,30.2399990771485,2|2|2,3:2|3:2|3:2,0:0:0:0:
104,291,47312,5,2,0:0:0:0:
2,384,47735,6,0,P|61:342|71:270,1,149.759999085937,12|0,1:3|3:0,0:0:0:0:
21,220,48377,1,8,3:0:0:0:
21,220,48592,1,8,3:0:0:0:
116,105,49020,6,0,L|189:121,1,74.8799995429687,8|0,3:0|3:0,0:0:0:0:
225,132,49342,1,0,3:0:0:0:
225,132,49449,2,0,B|296:120|266:101|328:91,1,112.319999314453,12|0,3:0|3:0,0:0:0:0:
364,86,49877,1,0,3:0:0:0:
418,153,50092,6,0,L|397:225,1,74.8799995429687,8|8,3:0|3:0,0:0:0:0:
482,76,50735,2,0,P|462:26|412:3,1,112.319999314453,8|0,3:0|3:0,0:0:0:0:
375,6,51163,1,12,3:0:0:0:
276,59,51485,1,0,3:0:0:0:
169,23,51806,5,8,3:0:0:0:
169,23,51913,1,0,3:0:0:0:
169,22,52020,2,0,L|191:171,1,149.759999085937,8|8,3:0|3:0,0:0:0:0:
254,210,52663,1,0,3:0:0:0:
208,269,52878,1,2,3:2:0:0:
193,274,52985,1,2,3:2:0:0:
178,279,53092,1,2,3:2:0:0:
163,284,53199,6,0,L|125:272,2,37.4399997714844,2|2|2,3:2|3:2|3:2,0:0:0:0:
200,355,53520,2,0,L|235:343,2,37.4399997714844,2|2|4,3:2|3:2|3:2,0:0:0:0:
434,104,54592,6,0,B|400:104|357:50|357:50|352:48|352:48|386:84|374:143,1,178.559992916016,12|0,0:1|0:0,0:0:0:0:
293,114,55235,1,2,1:2:0:0:
293,114,55342,1,2,0:2:0:0:
293,114,55449,2,0,L|205:95,1,89.279996458008,10|0,0:2|0:0,0:0:0:0:
125,135,55877,2,0,P|84:151|67:191,1,89.279996458008,2|0,1:2|0:0,0:0:0:0:
108,271,56306,6,0,B|167:256|187:312|175:302|192:353|256:343,1,178.559992916016,2|2,1:2|0:2,0:0:0:0:
340,373,56949,1,2,1:2:0:0:
410,324,57163,2,0,L|433:237,1,89.279996458008,10|0,0:2|0:0,0:0:0:0:
357,189,57592,2,0,L|334:276,1,89.279996458008,2|2,1:2|3:2,0:0:0:0:
244,266,58020,6,0,P|206:188|232:105,1,178.559992916016,2|2,1:2|0:2,0:0:0:0:
225,24,58663,1,2,1:2:0:0:
225,24,58770,1,2,1:2:0:0:
225,24,58877,2,0,L|312:40,1,89.279996458008,10|0,0:2|0:0,0:0:0:0:
389,87,59306,2,0,P|424:111|431:154,1,89.279996458008,2|0,1:2|0:0,0:0:0:0:
470,235,59735,6,0,P|382:248|301:285,1,178.559992916016,2|2,1:2|1:2,0:0:0:0:
261,305,60270,1,2,1:2:0:0:
247,304,60377,1,2,1:2:0:0:
234,299,60485,1,2,1:2:0:0:
225,289,60592,6,0,P|226:229|248:191,1,89.279996458008,10|10,0:2|0:2,0:0:0:0:
274,178,60913,1,2,0:2:0:0:
283,134,61020,2,0,P|271:92|232:72,1,89.279996458008,10|8,0:2|0:0,0:0:0:0:
172,6,61449,6,0,P|110:31|43:32,1,133.919994687012,4|2,1:1|0:0,0:0:0:0:
15,66,61877,1,0,0:0:0:0:
11,162,62092,1,2,1:2:0:0:
11,162,62199,1,0,0:0:0:0:
11,162,62306,2,0,L|46:313,1,133.919994687012,8|2,0:0|0:0,0:0:0:0:
55,335,62735,1,2,1:2:0:0:
136,370,62949,1,2,0:0:0:0:
206,314,63163,6,0,L|175:183,1,133.919994687012,2|2,1:2|0:0,0:0:0:0:
162,141,63592,1,0,0:0:0:0:
219,73,63806,1,2,1:2:0:0:
292,123,64020,2,0,B|318:147|318:147|352:95|415:88,1,133.919994687012,8|2,0:0|0:0,0:0:0:0:
441,86,64449,1,2,1:2:0:0:
500,152,64663,1,2,0:0:0:0:
491,240,64877,6,0,L|456:268,3,44.639998229004,2|2|2|2,1:2|0:0|0:0|0:0,0:0:0:0:
414,209,65306,2,0,L|379:237,3,44.639998229004,0|0|2|0,3:0|3:0|1:2|3:0,0:0:0:0:
399,324,65735,2,0,L|364:352,3,44.639998229004,8|0|0|0,0:0|0:0|0:0|0:0,0:0:0:0:
322,293,66164,2,0,L|287:321,3,44.639998229004,0|0|0|0,1:0|0:0|0:0|0:0,0:0:0:0:
295,207,66592,5,4,1:2:0:0:
53,142,67020,5,8,0:0:0:0:
86,59,67235,1,10,0:2:0:0:
174,60,67449,2,0,L|221:44,3,44.639998229004,2|2|0|0,0:2|0:2|3:0|3:0,0:0:0:0:
167,79,67877,5,2,3:2:0:0:
134,162,68092,1,2,0:2:0:0:
193,226,68306,2,0,P|258:217|292:162,1,133.919994687012,4|0,1:2|1:0,0:0:0:0:
272,122,68735,1,8,0:0:0:0:
324,50,68949,2,0,P|361:28|405:35,1,89.279996458008,2|2,1:2|3:2,0:0:0:0:
486,72,69377,1,0,1:0:0:0:
443,150,69592,2,0,L|417:239,1,89.279996458008,10|2,0:0|1:2,0:0:0:0:
455,316,70020,6,0,B|409:304|393:347|402:340|389:379|339:372,1,133.919994687012,2|0,1:2|1:0,0:0:0:0:
301,358,70449,1,10,0:0:0:0:
231,300,70663,2,0,P|194:323|150:329,1,89.279996458008,0|2,1:0|3:2,0:0:0:0:
70,369,71092,1,2,0:0:0:0:
9,303,71306,2,0,B|23:244|23:244|29:238|29:238|46:172,1,133.919994687012,8|2,0:0|0:0,0:0:0:0:
62,133,71735,6,0,P|126:128|172:174,1,133.919994687012,4|0,1:0|1:0,0:0:0:0:
166,219,72163,1,8,0:0:0:0:
205,299,72377,2,0,P|242:322|286:320,1,89.279996458008,2|2,1:2|3:2,0:0:0:0:
365,361,72806,1,2,0:0:0:0:
416,287,73020,2,0,P|396:223|380:157,1,133.919994687012,10|0,0:2|0:0,0:0:0:0:
376,140,73449,5,2,1:2:0:0:
370,122,73556,1,2,0:2:0:0:
364,104,73663,2,0,L|380:62,3,44.639998229004,2|2|10|2,0:2|1:2|0:2|0:2,0:0:0:0:
361,21,74092,1,2,1:2:0:0:
271,34,74306,2,0,P|234:58|191:67,1,89.279996458008,10|2,0:2|1:2,0:0:0:0:
132,135,74735,2,0,P|109:195|141:251,1,133.919994687012,10|2,0:2|0:2,0:0:0:0:
181,272,75163,5,4,1:0:0:0:
263,239,75377,1,2,1:2:0:0:
335,291,75592,5,2,1:2:0:0:
417,324,75806,1,2,1:2:0:0:
493,278,76020,6,0,L|512:237,3,44.639998229004,2|2|2|2,1:2|1:2|1:2|1:2,0:0:0:0:
445,203,76449,2,0,L|426:244,3,44.639998229004,2|2|2|2,1:2|1:2|1:2|1:2,0:0:0:0:
369,187,76877,5,8,0:2:0:0:
244,136,77199,5,2,0:0:0:0:
130,207,77520,5,2,0:0:0:0:
115,295,77735,6,0,B|142:256|107:226|111:237|78:211|103:167,1,136.080003322266,2|0,0:0|3:0,0:0:0:0:
92,127,78592,2,0,B|98:57|36:47|36:47|74:64|81:98,1,178.559992916016,4|2,1:2|0:0,0:0:0:0:
220,243,79449,6,0,P|285:251|332:206,1,133.919994687012,8|0,0:0|0:0,0:0:0:0:
366,179,79877,2,0,B|315:107|315:107|383:56|383:56|426:115,1,223.19999114502,6|0,1:2|0:0,0:0:0:0:
438,132,80520,1,0,1:0:0:0:
438,132,80627,1,0,1:0:0:0:
501,250,80949,1,0,1:0:0:0:
501,250,81056,1,0,1:0:0:0:
501,250,81163,2,0,L|403:311,1,89.279996458008,10|0,0:0|0:0,0:0:0:0:
422,342,81485,2,0,B|378:356|378:356|337:342,1,89.279996458008
295,326,81806,1,0,0:0:0:0:
249,249,82020,6,0,B|192:265|192:265|147:306|147:306|91:321,1,178.559992916016,4|8,1:0|0:0,0:0:0:0:
38,249,82663,2,0,B|94:232|94:232|139:191|139:191|195:176,1,178.559992916016,6|0,1:2|0:0,0:0:0:0:
275,134,83306,2,0,B|281:99|281:99|294:77|294:77|299:49,1,89.279996458008,0|0,3:0|3:0,0:0:0:0:
347,153,83735,2,0,B|352:125|352:125|365:102|365:102|371:68,1,89.279996458008,0|0,3:0|3:0,0:0:0:0:
418,175,84163,2,0,B|423:147|423:147|436:124|436:124|442:90,1,89.279996458008,0|0,3:0|3:0,0:0:0:0:
494,176,84592,5,4,1:0:0:0:
452,255,84806,1,2,3:2:0:0:
452,255,84913,1,2,3:2:0:0:
452,255,85020,2,0,L|464:315,3,44.639998229004,2|2|2|2,0:0|0:0|0:0|0:0,0:0:0:0:
439,338,85449,6,0,B|392:360|392:360|354:348|354:348|344:323|344:323|277:302,1,178.559992916016,4|0,1:2|0:0,0:0:0:0:
199,324,86092,1,0,1:0:0:0:
132,265,86306,2,0,B|116:219|116:219|107:216|107:216|162:162|162:162|169:162|169:162|154:124,1,178.559992916016,8|2,0:0|1:2,0:0:0:0:
77,85,86949,1,0,0:0:0:0:
138,20,87163,1,2,0:0:0:0:
212,69,87377,1,0,1:0:0:0:
277,129,87592,6,0,B|260:169|260:169|265:166|265:166|249:203,1,89.279996458008,10|0,0:0|1:0,0:0:0:0:
278,287,88020,2,0,B|291:334|334:346|334:346|336:350|336:350|341:348|341:348|390:350|423:306,1,178.559992916016,10|2,0:0|3:2,0:0:0:0:
488,265,88663,1,0,1:0:0:0:
410,220,88877,6,0,B|401:200|401:200|398:177,3,44.639998229004,2|2|2|2,1:2|0:2|0:2|0:2,0:0:0:0:
475,170,89306,2,0,B|472:147|472:147|463:127,3,44.639998229004,2|0|0|0,1:2|3:0|3:0|3:0,0:0:0:0:
385,103,89735,2,0,B|376:83|376:83|373:60,3,44.639998229004,0|0|0|0,1:0|0:0|0:0|0:0,0:0:0:0:
450,53,90164,2,0,B|447:30|447:30|438:10,3,44.639998229004,0|0|0|0,1:0|0:0|0:0|0:0,0:0:0:0:
463,127,90592,6,0,B|447:183|391:191|391:191|298:167,1,178.559992916016,2|0,1:2|3:0,0:0:0:0:
261,102,91235,1,0,1:0:0:0:
193,160,91449,2,0,B|129:219|129:219|155:252|182:293,1,178.559992916016,14|6,0:0|1:2,0:0:0:0:
284,358,92306,6,0,P|312:346|341:342,2,60.4799981542969,0|2|2,3:0|0:0|0:0,0:0:0:0:
220,320,92949,1,2,0:0:0:0:
209,241,93163,2,0,P|258:197|325:185,1,136.080003322266,2|2,0:0|0:0,0:0:0:0:
347,195,94020,6,0,P|392:203|449:84,1,195.840001195313,2|0,0:0|0:0,0:0:0:0:
342,25,96592,6,0,L|294:36,1,48.9600002988281,2|2,0:0|0:0,0:0:0:0:
238,95,97449,1,2,0:0:0:0:
238,95,97663,6,0,B|196:120|149:105|168:89|116:76|64:101|64:101|110:101|152:135|166:209|96:255|49:213,1,410.399987475586,2|6,0:0|0:0,0:0:0:0:
