osu file format v14

[General]
AudioFilename: audio.mp3
AudioLeadIn: 0
PreviewTime: 54485
Countdown: 0
SampleSet: Soft
StackLeniency: 0.7
Mode: 2
LetterboxInBreaks: 0
WidescreenStoryboard: 1

[Editor]
DistanceSpacing: 1
BeatDivisor: 4
GridSize: 16
TimelineZoom: 2.900005

[Metadata]
Title:Fantasy Note
TitleUnicode:Fantasy Note
Artist:HOYO-MiX
ArtistUnicode:HOYO-MiX
Creator:Arlecchino
Version:Cup
Source:崩坏3
Tags:hi3 hi third 3rd alive fallen rosemary rita rossweise ost video game instrumental mihoyo original soundtrack asuna 文驰 wen chi Honkai Impact hoyoverse classical folk electronic nakano ichika 崩壞3
BeatmapID:3420121
BeatmapSetID:1674171

[Difficulty]
HPDrainRate:2
CircleSize:3
OverallDifficulty:6
ApproachRate:6
SliderMultiplier:1.35
SliderTickRate:1

[Events]
//Background and Video events
0,0,"mamarita.jpg",0,0
//Break Periods
2,27368,29534
//Storyboard Layer 0 (Background)
//Storyboard Layer 1 (Fail)
//Storyboard Layer 2 (Pass)
//Storyboard Layer 3 (Foreground)
//Storyboard Layer 4 (Overlay)
//Storyboard Sound Samples

[TimingPoints]
867,821.917808219178,4,2,0,20,1,0
3402,882.352941176471,4,2,0,20,1,0
4284,895.522388059701,4,2,0,30,1,0
6970,652.173913043479,4,2,0,30,1,0
7602,937.5,4,2,0,35,1,0
7914,769.230769230769,4,2,0,35,1,0
8170,769.230769230769,4,2,0,35,1,0
8426,845.070422535211,4,2,0,35,1,0
9271,774.193548387097,4,2,0,35,1,0
10046,805.369127516779,4,2,0,35,1,0
10851,784.313725490196,4,2,0,35,1,0
11635,1100.91743119266,4,2,0,35,1,0
12735,1276.59574468085,4,2,0,35,1,0
13054,731.70731707317,4,2,0,35,1,0
13236,833.333333333332,4,2,0,35,1,0
13444,571.428571428571,4,2,0,35,1,0
13586,714.285714285714,4,2,0,35,1,0
13764,500,4,2,0,35,1,0
14014,300,4,2,0,35,1,0
14089,375,4,2,0,35,1,0
14182,300,4,2,0,35,1,0
14257,500,4,2,0,35,1,0
14382,272.727272727273,4,2,0,35,1,0
14450,333.333333333334,4,2,0,35,1,0
14533,352.941176470589,4,2,0,35,1,0
14621,387.096774193549,4,2,0,35,1,0
14717,681.818181818184,4,2,0,35,1,0
14887,530.973451327435,4,2,0,35,1,0
15019,342.857142857143,4,2,0,35,1,0
15104,285.714285714286,4,2,0,35,1,0
15175,480.000000000001,4,2,0,35,1,0
15295,631.578947368421,4,2,0,35,1,0
15505,833.333333333333,4,2,0,35,1,0
15643,652.173913043478,4,2,0,35,1,0
15751,560.747663551402,4,2,0,35,1,0
15937,681.818181818182,4,2,0,35,1,0
16051,813.559322033898,4,2,0,35,1,0
16880,428.571428571429,4,2,2,40,1,0
23737,-100,4,2,2,50,0,0
24594,-100,4,2,2,60,0,0
25022,-100,4,2,2,70,0,0
25437,857.142857142857,4,2,2,20,1,0
26722,869.565217391304,4,2,2,25,1,0
27168,869.565217391304,4,2,0,25,1,0
27747,1111.11111111111,4,2,0,25,1,0
28119,1034.48275862069,4,2,0,25,1,0
28377,983.60655737705,4,2,0,25,1,0
28662,983.60655737705,4,2,0,25,1,0
28868,1034.48275862069,4,2,0,25,1,0
29126,1132.07547169811,4,2,0,25,1,0
29409,1250,4,2,0,25,1,0
29721,952.380952380953,4,2,0,25,1,0
30038,983.60655737705,4,2,0,25,1,0
30365,659.34065934066,4,2,0,25,1,0
30584,722.891566265061,4,2,0,25,1,0
31306,666.666666666667,4,2,0,25,1,0
31639,517.241379310345,4,2,0,25,1,0
32285,437.956204379563,4,2,0,25,1,0
32941,-100,4,2,0,10,0,0
33184,854.092526690391,4,2,0,35,1,0
33469,789.473684210527,4,2,0,35,1,0
33732,821.917808219178,4,2,0,35,1,0
34013,428.571428571429,4,2,2,50,1,0
39155,441.176470588236,4,2,2,50,1,0
39816,-100,4,2,0,40,0,0
39927,400.000000000001,4,2,0,40,1,0
40026,441.176470588236,4,2,0,40,1,0
40113,428.571428571429,4,2,0,40,1,0
40220,428.571428571429,4,2,0,40,1,0
40362,422.535211267606,4,2,0,40,1,0
40784,422.535211267606,4,2,0,40,1,0
40884,428.571428571429,4,2,0,30,1,0
41955,-100,4,2,0,20,0,0
42169,-100,4,2,0,40,0,0
42812,-100,4,2,0,20,0,0
43026,-100,4,2,0,30,0,0
43669,-100,4,2,0,20,0,0
43776,-100,4,2,0,40,0,0
44526,-100,4,2,0,20,0,0
44741,-100,4,2,0,30,0,0
45384,-100,4,2,0,20,0,0
45598,-100,4,2,0,40,0,0
45919,-100,4,2,0,25,0,0
47735,428.571428571429,4,2,2,50,1,0
52877,521.739130434783,4,2,2,35,1,0
53119,428.571428571429,4,2,2,35,1,0
53761,415.944540727903,4,2,2,35,1,0
54592,428.571428571429,4,2,2,70,1,1
76878,-100,4,2,3,55,0,1
78538,-100,4,2,2,70,0,0
78592,-100,4,2,2,70,0,1
79020,-100,4,2,2,70,0,1
83306,-100,4,2,2,30,0,1
83520,-100,4,2,2,35,0,1
83735,-100,4,2,2,40,0,1
83949,-100,4,2,2,45,0,1
84163,-100,4,2,2,50,0,1
84378,-100,4,2,2,55,0,1
84592,444.444444444444,4,2,2,60,1,1
84806,-100,4,2,2,50,0,1
85449,428.571428571429,4,2,2,70,1,1
92306,-100,4,2,2,40,0,0
93163,-100,4,2,2,25,0,0
96592,480,4,2,2,25,1,0
97432,461.538461538462,4,2,2,25,1,0
97650,512.820512820513,4,2,2,25,1,0
101735,-100,4,2,2,15,0,0

[Colours]
Combo1 : 255,64,88
Combo2 : 143,115,103
Combo3 : 24,52,124

[HitObjects]
197,302,867,6,0,P|170:245|220:207,1,135,2|2,0:0|0:0,0:0:0:0:
256,192,2099,12,2,4731,0:0:0:0:
256,192,5179,12,0,6970,0:0:0:0:
380,314,7602,5,0,0:0:0:0:
423,283,7914,1,0,0:0:0:0:
420,236,8170,1,0,0:0:0:0:
357,181,8426,1,2,0:0:0:0:
125,221,9271,5,0,0:0:0:0:
168,211,9529,1,0,0:0:0:0:
212,203,9787,1,0,0:0:0:0:
274,193,10046,1,2,0:0:0:0:
103,105,10851,5,0,0:0:0:0:
77,142,11113,1,0,0:0:0:0:
84,186,11374,1,0,0:0:0:0:
144,216,11635,1,2,0:0:0:0:
256,192,11910,12,2,16457,0:0:0:0:
411,256,16880,5,2,0:1:0:0:
209,251,17523,1,2,0:1:0:0:
411,256,18165,1,8,0:1:0:0:
255,255,18594,1,2,0:1:0:0:
457,254,19237,5,2,0:1:0:0:
254,249,19880,1,10,0:1:0:0:
98,249,20308,1,2,0:1:0:0:
301,250,20951,5,2,0:1:0:0:
99,198,21594,2,0,L|172:196,1,67.5,2|8,0:1|0:1,0:0:0:0:
269,110,22023,1,2,0:1:0:0:
472,114,22665,5,2,0:1:0:0:
197,194,23308,2,0,L|195:265,1,67.5,2|8,0:1|0:1,0:0:0:0:
296,268,23737,6,0,P|265:96|268:275,1,535.5625,2|6,0:1|0:1,0:0:0:0:
256,192,25865,12,2,27168,0:0:0:0:
256,192,30584,12,12,34013,0:1:0:0:
384,233,34655,6,0,L|453:233,1,67.5,2|8,0:1|0:1,0:0:0:0:
317,236,35298,1,2,0:1:0:0:
162,237,35727,1,2,0:1:0:0:
162,237,36370,6,0,L|90:237,1,67.5,2|8,0:1|0:1,0:0:0:0:
229,152,37013,1,2,0:1:0:0:
74,125,37441,1,2,0:1:0:0:
74,125,38084,6,0,L|142:125,1,67.5,2|8,0:1|0:1,0:0:0:0:
276,133,38727,1,2,0:1:0:0:
435,152,39155,1,6,0:1:0:0:
256,192,39816,12,2,40884,0:0:0:0:
105,98,41312,6,0,L|109:240,1,135,2|2,0:0|0:0,0:0:0:0:
244,241,42170,1,2,0:0:0:0:
399,249,42599,1,2,0:0:0:0:
264,240,43027,6,0,L|121:235,1,135,2|2,0:0|0:0,0:0:0:0:
264,156,43884,1,2,0:0:0:0:
419,114,44313,1,2,0:0:0:0:
283,184,44741,6,0,P|241:139|285:96,1,135,2|2,0:0|0:0,0:0:0:0:
420,64,45599,1,2,0:0:0:0:
263,45,46027,1,6,0:0:0:0:
263,45,46884,2,0,L|259:185,1,135,2|2,0:0|0:0,0:0:0:0:
414,171,47735,6,0,P|461:203|350:317,1,270,12|8,0:1|0:1,0:0:0:0:
225,312,49021,1,2,0:1:0:0:
70,219,49450,2,0,L|339:180,1,270,2|0,0:1|0:0,0:0:0:0:
472,116,50735,1,2,0:1:0:0:
317,103,51164,6,0,L|205:99,2,101.25,2|0|2,0:1|0:1|0:1,0:0:0:0:
384,104,52021,1,8,0:1:0:0:
248,103,52450,1,2,0:1:0:0:
401,106,52877,5,8,0:1:0:0:
258,122,53333,1,8,0:1:0:0:
123,131,53761,1,8,0:1:0:0:
124,287,54592,6,0,P|63:220|178:132,1,270,6|8,0:0|0:0,0:0:0:0:
311,143,55878,1,2,0:0:0:0:
156,282,56307,6,0,P|93:202|203:112,1,270,2|0,0:0|0:0,0:0:0:0:
338,102,57592,1,0,0:0:0:0:
493,90,58021,6,0,L|220:73,1,270,2|0,0:0|0:0,0:0:0:0:
359,88,59307,1,2,0:0:0:0:
203,60,59735,6,0,L|64:59,2,135,2|8|8,0:0|0:1|0:1,0:0:0:0:
339,66,61021,1,8,0:0:0:0:
184,116,61450,6,0,P|89:175|187:230,1,270,6|0,0:0|0:0,0:0:0:0:
323,136,62735,1,0,0:0:0:0:
168,275,63164,6,0,P|295:236|428:252,1,270,2|0,0:0|0:0,0:0:0:0:
293,219,64450,1,0,0:0:0:0:
138,204,64878,6,0,P|71:224|6:197,1,135,8|8,0:1|0:1,0:0:0:0:
168,164,65735,2,0,P|235:184|300:157,1,135,8|8,0:0|0:1,0:0:0:0:
118,82,66592,1,2,0:0:0:0:
110,351,67450,5,8,0:1:0:0:
244,334,67878,1,2,0:0:0:0:
399,330,68307,6,0,P|272:285|140:305,1,270,6|0,0:0|0:0,0:0:0:0:
275,244,69592,1,8,0:0:0:0:
120,202,70021,2,0,P|242:149|375:160,1,270,2|0,0:0|0:0,0:0:0:0:
241,127,71307,1,8,0:0:0:0:
86,106,71735,6,0,P|11:200|111:266,1,270,2|8,0:0|0:1,0:0:0:0:
247,248,73021,1,8,0:0:0:0:
376,212,73450,2,0,P|247:177|116:203,1,270,2|0,0:0|0:0,0:0:0:0:
272,134,74735,1,8,0:0:0:0:
427,82,75164,6,0,L|442:149,1,67.5,14|0,0:1|0:0,0:0:0:0:
307,194,75807,2,0,L|299:263,1,67.5,10|0,0:1|0:0,0:0:0:0:
164,180,76450,1,10,0:1:0:0:
320,213,76878,6,0,P|467:142|321:69,1,405,2|2,0:0|0:0,0:0:0:0:
254,81,78378,1,2,0:0:0:0:
166,95,78592,6,0,L|162:233,1,135,6|0,0:0|0:0,0:0:0:0:
297,241,79450,1,8,0:0:0:0:
141,303,79878,2,0,P|66:248|118:173,1,202.5,2|2,0:0|0:0,0:0:0:0:
242,124,80950,1,2,0:0:0:0:
320,114,81164,1,8,0:0:0:0:
185,50,81592,1,0,0:0:0:0:
340,41,82021,6,0,L|205:43,1,135,2|8,0:0|0:0,0:0:0:0:
272,41,82664,2,0,P|222:248|206:36,1,607.5,2|8,0:0|0:1,0:0:0:0:
187,146,85450,6,0,P|93:163|70:256,1,202.5,6|2,0:0|0:0,0:0:0:0:
124,298,86307,1,8,0:0:0:0:
261,300,86735,2,0,L|468:279,1,202.5,2|2,0:0|0:0,0:0:0:0:
338,226,87807,1,2,0:0:0:0:
260,196,88021,6,0,L|48:173,1,202.5,8|2,0:0|0:0,0:0:0:0:
58,174,88878,2,0,L|206:168,1,135,2|2,0:0|0:0,0:0:0:0:
329,138,89735,2,0,L|192:118,1,135,2|2,0:0|0:0,0:0:0:0:
40,95,90592,6,0,P|37:196|117:247,1,202.5,2|2,0:0|0:0,0:0:0:0:
183,250,91450,1,8,0:0:0:0:
317,249,91877,1,2,0:0:0:0:
256,192,92307,12,8,94021,0:1:0:0:
156,291,96592,6,0,L|155:183,1,101.25,8|0,0:1|0:0,0:0:0:0:
321,113,97432,1,8,0:1:0:0:
378,113,97650,1,8,0:1:0:0:
256,192,98162,12,4,101752,0:0:0:0:
