osu file format v14

[General]
AudioFilename: audio.ogg
AudioLeadIn: 0
PreviewTime: 25169
Countdown: 0
SampleSet: Soft
StackLeniency: 0.3
Mode: 0
LetterboxInBreaks: 0
WidescreenStoryboard: 0

[Editor]
Bookmarks: 9406,17542,25678,33813,37881,41949,50084,58220,66356,74491,78559,86695,89745
DistanceSpacing: 1.1
BeatDivisor: 4
GridSize: 32
TimelineZoom: 1.5

[Metadata]
Title:Doombane (tnbee mix)
TitleUnicode:Doombane (tnbee mix)
Artist:HOYO-MiX
ArtistUnicode:HOYO-MiX
Creator:eiri-
Version:Insane
Source:Genshin Impact
Tags:Ayyri honne BlastTheKidd Instrumental Video Game Rock Xiao 原神 Conquerer of Demons 魈 Alatus Adaptus miHoYo HoYoverse Lantern Rite Festival The Stellar Moments Vol. Volume 2 捷疾之业 Path of Vigilant Yaksha 捷疾の業 Remix
BeatmapID:3338604
BeatmapSetID:1635829

[Difficulty]
HPDrainRate:4.7
CircleSize:4.5
OverallDifficulty:7.5
ApproachRate:8.5
SliderMultiplier:2.2
SliderTickRate:1

[Events]
//Background and Video events
0,0,"Xiao 575.jpg",0,0
//Break Periods
//Storyboard Layer 0 (Background)
//Storyboard Layer 1 (Fail)
//Storyboard Layer 2 (Pass)
//Storyboard Layer 3 (Foreground)
//Storyboard Layer 4 (Overlay)
//Storyboard Sound Samples

[TimingPoints]
9407,508.474576271186,4,2,1,60,1,0
17542,-100,4,2,1,50,0,0
25678,-100,4,2,1,70,0,0
37881,-100,4,2,1,60,0,0
41949,-100,4,2,1,70,0,0
43983,-100,4,2,1,80,0,0
46017,-100,4,2,1,90,0,0
50084,-200,4,2,1,30,0,0
58220,-200,4,2,1,40,0,0
64322,-133.333333333333,4,2,1,60,0,0
65339,-133.333333333333,4,2,1,70,0,0
66356,-100,4,2,2,50,0,0
70423,-100,4,2,2,60,0,0
74491,-100,4,2,2,70,0,0
78305,-100,4,2,1,50,0,0
78559,-200,4,2,1,50,0,0

[Colours]
Combo1 : 99,133,188
Combo2 : 188,220,201
Combo3 : 116,182,142
Combo4 : 210,192,224
Combo5 : 167,133,194
Combo6 : 179,194,221

[HitObjects]
32,352,9406,6,0,P|161:343|194:339,1,110,4|0,3:1|1:0,0:0:0:0:
234,377,9788,2,0,P|275:337|260:287,1,110,8|0,3:0|0:0,0:0:0:0:
144,140,10169,2,0,P|103:180|118:230,1,110,0|0,3:3|0:0,0:0:0:0:
269,204,10551,2,0,P|332:218|416:227,1,110,0|0,3:3|0:0,0:0:0:0:
471,281,10932,1,8,0:2:0:0:
482,251,11059,1,8,0:3:0:0:
373,146,11186,1,8,0:3:0:0:
384,176,11313,1,8,0:3:0:0:
503,47,11440,6,0,P|448:42|393:40,1,110,2|0,3:1|1:0,0:0:0:0:
274,3,11822,2,0,P|220:40|245:93,1,110,8|0,3:0|0:0,0:0:0:0:
361,222,12203,2,0,P|415:185|390:132,1,110,0|0,3:3|0:0,0:0:0:0:
226,205,12584,2,0,P|155:184|72:168,1,110,0|0,3:3|0:0,0:0:0:0:
44,92,12966,1,8,0:2:0:0:
3,105,13093,1,8,0:2:0:0:
144,202,13220,1,8,0:3:0:0:
185,215,13347,1,8,0:3:0:0:
4,317,13474,6,0,P|87:304|151:305,1,110,4|0,3:3|1:0,0:0:0:0:
233,198,13856,2,0,P|271:252|226:298,1,110,8|0,3:0|0:0,0:0:0:0:
96,196,14237,2,0,P|80:145|117:108,1,110,0|2,3:3|0:2,0:0:0:0:
283,86,14618,2,0,P|218:46|135:49,1,110,0|0,3:3|0:0,0:0:0:0:
61,0,15000,1,8,0:2:0:0:
76,52,15127,1,8,0:3:0:0:
232,158,15254,1,8,0:3:0:0:
247,106,15381,1,8,0:3:0:0:
75,283,15508,6,0,P|44:204|7:145,1,110,0|0,3:1|1:0,0:0:0:0:
176,61,15890,2,0,P|230:88|208:155,1,110,8|0,3:0|0:0,0:0:0:0:
0,82,16271,2,0,P|5:29|54:11,1,110,0|0,3:3|0:0,0:0:0:0:
252,0,16652,2,0,P|238:53|217:104,1,110,0|0,3:3|0:0,0:0:0:0:
121,239,17034,1,8,0:2:0:0:
51,217,17161,1,8,0:2:0:0:
222,145,17288,1,8,0:3:0:0:
291,124,17415,1,8,0:3:0:0:
144,85,17542,5,4,1:1:0:0:
144,85,17796,1,0,1:0:0:0:
224,64,18051,1,0,1:0:0:0:
224,64,18305,1,0,1:0:0:0:
245,144,18559,1,0,1:0:0:0:
245,144,18813,1,0,1:0:0:0:
165,165,19068,1,0,1:0:0:0:
165,165,19322,1,8,0:3:0:0:
142,262,19449,1,8,0:3:0:0:
239,285,19576,5,4,3:1:0:0:
239,285,19830,1,0,1:0:0:0:
319,264,20085,1,0,1:0:0:0:
319,264,20339,1,0,1:0:0:0:
340,344,20593,1,0,1:0:0:0:
340,344,20847,1,0,1:0:0:0:
260,365,21102,1,0,1:0:0:0:
260,365,21356,1,8,0:3:0:0:
288,245,21483,1,8,0:3:0:0:
168,217,21610,5,4,1:1:0:0:
168,217,21864,1,0,1:0:0:0:
182,135,22119,1,0,1:0:0:0:
182,135,22373,1,0,1:0:0:0:
264,150,22627,1,0,1:0:0:0:
264,150,22881,1,0,1:0:0:0:
249,231,23136,1,0,1:0:0:0:
249,231,23390,1,8,0:3:0:0:
372,208,23517,1,8,0:3:0:0:
349,84,23644,5,4,1:1:0:0:
349,84,23897,1,0,1:0:0:0:
363,2,24152,1,0,1:0:0:0:
363,2,24406,1,0,1:0:0:0:
445,17,24660,1,0,1:0:0:0:
445,17,24914,1,0,1:0:0:0:
433,101,25169,5,2,1:0:0:0:
363,2,25296,1,2,0:1:0:0:
349,84,25423,1,8,3:2:0:0:
445,17,25551,1,8,3:2:0:0:
433,101,25678,6,0,P|451:169|475:225,1,110,10|0,3:3|0:0,0:0:0:0:
444,278,26059,1,0,0:0:0:0:
444,278,26186,1,2,0:1:0:0:
288,352,26440,2,0,P|270:284|246:228,1,110,2|8,0:3|3:3,0:0:0:0:
277,175,26821,1,0,0:0:0:0:
277,175,26948,1,2,0:1:0:0:
137,85,27203,2,0,P|155:17|167:-11,1,55,2|0,0:3|0:0,0:0:0:0:
244,0,27457,2,0,P|251:26|256:53,1,55,8|8,0:0|0:0,0:0:0:0:
142,164,27712,6,0,P|75:149|32:124,1,110,10|0,3:3|0:0,0:0:0:0:
205,125,28093,1,0,0:0:0:0:
205,125,28220,1,2,0:1:0:0:
289,294,28474,2,0,P|356:279|399:254,1,110,2|8,0:3|3:3,0:0:0:0:
226,255,28855,1,0,0:0:0:0:
226,255,28982,1,2,0:1:0:0:
442,185,29237,2,0,P|448:148|461:113,1,55,2|0,0:3|0:0,0:0:0:0:
293,71,29491,1,8,0:0:0:0:
273,30,29618,1,8,0:0:0:0:
307,0,29745,6,0,P|329:31|301:120,1,110,10|0,3:3|0:0,0:0:0:0:
219,224,30127,2,0,P|197:193|225:104,1,110,10|0,0:2|0:0,0:0:0:0:
370,237,30508,2,0,P|414:227|460:225,1,55,2|0,0:3|0:0,0:0:0:0:
467,306,30762,2,0,P|414:320|360:326,1,110,8|0,3:3|0:0,0:0:0:0:
298,375,31144,1,0,0:0:0:0:
298,375,31271,1,2,0:3:0:0:
109,341,31525,1,8,0:0:0:0:
109,341,31652,1,8,0:0:0:0:
109,341,31779,6,0,P|92:267|80:241,1,55,10|0,3:3|0:0,0:0:0:0:
27,145,32034,2,0,P|60:204|98:171,2,110,2|2|2,0:0|0:1|0:3,0:0:0:0:
184,114,32796,1,10,3:2:0:0:
1,62,33051,1,10,0:0:0:0:
3,52,33135,1,10,0:0:0:0:
5,41,33220,1,10,0:0:0:0:
8,31,33305,1,10,3:2:0:0:
143,8,33559,1,8,0:0:0:0:
128,164,33813,6,2,P|114:226|70:326,1,165,10|0,3:3|0:0,0:1:0:0:
62,314,34322,2,2,P|76:252|120:152,1,165,4|0,0:3|0:0,0:1:0:0:
25,36,34830,6,2,P|39:98|83:198,1,165,8|0,3:3|0:0,0:1:0:0:
91,186,35339,2,2,P|77:124|33:24,1,165,6|8,0:3|0:0,0:1:0:0:
237,151,35847,6,2,P|175:137|75:93,1,165,10|0,3:3|0:0,0:1:0:0:
87,85,36356,2,2,P|149:99|249:143,1,165,4|0,0:3|0:0,0:1:0:0:
365,48,36864,6,2,P|303:62|203:106,1,165,8|0,3:3|0:0,0:1:0:0:
215,114,37373,2,2,P|277:100|377:56,1,165,6|8,0:3|0:0,0:1:0:0:
107,0,37881,5,10,1:3:0:0:
122,53,38008,1,10,1:2:0:0:
65,98,38135,2,0,L|46:165,1,55,2|2,1:2|0:2,0:0:0:0:
116,5,38390,5,0,1:2:0:0:
131,58,38517,1,2,0:2:0:0:
74,103,38644,2,0,L|55:170,1,55,2|2,1:2|0:2,0:0:0:0:
116,201,38898,1,0,1:0:0:0:
131,255,39025,1,2,3:2:0:0:
74,299,39152,2,0,L|55:366,1,55,2|2,1:2|0:2,0:0:0:0:
125,206,39407,5,10,1:3:0:0:
178,221,39534,1,10,1:2:0:0:
223,164,39661,2,0,L|290:145,1,55,2|2,1:2|0:2,0:0:0:0:
376,276,39915,6,0,P|391:240|390:196,1,55,6|10,1:1|1:2,0:0:0:0:
288,81,40169,2,0,P|304:104|313:130,1,55,2|8,1:2|3:3,0:0:0:0:
388,282,40423,2,0,P|403:259|412:233,1,55,2|2,1:2|0:2,0:0:0:0:
189,353,40678,6,0,P|174:317|175:273,1,55,2|2,3:3|0:2,0:0:0:0:
254,207,40932,2,0,P|238:229|229:255,1,55,2|2,1:2|3:2,0:0:0:0:
180,357,41186,2,0,P|164:334|155:308,1,55,2|2,1:2|0:2,0:0:0:0:
376,276,41440,6,0,P|391:240|390:196,1,55,10|10,1:3|1:2,0:0:0:0:
332,178,41695,2,0,P|348:201|357:227,1,55,2|2,1:2|1:2,0:0:0:0:
388,282,41949,6,0,L|394:239,1,27.5,6|0,3:1|0:0,0:0:0:0:
224,64,42330,2,0,L|230:107,1,27.5,0|0,1:3|0:0,0:0:0:0:
128,320,42712,2,0,L|134:277,1,27.5,4|0,0:3|0:0,0:0:0:0:
32,128,43093,2,0,L|38:85,1,27.5,0|0,1:2|0:0,0:0:0:0:
320,352,43474,6,0,L|363:346,1,27.5,0|0,3:1|0:0,0:0:0:0:
64,288,43729,2,0,L|21:282,1,27.5,8|0,1:3|0:0,0:0:0:0:
384,224,43983,6,0,L|390:181,1,27.5,6|0,3:1|0:0,0:0:0:0:
265,19,44364,2,0,L|271:62,1,27.5,0|0,1:3|0:0,0:0:0:0:
142,268,44746,2,0,L|148:225,1,27.5,4|0,0:3|0:0,0:0:0:0:
6,28,45127,2,0,L|12:-15,1,27.5,0|0,1:2|0:0,0:0:0:0:
316,294,45508,6,0,L|359:288,1,27.5,0|0,3:1|0:0,0:0:0:0:
60,230,45763,2,0,L|17:224,1,27.5,8|0,1:3|0:0,0:0:0:0:
380,166,46017,6,0,L|386:123,1,27.5,6|0,3:1|0:0,0:0:0:0:
192,350,46398,2,0,L|198:393,1,27.5,0|0,1:3|0:0,0:0:0:0:
416,192,46779,2,0,L|422:149,1,27.5,4|0,0:3|0:0,0:0:0:0:
160,318,47161,2,0,L|166:361,1,27.5,0|0,1:2|0:0,0:0:0:0:
480,224,47542,6,0,L|523:218,1,27.5,2|0,3:3|0:0,0:0:0:0:
32,160,47796,2,0,L|-11:154,1,27.5,10|0,1:3|0:0,0:0:0:0:
32,160,50084,6,0,P|7:134|20:75,2,82.5,4|0|0,3:1|0:2|1:2,0:0:0:0:
480,224,54152,6,0,P|505:250|492:309,2,82.5,4|0|0,3:1|0:2|1:2,0:0:0:0:
32,160,58220,6,0,P|7:134|9:92,1,55,4|0,3:1|0:0,0:0:0:0:
50,119,58601,2,0,P|50:82|81:54,1,55,2|0,0:2|0:0,0:0:0:0:
91,102,58983,1,0,1:2:0:0:
466,216,62034,1,2,0:2:0:0:
473,220,62161,1,2,1:2:0:0:
480,224,62288,6,0,P|505:250|503:292,1,55,4|0,3:1|0:0,0:0:0:0:
462,265,62669,2,0,P|462:302|431:330,1,55,2|0,0:2|0:0,0:0:0:0:
421,282,63051,1,2,0:1:0:0:
192,192,64322,6,0,L|184:120,1,41.2500015735627,2|0,3:0|0:0,0:0:0:0:
320,96,64576,2,0,L|312:168,1,41.2500015735627,0|0,3:2|0:0,0:0:0:0:
128,32,64830,1,2,3:2:0:0:
128,32,65084,1,0,3:0:0:0:
128,32,65339,2,0,L|194:42,1,41.2500015735627,2|0,3:0|0:0,0:0:0:0:
384,128,65593,2,0,L|318:138,1,41.2500015735627,0|0,3:3|0:0,0:0:0:0:
128,256,65847,1,2,3:2:0:0:
128,256,66101,1,0,3:0:0:0:
128,256,66356,6,0,P|193:280|196:386,1,165,2|2,3:2|0:2,0:0:0:0:
0,294,67118,2,0,P|72:262|89:191,1,110,2|8,3:2|0:2,0:0:0:0:
85,237,67500,1,2,0:2:0:0:
133,384,67881,1,2,0:2:0:0:
133,384,68135,1,2,0:2:0:0:
303,349,68390,6,0,P|232:337|147:293,1,165,2|2,3:2|0:2,0:0:0:0:
403,247,69152,2,0,P|332:259|258:297,1,110,2|8,3:2|0:2,0:0:0:0:
297,273,69534,1,2,0:2:0:0:
490,370,69915,1,2,0:2:0:0:
490,370,70169,1,2,0:2:0:0:
384,128,70423,6,0,P|305:88|304:1,1,165,2|2,3:2|0:2,0:0:0:0:
425,200,71186,2,0,P|439:122|507:90,1,110,2|8,3:2|0:2,0:0:0:0:
459,103,71568,1,2,0:2:0:0:
379,0,71948,1,2,0:2:0:0:
379,0,72202,1,2,0:2:0:0:
209,35,72457,6,0,P|280:47|365:91,1,165,2|2,3:2|0:2,0:0:0:0:
264,86,73220,2,0,P|191:124|116:139,1,110,2|8,3:2|0:2,0:0:0:0:
164,131,73601,1,2,0:2:0:0:
22,14,73982,1,2,0:2:0:0:
22,14,74236,1,2,0:2:0:0:
96,256,74491,5,10,3:1:0:0:
96,256,74745,1,8,0:1:0:0:
324,226,75000,1,8,3:1:0:0:
96,256,75254,1,10,0:1:0:0:
71,171,75508,5,8,3:1:0:0:
71,171,75762,5,8,0:1:0:0:
96,256,75890,1,0,1:0:0:0:
71,171,76017,5,10,3:1:0:0:
74,133,76144,1,0,1:0:0:0:
76,95,76271,1,10,1:1:0:0:
96,256,78305,1,8,0:2:0:0:
101,294,78432,1,8,0:2:0:0:
106,332,78559,6,0,P|250:365|336:377,2,220,4|2|2,3:1|0:2|1:0,0:0:0:0:
106,332,81356,1,8,0:2:0:0:
101,294,81483,1,8,0:2:0:0:
96,256,81610,1,10,0:2:0:0:
339,83,82457,1,8,0:2:0:0:
406,52,82627,6,0,P|262:19|176:7,2,220,4|2|2,3:1|0:2|1:0,0:0:0:0:
406,52,85423,1,8,0:2:0:0:
411,90,85550,1,8,0:2:0:0:
416,128,85678,2,0,L|404:191,2,55,10|2|2,0:2|0:2|0:2,0:0:0:0:
231,69,86695,6,0,P|248:178|256:288,3,220,4|2|2|10,3:1|0:2|1:0|0:2,0:0:0:0:
