osu file format v14

[General]
AudioFilename: audio.mp3
AudioLeadIn: 0
PreviewTime: 40165
Countdown: 0
SampleSet: Soft
StackLeniency: 0.4
Mode: 0
LetterboxInBreaks: 0
EpilepsyWarning: 1
WidescreenStoryboard: 1

[Editor]
Bookmarks: 19040,29706,35040,40373,41373,51039,53706,61706,64373,65706,67039
DistanceSpacing: 1
BeatDivisor: 4
GridSize: 32
TimelineZoom: 0.9999999

[Metadata]
Title:Domineer
TitleUnicode:Domineer
Artist:HOYO-MiX
ArtistUnicode:HOYO-MiX
Creator:Cynplytholowazy
Version:Iceluin's Normal
Source:崩坏3
Tags:Electronic Video Game Instrumental Honkai Impact 3rd 4.6 herrscher of sentience 识之律者 HI3 フカ Fu Hua FuHua 符华 Alive 文驰 miHoYo Hoyoverse -Hitomi L1gHT_u Iceluin Electoz Onegai M_i_X MiX -Eresh
BeatmapID:3721629
BeatmapSetID:1814110

[Difficulty]
HPDrainRate:4
CircleSize:3
OverallDifficulty:5
ApproachRate:5
SliderMultiplier:1
SliderTickRate:1

[Events]
//Background and Video events
0,0,"BG.jpg",0,0
//Break Periods
//Storyboard Layer 0 (Background)
Sprite,Background,TopLeft,"BG.jpg",0,0
//Storyboard Layer 1 (Fail)
//Storyboard Layer 2 (Pass)
//Storyboard Layer 3 (Foreground)
//Storyboard Layer 4 (Overlay)
//Storyboard Sound Samples

[TimingPoints]
19050,333.333333333333,4,2,21,60,1,0
20300,-100,4,2,21,5,0,0
20383,-100,4,2,21,60,0,0
21195,-100,4,2,21,60,0,0
21278,-100,4,2,21,60,0,0
21529,-100,4,2,21,60,0,0
21612,-100,4,2,21,60,0,0
21862,-100,4,2,21,60,0,0
21945,-100,4,2,21,60,0,0
27050,-95.2380952380952,4,2,21,40,0,0
27715,-90.9090909090909,4,2,21,45,0,0
28383,-86.9565217391304,4,2,21,50,0,0
29050,-83.3333333333333,4,2,21,55,0,0
29716,-100,4,2,21,60,0,0
39883,-100,4,2,21,5,0,0
40383,-100,4,2,21,60,0,1
49716,-100,4,2,21,60,0,0
49800,-100,4,2,21,20,0,0
49967,-100,4,2,21,30,0,0
50133,-100,4,2,21,40,0,0
50300,-100,4,2,21,50,0,0
50467,-100,4,2,21,60,0,0
50716,-100,4,2,21,40,0,0
50883,-100,4,2,21,50,0,0
51049,-100,4,2,21,60,0,1
51383,-100,4,2,21,45,0,1
51716,-100,4,2,21,50,0,1
52383,-100,4,2,21,55,0,1
52716,-100,4,2,21,60,0,1
59049,-95.2380952380952,4,2,21,60,0,0
59715,-90.9090909090909,4,2,21,60,0,0
60382,-86.9565217391304,4,2,21,60,0,0
61049,-83.3333333333333,4,2,21,60,0,0
61716,-100,4,2,21,60,0,0
66633,-100,4,2,21,5,0,0
66717,-100,4,2,21,60,0,0
66967,-100,4,2,21,5,0,0
67049,-100,4,2,21,50,0,0
67383,-100,4,2,21,5,0,0
67717,-100,4,2,21,50,0,0
67758,-100,4,2,21,5,0,0
68383,-100,4,2,21,50,0,0
68967,-100,4,2,21,5,0,0
69050,-100,4,2,21,50,0,0
69632,-100,4,2,21,5,0,0
69696,-100,4,2,21,50,0,0
69967,-100,4,2,21,5,0,0
70050,-100,4,2,21,50,0,0
70300,-100,4,2,21,5,0,0
70383,-100,4,2,21,50,0,0
70966,-100,4,2,21,5,0,0
71029,-100,4,2,21,50,0,0
71383,-100,4,2,21,5,0,0
71717,-100,4,2,21,50,0,0
72299,-100,4,2,21,5,0,0
72363,-100,4,2,21,50,0,0
72383,-100,4,2,22,50,0,0
73049,-100,4,2,22,45,0,0
73716,-100,4,2,22,40,0,0
74383,-100,4,2,22,35,0,0
75049,-100,4,2,22,30,0,0
75716,-100,4,2,22,25,0,0
76383,-100,4,2,22,5,0,0

[Colours]
Combo1 : 178,183,202
Combo2 : 184,58,52
Combo3 : 141,58,65
Combo4 : 200,79,82
Combo5 : 235,29,29
Combo6 : 212,212,212

[HitObjects]
96,288,19050,6,0,B|160:299|160:299|177:314|177:314|238:325,1,150,4|0,1:0|0:0,0:0:0:0:
285,339,19716,1,8,0:0:0:0:
332,144,20383,1,2,0:0:0:0:
414,87,20716,1,2,0:0:0:0:
472,169,21050,2,0,L|454:267,1,100,8|2,0:0|0:0,0:0:0:0:
432,365,21716,6,0,L|284:338,1,150,2|2,3:2|0:0,0:0:0:0:
235,326,22383,1,10,0:0:0:0:
147,373,22716,1,2,0:0:0:0:
79,298,23050,2,0,L|96:199,1,100,2|2,3:2|0:0,0:0:0:0:
27,127,23716,1,10,0:2:0:0:
101,60,24050,1,2,0:0:0:0:
170,132,24383,6,0,L|219:123,1,50,4|0,1:0|0:0,0:0:0:0:
268,115,24716,1,0,1:0:0:0:
328,35,25050,1,10,0:0:0:0:
416,81,25383,1,2,0:0:0:0:
495,20,25716,2,0,B|531:56|531:56|512:103,1,100,2|0,1:2|0:0,0:0:0:0:
496,151,26216,1,0,1:0:0:0:
496,151,26383,1,10,0:0:0:0:
424,221,26716,1,2,0:0:0:0:
512,278,27050,6,2,P|436:265|378:315,1,157.499995193482,2|0,1:2|1:2,0:0:0:0:
351,362,27715,38,2,B|279:349|279:349|257:358|257:358|187:346,1,165.000005035401,8|0,0:0|0:0,0:0:0:0:
133,332,28383,6,2,B|110:286|146:245|158:259|194:214|173:174,1,172.500003290176,8|0,0:0|1:0,0:0:0:0:
130,135,29050,6,2,B|50:94|95:-18|166:8|176:35|163:51,1,179.999994506836,8|0,0:0|0:0,0:0:0:0:
197,64,29716,21,4,1:0:0:0:
416,352,32383,5,4,1:0:0:0:
416,352,33716,70,0,P|434:252|450:155,1,200,2|2,0:1|0:1,0:0:0:0:
302,19,35050,22,0,L|203:36,1,100,4|8,1:0|0:0,0:0:0:0:
104,26,35716,2,0,L|112:75,1,50,0|0,1:0|1:0,0:0:0:0:
123,124,36050,1,8,0:0:0:0:
90,218,36383,2,0,L|188:200,1,100,0|8,1:0|0:0,0:0:0:0:
279,160,37049,2,0,L|287:209,1,50,0|0,1:0|1:0,0:0:0:0:
300,258,37383,1,8,0:0:0:0:
267,352,37716,6,0,L|365:334,1,100,4|8,1:0|3:2,0:0:0:0:
414,360,38216,1,2,3:2:0:0:
414,360,38383,2,0,L|472:349,1,50,2|2,3:2|1:2,0:0:0:0:
490,309,38716,2,0,L|481:259,1,50,10|2,0:0|0:0,0:0:0:0:
440,229,39050,5,4,0:0:0:0:
512,42,39716,1,10,0:0:0:0:
512,42,40383,38,0,B|475:50|475:50|455:36|455:36|418:42,1,100,12|2,1:0|0:1,0:1:0:0:
380,17,40883,1,2,0:0:0:0:
380,17,41050,1,8,0:0:0:0:
299,76,41383,6,0,B|279:115|310:150|320:138|351:177|333:211,1,150,12|0,1:0|0:0,0:0:0:0:
308,255,42050,1,8,1:0:0:0:
250,337,42383,1,8,0:0:0:0:
250,337,42550,2,0,L|151:319,1,100,8|0,1:0|0:0,0:0:0:0:
102,310,43050,6,0,B|68:293|68:293|55:220|55:220|79:189,1,150,4|2,1:0|0:1,0:1:0:0:
112,153,43716,2,0,L|103:103,1,50,10|0,0:0|0:0,0:0:0:0:
91,54,44050,1,0,1:0:0:0:
189,39,44383,2,0,L|197:88,1,50,2|0,3:1|3:0,0:0:0:0:
209,136,44716,1,8,1:0:0:0:
168,227,45050,1,8,0:0:0:0:
241,294,45383,1,8,1:0:0:0:
328,246,45716,6,0,B|366:278|366:278|413:260,1,100,14|2,1:0|0:0,0:1:0:0:
505,218,46383,2,0,L|496:168,1,50,10|2,0:0|3:2,0:0:0:0:
487,124,46716,1,2,1:2:0:0:
487,124,46883,2,0,L|382:142,1,100,2|0,3:2|1:0,0:0:0:0:
348,111,47383,2,0,L|298:119,1,50,8|0,1:0|1:0,0:0:0:0:
258,90,47716,1,10,0:0:0:0:
180,27,48049,2,0,B|155:19|155:19|136:34,1,50,8|8,1:0|1:0,0:0:0:0:
96,64,48383,6,0,L|112:162,1,100,10|2,1:0|3:1,0:0:0:0:
82,203,48883,2,0,L|100:305,1,100,2|2,3:1|3:1,0:0:0:0:
142,326,49383,2,0,L|195:315,1,50,2|2,3:1|3:1,0:0:0:0:
230,347,49716,6,0,B|326:329|326:329|343:315|343:315|431:300|431:300|452:290|473:261|463:197|394:194,1,350,8|2,1:0|0:1,0:0:0:0:
358,195,51049,5,8,1:0:0:0:
230,347,51716,1,10,0:0:0:0:
140,303,52049,2,0,B|165:258|165:258|107:124|107:124|115:85|136:67|172:69|180:81,1,300,8|10,1:0|0:0,0:0:0:0:
267,129,53383,1,0,1:0:0:0:
331,52,53716,6,0,B|356:36|356:36|474:56,1,150,4|2,1:0|3:2,0:1:0:0:
511,90,54383,1,10,0:0:0:0:
482,185,54716,1,8,1:0:0:0:
421,375,55383,5,12,1:0:0:0:
332,328,55716,1,10,0:0:0:0:
245,277,56049,1,8,1:0:0:0:
171,344,56383,6,0,L|72:326,1,100,12|2,1:0|3:2,0:1:0:0:
20,241,57049,2,0,L|28:191,1,50,10|2,0:0|3:2,0:0:0:0:
45,147,57382,1,2,1:2:0:0:
45,147,57549,2,0,P|92:136|132:163,1,100,2|2,1:2|3:2,0:0:0:0:
161,204,58049,2,0,L|210:195,1,50,2|2,3:2|1:2,0:0:0:0:
259,184,58383,1,8,0:0:0:0:
326,257,58716,2,0,B|346:272|346:272|370:264,1,50,8|0,1:0|0:0,0:0:0:0:
422,259,59049,22,1,L|450:98,1,157.499995193482,12|0,1:0|0:0,0:0:0:0:
456,49,59716,6,1,B|409:24|409:24|302:57,1,165.000005035401,10|0,0:0|0:0,0:0:0:0:
248,78,60383,70,1,B|216:89|216:89|134:30|134:30|97:44,1,172.500003290176,12|0,1:0|0:0,0:0:0:0:
46,72,61049,6,1,B|29:106|29:106|49:153|49:153|32:202|32:202|48:237,1,179.999994506836,8|0,0:0|0:0,0:0:0:0:
68,283,61716,5,8,1:0:0:0:
146,353,62049,1,8,0:2:0:0:
146,353,62216,2,0,L|244:335,1,100,8|2,0:0|3:2,0:0:0:0:
285,363,62716,1,8,0:0:0:0:
351,289,63049,1,8,1:0:0:0:
351,289,63216,1,8,0:0:0:0:
437,349,63549,1,2,3:2:0:0:
437,349,63716,2,0,L|493:339,1,50,8|2,1:0|3:2,0:0:0:0:
512,298,64049,2,0,L|503:248,1,50,2|2,3:2|3:2,0:0:0:0:
459,223,64383,5,8,1:0:0:0:
512,138,64716,2,0,P|524:91|495:51,1,100,2|8,3:2|1:0,0:0:0:0:
461,23,65216,1,2,3:2:0:0:
461,23,65383,2,0,B|439:16|439:16|415:31,1,50,2|2,3:2|3:2,0:0:0:0:
384,70,65716,6,0,L|187:35,1,200,12|2,1:0|1:2,0:0:0:0:
105,93,66716,1,2,0:0:0:0:
146,184,67049,22,0,B|179:229|133:282|121:266|77:319|112:369,1,200,2|8,0:0|0:0,0:0:0:0:
309,364,68383,2,0,B|342:319|296:266|284:282|240:229|275:179,1,200,2|8,0:0|0:0,0:0:0:0:
210,104,69383,1,0,0:0:0:0:
290,44,69716,6,0,B|376:59|376:59|400:74|400:74|483:89,1,200,2|8,0:0|0:0,0:0:0:0:
448,286,71049,2,0,B|365:271|365:271|337:277|337:277|252:262,1,200,2|8,0:0|0:0,0:0:0:0:
167,317,72049,1,0,0:0:0:0:
113,232,72383,5,6,1:2:0:0:
256,192,72549,12,0,76383,0:0:0:0:
