osu file format v14

[General]
AudioFilename: audio.mp3
AudioLeadIn: 0
PreviewTime: 78979
Countdown: 0
SampleSet: Soft
StackLeniency: 0.7
Mode: 0
LetterboxInBreaks: 0
WidescreenStoryboard: 1

[Editor]
DistanceSpacing: 1.1
BeatDivisor: 4
GridSize: 4
TimelineZoom: 4.500003

[Metadata]
Title:Blossoms of Summer Night
TitleUnicode:硝华流焰
Artist:HOYO-MiX
ArtistUnicode:HOYO-MiX
Creator:SatonoDiamond
Version:Ame's Extra
Source:Genshin Impact
Tags:inazuma pyro character demo Naganohara Yoimiya theme song the stellar moments volume 2 mihoyo hoyoverse 原神 OST folk rock instrumental video game Yuánshén yuanshen Lasse nanoya Matsuyuki Ame RK657 Ogura Yui Yuuma PotatoDew Nijika Ijichi Potatoritos
BeatmapID:3755947
BeatmapSetID:1810591

[Difficulty]
HPDrainRate:6
CircleSize:4
OverallDifficulty:8.6
ApproachRate:9.4
SliderMultiplier:2.9
SliderTickRate:1

[Events]
//Background and Video events
0,0,"bg.jpg",0,0
//Break Periods
2,74625,77610
//Storyboard Layer 0 (Background)
//Storyboard Layer 1 (Fail)
//Storyboard Layer 2 (Pass)
//Storyboard Layer 3 (Foreground)
//Storyboard Layer 4 (Overlay)
//Storyboard Sound Samples

[TimingPoints]
1187,413.793103448276,4,2,1,75,1,0
1187,-232.558139534884,4,2,1,75,0,0
4497,-125,4,2,1,75,0,0
10911,-125,4,2,1,55,0,0
13549,-125,4,2,1,5,0,0
13600,-125,4,2,1,55,0,0
13911,-125,4,2,1,5,0,0
14014,-125,4,2,1,55,0,0
16290,-71.4285714285714,4,2,1,55,0,0
17324,-212.765957446809,4,2,1,55,0,0
17738,-125,4,2,1,60,0,0
19290,-125,4,2,1,5,0,0
19393,-125,4,2,1,60,0,0
20531,-125,4,2,1,5,0,0
20635,-125,4,2,1,60,0,0
20738,-125,4,2,1,5,0,0
20842,-125,4,2,1,60,0,0
20945,-125,4,2,1,5,0,0
21049,-125,4,2,1,60,0,0
22600,-125,4,2,1,5,0,0
22704,-125,4,2,1,60,0,0
23842,-125,4,2,1,5,0,0
23945,-125,4,2,1,60,0,0
24049,-125,4,2,1,5,0,0
24152,-125,4,2,1,60,0,0
24255,-125,4,2,1,5,0,0
24359,-125,4,2,1,60,0,0
25290,-125,4,2,1,5,0,0
25393,-125,4,2,1,60,0,0
27669,-83.3333333333333,4,2,1,60,0,0
29531,-71.4285714285714,4,2,1,60,0,0
30566,-212.765957446809,4,2,1,60,0,0
30980,-90.9090909090909,4,2,1,70,0,0
31290,-90.9090909090909,4,2,1,60,0,0
32428,-90.9090909090909,4,2,1,65,0,0
34290,-90.9090909090909,4,2,1,70,0,0
34496,-90.9090909090909,4,2,1,60,0,0
36100,-90.9090909090909,4,2,1,60,0,0
36152,-90.9090909090909,4,2,1,60,0,0
37600,-90.9090909090909,4,2,1,70,0,0
38014,-90.9090909090909,4,2,1,60,0,0
40083,-83.3333333333333,4,2,1,60,0,0
40911,-80,4,2,1,75,0,0
41066,-80,4,2,1,5,0,0
41117,-80,4,2,1,65,0,0
41687,-80,4,2,1,65,0,0
41738,-74.0740740740741,4,2,1,75,0,0
41893,-74.0740740740741,4,2,1,5,0,0
41944,-74.0740740740741,4,2,1,65,0,0
42514,-74.0740740740741,4,2,1,65,0,0
42566,-68.9655172413793,4,2,1,75,0,0
42721,-68.9655172413793,4,2,1,5,0,0
42772,-68.9655172413793,4,2,1,65,0,0
43393,-68.9655172413793,4,2,1,70,0,0
43599,-68.9655172413793,4,2,1,65,0,0
43807,-66.6666666666667,4,2,1,70,0,0
44013,-66.6666666666667,4,2,1,65,0,0
44221,-66.6666666666667,4,2,1,75,0,0
44324,-66.6666666666667,4,2,1,5,0,0
44428,-66.6666666666667,4,2,1,70,0,0
44531,-66.6666666666667,4,2,1,5,0,0
44635,-66.6666666666667,4,2,1,70,0,0
44738,-66.6666666666667,4,2,1,5,0,0
44842,-66.6666666666667,4,2,1,70,0,0
44945,-66.6666666666667,4,2,1,5,0,0
45049,-50,4,2,1,80,0,0
45152,-50,4,2,1,5,0,0
45876,750,4,2,3,30,1,0
46251,600,4,2,3,45,1,0
46551,400,4,2,3,55,1,0
46951,375,4,2,3,60,1,0
47138,363.636363636364,4,2,3,65,1,0
47299,428.571428571429,4,2,3,55,1,0
47299,-100,4,2,3,55,0,0
47533,845.070422535211,4,2,3,60,1,0
47533,-166.666666666667,4,2,3,60,0,0
47744,-166.666666666667,4,2,3,75,0,0
48166,-166.666666666667,4,2,3,5,0,0
48378,-166.666666666667,4,2,3,55,0,0
49011,-166.666666666667,4,2,3,5,0,0
49223,-166.666666666667,4,2,3,60,0,0
49856,750,4,2,3,55,1,0
50043,800,4,2,3,50,1,0
50043,-125,4,2,3,50,0,0
50843,857.142857142857,4,2,3,60,1,0
51057,-100,4,2,3,5,0,0
51271,800,4,2,3,55,1,0
51470,-100,4,2,3,5,0,0
51655,857.142857142857,4,2,3,45,1,0
51655,-100,4,2,3,45,0,0
51869,-100,4,2,3,5,0,0
52083,-100,4,2,3,35,0,0
52297,-100,4,2,3,5,0,0
52512,810.810810810811,4,2,3,20,1,0
52512,-100,4,2,3,20,0,0
52528,-125,4,2,3,20,0,0
53322,-128.205128205128,4,2,3,60,0,0
53744,789.473684210526,4,2,3,55,1,0
54126,857.142857142857,4,2,3,65,1,0
54126,-166.666666666667,4,2,3,65,0,0
54768,-166.666666666667,4,2,3,5,0,0
54983,833.333333333333,4,2,3,60,1,0
54983,-166.666666666667,4,2,3,60,0,0
55608,-100,4,2,3,5,0,0
55816,800,4,2,3,65,1,0
55816,-172.413793103448,4,2,3,65,0,0
56628,857.142857142857,4,2,3,45,1,0
57056,833.333333333333,4,2,3,70,1,0
57472,416.666666666667,4,2,1,75,1,0
57472,-100,4,2,3,55,0,0
57888,-100,4,2,3,60,0,0
58722,-100,4,2,3,55,0,0
59139,-100,4,2,3,45,0,0
59944,413.793103448276,4,2,3,65,1,0
59944,-250,4,2,3,65,0,0
60357,-250,4,2,3,70,0,0
60771,413.793103448276,4,2,3,75,1,0
60771,-285.714285714286,4,2,3,75,0,0
61598,-285.714285714286,4,2,3,55,0,0
62426,-200,4,2,3,60,0,0
63046,-200,4,2,3,65,0,0
63253,-200,4,2,3,55,0,0
63459,-200,4,2,3,5,0,0
63667,-200,4,2,3,60,0,0
63873,-200,4,2,3,5,0,0
64081,-200,4,2,3,40,0,0
64495,-200,4,2,3,65,0,0
64908,-200,4,2,3,70,0,0
65322,-200,4,2,3,55,0,0
65528,-200,4,2,3,5,0,0
65736,-200,4,2,3,65,0,0
65942,-200,4,2,3,5,0,0
66150,-200,4,2,3,30,0,0
66564,-200,4,2,3,45,0,0
66977,-200,4,2,3,55,0,0
67391,-200,4,2,3,65,0,0
68011,-200,4,2,3,5,0,0
68219,-285.714285714286,4,2,3,70,0,0
68632,-285.714285714286,4,2,3,5,0,0
69046,-333.333333333333,4,2,3,75,0,0
69459,-333.333333333333,4,2,3,5,0,0
69874,-333.333333333333,4,2,3,15,0,0
70288,-333.333333333333,4,2,3,25,0,0
70702,-250,4,2,3,35,0,0
71426,-250,4,2,3,5,0,0
71529,-250,4,2,3,25,0,0
72357,-500,4,2,3,30,0,0
73081,-500,4,2,3,5,0,0
73184,-500,4,2,3,20,0,0
73753,-500,4,2,3,15,0,0
78150,-100,4,2,3,15,0,0
78771,-100,4,2,1,75,0,0
78874,-100,4,2,1,5,0,0
78977,-71.4285714285714,4,2,1,80,0,0
79183,-71.4285714285714,4,2,1,70,0,0
79391,-80,4,2,1,70,0,0
80633,-71.4285714285714,4,2,1,70,0,0
80788,-71.4285714285714,4,2,1,70,0,0
80839,-76.9230769230769,4,2,1,70,0,0
81874,-80,4,2,1,70,0,0
82288,-71.4285714285714,4,2,1,80,0,0
82494,-71.4285714285714,4,2,1,70,0,0
82702,-80,4,2,1,70,0,0
83943,-71.4285714285714,4,2,1,70,0,0
84098,-71.4285714285714,4,2,1,70,0,0
84150,-76.9230769230769,4,2,1,70,0,0
85184,-80,4,2,1,70,0,0
85598,-80,4,2,1,80,0,0
85804,-80,4,2,1,70,0,0
86012,-80,4,2,1,70,0,0
87408,-80,4,2,1,70,0,0
87460,-80,4,2,1,70,0,0
87667,-74.0740740740741,4,2,1,70,0,0
87822,-74.0740740740741,4,2,1,70,0,0
87874,-74.0740740740741,4,2,1,70,0,0
88081,-66.6666666666667,4,2,1,70,0,0
88495,-80,4,2,1,70,0,0
88908,-62.5,4,2,1,80,0,0
89115,-76.9230769230769,4,2,1,70,0,0
90564,-76.9230769230769,4,2,1,70,0,0
91391,-62.5,4,2,1,70,0,0
91805,-76.9230769230769,4,2,1,70,0,0
92219,-76.9230769230769,4,2,1,80,0,0
92426,-76.9230769230769,4,2,1,75,0,0
92633,-166.666666666667,4,2,1,75,0,0
93046,-166.666666666667,4,2,1,80,0,0
93253,-166.666666666667,4,2,1,75,0,0
93874,-62.5,4,2,1,70,0,0
94133,-62.5,4,2,1,5,0,0
94184,-62.5,4,2,1,75,0,0
94443,-62.5,4,2,1,5,0,0
94495,-62.5,4,2,1,80,0,0
94650,-62.5,4,2,1,5,0,0
94702,-55.5555555555556,4,2,1,85,0,0
94805,-58.8235294117647,4,2,1,5,0,0
94908,-58.8235294117647,4,2,1,5,0,0

[Colours]
Combo1 : 185,250,255
Combo2 : 255,187,157
Combo3 : 252,192,186
Combo4 : 155,251,172

[HitObjects]
75,101,1187,6,0,B|-23:149|-89:38|-30:-40|104:-33|141:38|143:140|98:148|70:158|103:221|171:326|355:377|562:219|275:-124|79:21|81:161|42:224|116:297,1,935.250014270783,0|0,2:0|2:0,0:0:0:0:
236,384,4497,5,6,2:1:0:0:
244,311,4704,1,0,2:0:0:0:
507,259,5945,5,0,2:0:0:0:
494,187,6152,1,6,2:1:0:0:
481,115,6359,1,0,2:0:0:0:
161,106,7600,5,0,2:0:0:0:
161,98,7704,1,0,0:0:0:0:
162,90,7807,1,6,2:1:0:0:
168,17,8014,1,0,2:0:0:0:
387,281,9255,5,0,2:0:0:0:
374,209,9462,1,6,2:1:0:0:
361,137,9669,1,0,2:0:0:0:
361,137,10290,5,0,2:0:0:0:
194,284,10600,1,0,2:0:0:0:
188,299,10704,1,0,2:0:0:0:
100,224,10911,1,0,2:0:0:0:
307,287,11118,6,0,P|307:342|220:365,1,154.666666666667,6|0,2:1|2:0,2:0:0:0:
188,299,11462,1,0,2:0:0:0:
179,306,11531,2,0,P|116:329|46:337,1,116,0|0,2:0|2:0,0:0:0:0:
128,77,11945,6,0,P|199:85|211:156,1,154.666666666667,2|0,2:0|2:0,2:0:0:0:
162,213,12290,1,0,2:0:0:0:
156,221,12359,2,0,P|98:230|44:251,1,116,0|0,2:0|2:0,0:0:0:0:
128,77,12773,5,2,2:0:0:0:
313,171,12980,1,0,2:0:0:0:
349,111,13083,1,0,2:0:0:0:
293,68,13187,1,0,2:0:0:0:
156,221,13393,1,0,2:0:0:0:
349,111,13600,2,0,B|500:146|500:146|462:75,1,232,2|2,2:0|2:0,2:0:0:0:
459,67,14221,1,2,2:0:0:0:
256,218,14428,5,6,2:1:0:0:
256,229,14635,1,0,2:0:0:0:
256,241,14842,1,0,2:0:0:0:
256,252,15049,1,0,2:0:0:0:
256,264,15255,1,2,2:0:0:0:
256,374,15462,1,0,2:0:0:0:
256,363,15566,1,0,0:0:0:0:
256,351,15669,1,0,2:0:0:0:
256,73,15876,1,0,2:0:0:0:
256,73,16290,6,0,B|291:50|244:20|240:21|237:21|274:51|246:86,1,101.499996902466,8|0,2:3|0:0,2:0:0:0:
149,239,16497,6,0,B|106:235|127:288|129:289|132:291|120:244|164:232,1,101.499996902466,8|0,2:3|0:0,2:0:0:0:
333,167,16704,6,0,B|365:193|378:138|377:135|375:133|358:177|316:161,1,101.499996902466,8|0,2:3|0:0,2:0:0:0:
141,116,16911,6,0,B|130:73|87:110|86:113|86:116|125:91|151:128,1,101.499996902466,8|0,2:3|0:0,2:0:0:0:
267,270,17324,6,0,B|252:310|308:307|311:304|313:302|266:299|268:253,1,102.22499844017,8|0,2:3|0:0,2:0:0:0:
378,335,17738,6,0,P|296:320|232:378,1,174,6|0,1:0|2:0,2:0:0:0:
175,319,18152,2,0,P|128:280|154:236,1,116,8|0,2:0|2:0,2:0:0:0:
357,76,18566,6,0,P|420:112|405:176,1,116,0|0,1:0|2:0,2:0:0:0:
417,163,18842,1,0,2:0:0:0:
413,169,18911,1,0,2:0:0:0:
406,173,18980,2,0,P|353:199|361:258,1,116,8|0,2:0|2:0,0:0:0:0:
208,69,19393,5,0,1:0:0:0:
193,178,19600,1,0,2:0:0:0:
85,197,19807,1,8,2:0:0:0:
33,99,20014,1,0,2:0:0:0:
109,20,20221,1,0,1:0:0:0:
109,20,20635,5,8,2:0:0:0:
85,197,20842,1,0,2:0:0:0:
309,125,21049,6,0,P|229:107|199:197,1,174,6|0,1:0|2:0,2:0:0:0:
140,257,21462,2,0,P|207:261|243:305,1,116,8|0,2:0|2:0,2:0:0:0:
488,382,21876,6,0,P|495:323|467:250,1,116,0|0,1:0|2:0,2:0:0:0:
470,261,22152,1,0,2:0:0:0:
463,256,22221,1,0,2:0:0:0:
458,251,22290,2,0,P|442:195|449:138,1,116,8|0,2:0|2:0,0:0:0:0:
308,8,22704,5,0,1:0:0:0:
332,185,22911,1,0,2:0:0:0:
209,57,23118,1,8,2:0:0:0:
384,87,23324,1,0,2:0:0:0:
224,166,23531,1,0,1:0:0:0:
224,166,23945,5,8,2:0:0:0:
384,87,24152,1,0,2:0:0:0:
160,0,24359,6,0,P|110:37|135:147,1,174,6|0,1:0|2:0,2:0:0:0:
75,195,24773,2,0,P|16:174|31:124,1,116,8|0,2:0|2:0,2:0:0:0:
240,159,25187,2,0,P|230:218|222:287,1,116,0|0,1:0|2:0,2:0:0:0:
214,273,25462,1,0,0:0:0:0:
206,272,25531,1,0,0:0:0:0:
198,270,25600,2,0,P|188:329|180:398,1,116,8|0,2:0|2:0,0:0:0:0:
469,193,26014,5,0,1:0:0:0:
409,107,26221,1,0,2:0:0:0:
305,94,26428,1,8,2:0:0:0:
228,164,26635,1,0,2:0:0:0:
218,155,26842,5,0,1:0:0:0:
303,78,27049,1,0,2:0:0:0:
418,92,27256,1,8,2:0:0:0:
484,187,27463,1,0,2:0:0:0:
370,357,27669,6,0,L|383:259,1,86.9999973449708,14|0,2:1|2:0,2:0:0:0:
355,154,27876,1,8,2:3:0:0:
358,165,27945,1,0,0:0:0:0:
361,176,28014,1,0,0:0:0:0:
364,187,28083,1,0,0:0:0:0:
381,270,28290,1,0,0:0:0:0:
115,290,28497,6,0,L|102:192,1,86.9999973449708,14|0,2:1|2:0,2:0:0:0:
130,87,28704,1,8,2:3:0:0:
127,98,28773,1,0,0:0:0:0:
124,109,28842,1,0,0:0:0:0:
121,120,28911,1,0,0:0:0:0:
104,203,29118,1,0,0:0:0:0:
104,203,29531,6,0,B|41:175|74:110|113:155|66:197,1,101.499996902466,8|0,2:3|0:0,2:0:0:0:
312,264,29738,6,0,B|375:236|342:171|303:216|350:258,1,101.499996902466,8|0,2:3|0:0,2:0:0:0:
229,323,29945,6,0,B|166:295|199:230|238:275|191:317,1,101.499996902466,8|0,2:3|0:0,2:0:0:0:
438,164,30152,6,0,B|501:136|468:71|429:116|476:158,1,101.499996902466,8|0,2:3|0:0,2:0:0:0:
261,14,30566,6,0,B|198:42|231:107|270:62|222:18,1,102.22499844017,8|0,2:3|0:0,2:0:0:0:
319,115,30980,6,0,P|247:90|136:81,1,159.500004867554,6|8,2:1|2:0,2:0:0:0:
98,29,31290,1,8,2:0:0:0:
148,168,31393,1,0,1:0:0:0:
148,168,31600,2,0,P|98:176|54:194,1,79.7500024337769,8|0,2:0|0:0,0:0:0:0:
300,257,31807,5,2,1:0:0:0:
225,331,31911,2,0,P|198:294|211:235,1,79.7500024337769,8|0,2:0|2:0,2:0:0:0:
402,261,32118,5,8,2:0:0:0:
327,187,32222,2,0,P|300:224|313:283,1,79.7500024337769,0|0,1:0|2:0,2:0:0:0:
464,364,32428,2,0,P|519:284|503:206,1,159.500004867554,8|2,2:0|1:0,2:0:0:0:
508,218,32842,5,8,2:0:0:0:
429,164,32945,1,8,2:0:0:0:
455,71,33049,2,0,B|495:87|495:87|528:57,1,79.7500024337769,0|0,1:0|2:0,2:0:0:0:
327,187,33255,2,0,B|287:171|287:171|254:201,1,79.7500024337769,8|0,2:0|2:0,2:0:0:0:
58,70,33462,5,2,1:0:0:0:
123,6,33566,2,0,P|151:51|144:93,1,79.7500024337769,8|0,2:0|0:0,2:0:0:0:
55,170,33773,1,8,2:0:0:0:
45,188,33876,2,0,P|47:227|72:258,1,79.7500024337769,0|0,1:0|2:0,2:0:0:0:
207,141,34083,2,0,P|214:179|198:215,1,79.7500024337769,8|0,2:0|2:0,2:0:0:0:
83,371,34290,6,0,P|171:330|248:317,1,159.500004867554,6|8,2:1|2:0,2:0:0:0:
305,334,34600,1,8,2:0:0:0:
144,260,34704,1,0,1:0:0:0:
144,260,34911,2,0,P|178:223|221:226,1,79.7500024337769,8|0,2:0|0:0,2:0:0:0:
438,126,35118,5,2,1:0:0:0:
359,76,35221,2,0,P|354:41|391:12,1,79.7500024337769,8|0,2:0|2:0,0:0:0:0:
510,158,35428,5,8,2:0:0:0:
467,224,35531,2,0,P|432:229|402:192,1,79.7500024337769,0|0,1:0|2:0,2:0:0:0:
298,124,35738,2,0,P|258:118|222:143,1,79.7500024337769,8|0,2:0|2:0,2:0:0:0:
422,375,35945,6,0,P|453:309|510:303,1,119.625003650665,2|0,1:0|0:0,2:0:0:0:
511,304,36152,1,8,2:0:0:0:
391,204,36255,1,8,2:0:0:0:
322,284,36359,2,0,P|331:329|341:375,1,79.7500024337769,0|0,1:0|2:0,2:0:0:0:
188,226,36566,2,0,P|197:271|207:317,1,79.7500024337769,8|0,2:0|2:0,2:0:0:0:
0,360,36773,5,2,1:0:0:0:
75,286,36876,2,0,L|113:108,1,159.500004867554,8|8,2:0|2:0,2:0:0:0:
32,69,37187,2,0,P|1:98|12:136,1,79.7500024337769,0|0,1:0|2:0,2:0:0:0:
176,225,37393,2,0,P|207:196|196:158,1,79.7500024337769,8|0,2:0|2:0,2:0:0:0:
386,2,37600,6,0,P|374:47|366:97,1,79.7500024337769,6|0,2:1|0:0,2:0:0:0:
314,216,37807,1,8,2:0:0:0:
407,261,37911,1,8,2:0:0:0:
475,184,38014,1,0,1:0:0:0:
475,184,38221,2,0,P|436:162|384:161,1,79.7500024337769,8|0,2:0|0:0,2:0:0:0:
217,315,38428,5,2,1:0:0:0:
283,371,38531,2,0,P|301:323|297:275,1,79.7500024337769,8|0,2:0|2:0,0:0:0:0:
78,224,38738,5,8,2:0:0:0:
161,156,38841,2,0,P|179:204|175:252,1,79.7500024337769,0|0,1:0|2:0,2:0:0:0:
1,364,39049,2,0,B|67:313|67:313|152:344,1,159.500004867554,8|0,2:0|0:0,2:0:0:0:
504,312,39462,5,8,2:0:0:0:
508,300,39566,1,8,2:0:0:0:
423,197,39669,2,0,P|395:238|404:281,1,79.7500024337769,0|0,1:0|2:0,2:0:0:0:
280,90,39876,2,0,P|322:67|388:74,1,79.7500024337769,8|0,2:0|2:0,2:0:0:0:
276,277,40083,6,0,B|186:291|199:228|110:247,1,173.999994689942,2|0,1:0|2:0,0:0:0:0:
0,145,40393,1,8,2:0:0:0:
96,65,40497,2,0,B|130:100|130:100|112:163,1,86.9999973449708,0|0,1:0|2:0,2:0:0:0:
35,316,40704,2,0,B|25:273|25:273|24:259|24:259|12:196,1,86.9999973449708,8|0,2:0|2:0,2:0:0:0:
263,16,40911,6,0,B|280:54|280:54|231:143|231:143|247:200,1,181.25,6|8,2:1|2:0,2:0:0:0:
276,277,41221,1,8,2:0:0:0:
408,174,41324,2,0,P|361:162|320:155,1,90.625,0|0,2:0|2:0,2:0:0:0:
202,340,41531,2,0,P|249:356|340:374,1,135.9375,8|0,2:0|0:0,2:0:0:0:
410,356,41738,6,0,B|441:368|441:368|412:270|412:270|352:301,1,195.750000746727,6|8,2:1|2:0,2:0:0:0:
319,154,42049,1,8,2:0:0:0:
478,227,42152,2,0,B|486:186|486:186|504:165|504:165|514:116,1,97.8750003733635,0|0,2:0|2:0,2:0:0:0:
269,266,42359,2,0,B|231:281|231:281|162:260|162:260|128:273,1,146.812500560045,8|0,2:0|0:0,2:0:0:0:
63,201,42566,6,0,B|106:218|150:231|150:231|169:177|169:177|174:168|174:168|194:110,1,210.250006416321,6|8,2:1|2:0,2:0:0:0:
21,4,42876,1,8,2:0:0:0:
103,134,42980,2,0,B|60:102|60:102|7:121,1,105.125003208161,0|0,1:0|2:0,2:0:0:0:
72,327,43187,2,0,B|115:359|115:359|168:340,1,105.125003208161,8|8,2:0|2:0,2:0:0:0:
375,147,43393,6,0,B|329:96|329:96|161:124,1,210.250006416321,2|8,2:1|2:0,2:0:0:0:
190,120,43704,1,0,2:0:0:0:
326,2,43807,6,0,L|288:233,1,217.500008296967,10|8,2:0|2:0,2:0:0:0:
272,339,44118,1,8,2:0:0:0:
445,266,44221,6,0,B|482:201|378:192|421:250|451:239,1,108.750004148483,6|0,2:1|2:0,2:0:0:0:
145,174,44428,2,0,B|113:112|217:103|174:161|144:150,1,108.750004148483,10|0,2:0|2:0,2:0:0:0:
433,362,44635,6,0,B|497:399|507:295|449:338|460:367,1,108.750004148483,10|0,2:0|2:0,2:0:0:0:
104,288,44842,2,0,B|41:320|32:216|90:259|79:289,1,108.750004148483,10|0,2:0|2:0,2:0:0:0:
275,194,45049,6,0,P|275:219|269:194,1,72.5,10|0,2:0|0:0,2:0:0:0:
275,194,45876,5,2,2:0:0:0:
231,74,46251,5,2,2:0:0:0:
125,47,46551,5,2,2:0:0:0:
50,116,46751,5,2,2:0:0:0:
68,197,46951,5,2,2:0:0:0:
121,223,47138,5,2,2:0:0:0:
153,206,47299,5,0,0:0:0:0:
155,174,47533,6,0,P|89:234|89:326,1,173.999994689942,2|2,2:0|2:0,2:0:0:0:
354,369,49223,2,0,P|354:294|305:309,1,130.499996017456,2|2,2:0|2:0,2:0:0:0:
308,304,49949,1,0,2:0:0:0:
308,304,50043,2,0,P|255:257|269:218,1,116,2|2,2:0|2:0,2:0:0:0:
495,138,50843,5,2,2:0:0:0:
350,216,51271,1,2,2:0:0:0:
421,68,51655,1,0,0:0:0:0:
450,230,52083,1,0,0:0:0:0:
332,116,52512,1,0,0:0:0:0:
332,116,53322,5,0,0:0:0:0:
232,224,53744,1,2,2:0:0:0:
45,60,54126,6,0,P|114:80|93:185,1,173.999994689942
46,300,55816,2,0,P|117:264|222:263,1,171.099993995209,0|2,0:0|2:0,0:0:0:0:
208,260,57056,1,2,2:0:0:0:
320,345,57472,5,2,2:0:0:0:
419,364,57889,1,2,2:0:0:0:
469,276,58306,1,2,2:0:0:0:
401,201,58722,1,2,2:0:0:0:
307,243,59139,1,2,2:0:0:0:
307,243,59944,6,0,L|290:174,1,58,2|0,2:0|0:0,0:0:0:0:
351,119,60357,2,0,L|334:50,1,58,2|0,2:0|0:0,0:0:0:0:
162,3,60771,6,0,P|76:45|82:106,1,152.249995353699,2|0,2:0|0:0,2:0:0:0:
112,250,61598,2,0,P|34:264|38:191,1,152.249995353699,2|0,2:0|0:0,0:0:0:0:
189,151,62426,6,0,P|306:174|429:208,1,217.5,2|2,2:0|2:0,2:0:0:0:
470,222,63150,1,2,2:0:0:0:
482,227,63253,1,0,2:0:0:0:
368,336,63667,1,2,2:0:0:0:
484,144,64081,5,2,2:0:0:0:
430,40,64495,1,2,2:0:0:0:
315,26,64908,1,2,2:0:0:0:
233,109,65322,1,2,2:0:0:0:
131,306,65736,5,2,2:0:0:0:
185,202,66150,1,2,2:0:0:0:
300,188,66563,1,2,2:0:0:0:
382,271,66977,1,2,2:0:0:0:
246,384,67391,6,0,P|258:266|271:142,1,217.5,2|0,2:0|2:0,2:0:0:0:
242,66,68219,2,0,P|172:79|180:156,1,152.249995353699,2|0,2:0|0:0,2:0:0:0:
32,239,69046,2,0,P|49:182|109:202,1,130.499996017456,2|0,2:0|0:0,2:0:0:0:
80,309,69874,1,2,2:0:0:0:
197,381,70288,1,2,2:0:0:0:
280,228,70702,6,0,B|351:186|393:252|374:262|420:332|497:281,1,232,2|0,2:0|2:0,2:0:0:0:
360,384,72357,6,0,P|386:238|412:96,1,290,2|2,2:0|2:0,2:0:0:0:
284,68,78150,6,0,B|300:58|305:10|254:-23|173:21|167:121|225:204|234:170|249:174|322:241|336:384|229:430|170:389|181:296|225:303,1,507.5
349,226,78977,6,0,B|404:193|436:257|417:259|447:340|515:314,1,202.999993804932,6|8,2:1|2:0,2:0:0:0:
509,308,79288,1,0,0:0:0:0:
386,377,79391,2,0,P|346:383|350:341,2,90.625,8|8|0,2:0|2:0|2:0,0:0:0:0:
512,99,79805,6,0,B|428:55|428:55|365:134,1,181.25,10|0,2:0|2:0,2:0:0:0:
304,70,80081,1,0,0:0:0:0:
298,59,80150,1,0,0:0:0:0:
303,47,80219,2,0,B|348:26|348:26|379:59,1,90.625,0|0,1:0|2:0,2:0:0:0:
357,207,80426,2,0,B|312:228|312:228|281:195,1,90.625,8|0,2:0|2:0,2:0:0:0:
47,42,80633,6,0,B|61:100|61:100|92:129|92:129|107:196,1,152.249995353699,2|0,1:0|0:0,2:0:0:0:
174,145,80839,2,0,P|134:111|92:131,1,94.2499956855776,8|0,2:0|2:0,2:0:0:0:
21,182,81046,1,0,1:0:0:0:
142,263,81150,1,8,2:0:0:0:
88,358,81253,1,8,2:0:0:0:
86,370,81460,6,0,P|157:303|249:328,1,188.499991371155,10|0,2:0|2:0,2:0:0:0:
251,331,81771,1,8,2:0:0:0:
228,194,81874,2,0,P|266:227|321:225,1,90.625,0|0,1:0|2:0,2:0:0:0:
414,100,82081,2,0,P|366:114|371:161,1,90.625,8|0,2:0|2:0,2:0:0:0:
488,352,82288,6,0,B|508:326|508:326|489:243|489:243|459:219|459:219|442:147,1,202.999993804932,6|8,2:1|2:0,2:0:0:0:
455,168,82598,1,0,0:0:0:0:
326,262,82702,2,0,B|367:242|367:242|393:281,2,90.625,8|8|0,2:0|2:0|2:0,0:0:0:0:
96,69,83115,6,0,B|160:55|160:55|199:12|199:12|269:-3,1,181.25,10|0,2:0|2:0,2:0:0:0:
308,56,83391,1,0,0:0:0:0:
313,67,83460,1,0,0:0:0:0:
307,77,83529,2,0,P|278:110|224:99,1,90.625,0|0,1:0|2:0,2:0:0:0:
62,144,83736,2,0,P|112:156|157:170,1,90.625,8|0,2:0|2:0,2:0:0:0:
316,355,83943,6,0,B|302:316|284:283|284:283|240:301|183:328,1,152.249995353699,2|0,1:0|0:0,2:0:0:0:
154,372,84150,2,0,P|128:331|148:275,1,94.2499956855776,8|0,2:0|2:0,2:0:0:0:
288,195,84357,1,0,1:0:0:0:
388,294,84460,1,8,2:0:0:0:
323,363,84564,1,8,2:0:0:0:
331,371,84771,6,0,P|400:295|327:200,1,188.499991371155,10|0,2:0|2:0,2:0:0:0:
198,113,85081,1,8,2:0:0:0:
264,20,85184,2,0,P|302:58|296:107,1,90.625,0|0,1:0|2:0,2:0:0:0:
141,210,85391,2,0,P|103:172|109:125,1,90.625,8|0,2:0|2:0,2:0:0:0:
291,293,85598,6,0,B|185:320|185:320|176:360|142:374,1,181.25,6|8,2:1|2:0,2:0:0:0:
131,376,85908,1,0,0:0:0:0:
30,267,86012,2,0,P|24:234|42:261,2,90.625,8|8|0,2:0|2:0|2:0,0:0:0:0:
313,128,86426,6,0,B|352:116|352:116|452:159|452:159|498:145,1,181.25,10|0,2:0|2:0,0:0:0:0:
458,76,86702,1,0,0:0:0:0:
453,63,86771,1,0,0:0:0:0:
443,56,86839,2,0,P|393:59|372:106,1,90.625,0|0,1:0|0:0,2:0:0:0:
430,289,87046,2,0,B|479:297|479:297|515:264,1,90.625,8|0,2:0|0:0,0:0:0:0:
242,202,87253,6,0,P|173:215|96:231,1,135.9375,2|0,1:0|0:0,2:0:0:0:
120,305,87460,2,0,P|148:301|166:231,1,90.625,8|0,2:0|2:0,2:0:0:0:
265,25,87667,6,0,P|197:38|112:54,1,146.812500560045,8|0,2:0|0:0,2:0:0:0:
55,84,87874,2,0,P|44:139|76:163,1,97.8750003733635,0|0,1:0|2:0,2:0:0:0:
235,384,88081,6,0,B|198:285|299:270|259:171,1,217.500008296967,10|0,2:0|2:0,2:0:0:0:
316,125,88357,1,0,0:0:0:0:
328,127,88426,1,0,0:0:0:0:
337,135,88495,2,0,P|369:182|333:218,1,90.625,0|0,1:0|2:0,2:0:0:0:
120,305,88702,2,0,P|132:263|173:249,1,90.625,8|0,2:0|2:0,2:0:0:0:
500,369,88908,6,0,B|521:295|521:295|420:329,1,174,6|0,2:1|0:0,2:0:0:0:
379,384,89115,2,0,B|337:354|337:354|350:296,1,94.2499956855776,8|0,2:0|0:0,0:0:0:0:
400,144,89322,1,0,1:0:0:0:
438,246,89426,1,8,2:0:0:0:
333,300,89529,1,0,2:0:0:0:
343,290,89736,6,0,P|262:290|178:369,1,188.499991371155,10|0,2:0|2:0,2:0:0:0:
120,305,90012,1,0,0:0:0:0:
124,291,90081,1,0,0:0:0:0:
135,284,90150,2,0,P|184:285|213:322,1,94.2499956855776,2|0,1:0|2:0,2:0:0:0:
310,155,90357,2,0,P|261:164|262:210,1,94.2499956855776,10|0,2:0|2:0,2:0:0:0:
104,43,90564,6,0,P|57:50|12:61,1,94.2499956855776,2|0,1:0|2:0,2:0:0:0:
43,200,90771,2,0,P|98:188|153:180,1,94.2499956855776,10|0,2:0|2:0,2:0:0:0:
406,79,90977,6,0,P|453:86|498:97,1,94.2499956855776,8|8,2:0|2:0,0:0:0:0:
463,274,91184,2,0,P|408:262|353:254,1,94.2499956855776,0|0,2:0|2:0,2:0:0:0:
252,6,91391,6,0,B|270:25|270:25|234:196|234:196|252:221,1,232,10|2,2:0|1:0,2:0:0:0:
323,378,91702,1,8,2:0:0:0:
170,283,91805,2,2,B|208:316|208:316|259:300,1,94.2499956855776,10|0,2:0|2:0,2:0:0:0:
470,197,92012,2,0,B|432:164|432:164|381:180,1,94.2499956855776,10|0,2:0|2:0,2:0:0:0:
40,363,92219,5,6,2:1:0:0:
182,48,92426,1,8,2:0:0:0:
184,61,92495,1,0,0:0:0:0:
187,74,92564,1,0,0:0:0:0:
190,87,92633,6,0,L|179:148,1,43.4999986724854
115,229,92839,2,0,L|104:290,1,43.4999986724854,0|0,2:0|0:0,0:0:0:0:
40,363,93046,5,6,2:1:0:0:
190,87,93253,1,8,2:0:0:0:
187,74,93322,1,0,0:0:0:0:
184,61,93391,1,0,0:0:0:0:
182,48,93460,6,0,L|171:-13,1,43.4999986724854
115,229,93667,2,0,L|104:168,1,43.4999986724854,0|0,2:0|0:0,0:0:0:0:
350,135,93874,6,0,B|452:93|421:236|537:234|507:66|426:167,1,232,2|0,2:0|0:0,2:0:0:0:
287,295,94184,6,0,B|229:421|93:338|183:249|215:289,1,232,2|0,2:0|0:0,2:0:0:0:
443,360,94495,6,0,P|491:376|525:328,1,116,2|0,2:0|0:0,2:0:0:0:
350,135,94702,6,0,B|316:219|385:256|399:237|470:274|438:358,1,260.999992034912,2|0,2:0|0:0,2:0:0:0:
