osu file format v14

[General]
AudioFilename: audio.ogg
AudioLeadIn: 0
PreviewTime: 17652
Countdown: 0
SampleSet: Soft
StackLeniency: 0.7
Mode: 3
LetterboxInBreaks: 0
SpecialStyle: 0
WidescreenStoryboard: 0

[Editor]
DistanceSpacing: 0.6
BeatDivisor: 4
GridSize: 32
TimelineZoom: 2.3

[Metadata]
Title:Blossoms of Summer Night
TitleUnicode:硝华流焰
Artist:HOYO-MiX
ArtistUnicode:HOYO-MiX
Creator:Damaree
Version:Matsuri No Kaishi Ya!
Source:Genshin Impact
Tags:FAMoss JooF12 mihoyo hoyoverse inazuma ost naganohara yoimiya theme The Stellar Moments Vol. 2 硝華流焰 満開の焔硝 Video Games Gacha 苑迪萌 Dimeng Yuan 顾剑楠 Jiannan Gu chinese folk instrumental original soundtrack fireworks
BeatmapID:3562727
BeatmapSetID:1742496

[Difficulty]
HPDrainRate:8
CircleSize:6
OverallDifficulty:8
ApproachRate:5
SliderMultiplier:1.4
SliderTickRate:1

[Events]
//Background and Video events
0,0,"bg.jpg",0,0
//Break Periods
//Storyboard Layer 0 (Background)
//Storyboard Layer 1 (Fail)
//Storyboard Layer 2 (Pass)
//Storyboard Layer 3 (Foreground)
//Storyboard Layer 4 (Overlay)
//Storyboard Sound Samples

[TimingPoints]
1196,413.793103448276,4,2,1,40,1,0
16307,-66.6666666666667,4,2,1,40,0,0
16410,-200,4,2,1,40,0,0
16514,-66.6666666666667,4,2,1,40,0,0
16617,-200,4,2,1,40,0,0
16721,-66.6666666666667,4,2,1,40,0,0
16824,-200,4,2,1,40,0,0
16928,-50,4,2,1,40,0,0
17031,-100,4,2,1,40,0,0
17135,-200,4,2,1,40,0,0
17341,-50,4,2,1,40,0,0
17445,-100,4,2,1,40,0,0
17548,-200,4,2,1,40,0,0
17755,-100,4,2,1,40,0,0
29548,-66.6666666666667,4,2,1,40,0,0
29652,-200,4,2,1,40,0,0
29755,-66.6666666666667,4,2,1,40,0,0
29859,-200,4,2,1,40,0,0
29962,-66.6666666666667,4,2,1,40,0,0
30066,-200,4,2,1,40,0,0
30169,-50,4,2,1,40,0,0
30272,-100,4,2,1,40,0,0
30376,-200,4,2,1,40,0,0
30583,-50,4,2,1,40,0,0
30686,-100,4,2,1,40,0,0
30790,-200,4,2,1,40,0,0
30997,-100,4,2,1,40,0,0

[HitObjects]
128,192,1144,5,0,0:0:0:0:
42,192,1196,128,0,4506:0:0:0:40:LR_J Hit Pong Drop.wav
469,192,2851,1,0,0:0:0:40:LR_J Hit Pong Drop.wav
469,192,3678,1,0,0:0:0:40:LR_J Hit Pong Drop.wav
469,192,4506,128,0,4920:0:0:0:0:
128,192,4506,128,0,4609:0:0:0:40:TomTom1.wav
128,192,4713,128,0,4816:0:0:0:40:TomTom1.wav
213,192,4782,1,0,0:0:0:0:
298,192,4851,1,0,0:0:0:0:
384,192,4920,1,0,0:0:0:0:
384,192,5127,1,0,0:0:0:0:
384,192,5333,1,0,0:0:0:0:
384,192,5540,1,0,0:0:0:0:
298,192,5609,1,0,0:0:0:0:
213,192,5678,1,0,0:0:0:0:
128,192,5747,1,0,0:0:0:0:
128,192,5954,1,0,0:0:0:0:
469,192,5954,1,0,0:0:0:40:TomTom1.wav
42,192,6161,128,0,6575:0:0:0:0:
384,192,6161,128,0,6264:0:0:0:40:TomTom1.wav
384,192,6368,128,0,6471:0:0:0:40:TomTom1.wav
298,192,6437,1,0,0:0:0:0:
213,192,6506,1,0,0:0:0:0:
128,192,6575,1,0,0:0:0:0:
128,192,6782,1,0,0:0:0:0:
128,192,6989,1,0,0:0:0:0:
469,192,7609,1,0,0:0:0:40:TomTom1.wav
213,192,7609,1,0,0:0:0:0:
128,192,7713,1,0,0:0:0:0:
42,192,7816,128,0,8230:0:0:0:0:
384,192,7816,128,0,7920:0:0:0:40:TomTom1.wav
384,192,8023,128,0,8127:0:0:0:40:TomTom1.wav
298,192,8092,1,0,0:0:0:0:
213,192,8161,1,0,0:0:0:0:
128,192,8230,1,0,0:0:0:0:
128,192,8437,1,0,0:0:0:0:
128,192,8644,1,0,0:0:0:0:
128,192,8851,1,0,0:0:0:0:
213,192,8920,1,0,0:0:0:0:
298,192,8989,1,0,0:0:0:0:
384,192,9058,1,0,0:0:0:0:
384,192,9264,1,0,0:0:0:0:
42,192,9264,1,0,0:0:0:40:TomTom1.wav
128,192,9471,128,0,9575:0:0:0:40:TomTom1.wav
469,192,9471,128,0,9885:0:0:0:0:
128,192,9678,128,0,9782:0:0:0:40:TomTom1.wav
213,192,9747,1,0,0:0:0:0:
298,192,9816,1,0,0:0:0:0:
384,192,9885,1,0,0:0:0:0:
384,192,10092,1,0,0:0:0:0:
384,192,10299,1,0,0:0:0:0:
42,192,10575,1,0,0:0:0:0:
128,192,10644,1,0,0:0:0:0:
384,192,10713,1,0,0:0:0:0:
298,192,10782,1,0,0:0:0:0:
213,192,10851,1,0,0:0:0:0:
128,192,10920,1,0,0:0:0:0:
384,192,10989,1,0,0:0:0:0:
298,192,11058,1,0,0:0:0:0:
213,192,11127,1,0,0:0:0:40:TomTom1.wav
469,192,11127,128,0,14023:0:0:0:0:
42,192,11333,1,0,0:0:0:0:
128,192,11402,1,0,0:0:0:0:
213,192,11471,1,0,0:0:0:0:
298,192,11540,1,0,0:0:0:40:TomTom1.wav
384,192,11540,1,0,0:0:0:0:
298,192,11747,1,0,0:0:0:0:
213,192,11747,1,0,0:0:0:40:TomTom1.wav
128,192,11954,1,0,0:0:0:0:
213,192,11954,1,0,0:0:0:40:TomTom1.wav
384,192,12161,1,0,0:0:0:0:
298,192,12230,1,0,0:0:0:0:
213,192,12299,1,0,0:0:0:0:
128,192,12368,1,0,0:0:0:0:
42,192,12368,1,0,0:0:0:40:TomTom1.wav
128,192,12575,1,0,0:0:0:40:TomTom1.wav
213,192,12575,1,0,0:0:0:0:
213,192,12782,1,0,0:0:0:0:
298,192,12782,1,0,0:0:0:40:TomTom1.wav
128,192,12989,1,0,0:0:0:0:
213,192,13058,1,0,0:0:0:0:
298,192,13127,1,0,0:0:0:0:
384,192,13196,1,0,0:0:0:0:
42,192,13196,1,0,0:0:0:40:TomTom1.wav
298,192,13402,1,0,0:0:0:40:TomTom1.wav
128,192,13402,1,0,0:0:0:0:
42,192,13609,1,0,0:0:0:0:
384,192,13609,1,0,0:0:0:40:TomTom1.wav
213,192,13816,1,0,0:0:0:0:
42,192,14023,1,0,0:0:0:0:
128,192,14023,1,0,0:0:0:40:TomTom1.wav
384,192,14230,1,0,0:0:0:40:TomTom1.wav
298,192,14230,128,0,14437:0:0:0:0:
42,192,14437,128,0,16092:0:0:0:0:
213,192,14437,1,0,0:0:0:40:TomTom1.wav
384,192,14644,1,0,0:0:0:40:TomTom1.wav
298,192,14713,1,0,0:0:0:0:
213,192,14782,1,0,0:0:0:0:
469,192,14851,1,0,0:0:0:40:TomTom1.wav
128,192,14851,1,0,0:0:0:0:
384,192,15058,1,0,0:0:0:40:TomTom1.wav
298,192,15058,1,0,0:0:0:0:
469,192,15264,1,0,0:0:0:40:TomTom1.wav
128,192,15264,1,0,0:0:0:0:
213,192,15471,1,0,0:0:0:0:
298,192,15540,1,0,0:0:0:0:
384,192,15609,1,0,0:0:0:0:
469,192,15678,1,0,0:0:0:0:
128,192,15678,1,0,0:0:0:40:TomTom1.wav
213,192,15885,1,0,0:0:0:0:
298,192,15885,1,0,0:0:0:40:TomTom1.wav
298,192,16299,1,0,0:0:0:0:
384,192,16299,1,0,0:0:0:0:
42,192,16299,1,0,0:0:0:0:
469,192,16299,1,0,0:0:0:40:LR_J Hit Pong Drop.wav
298,192,16506,1,0,0:0:0:0:
384,192,16506,1,0,0:0:0:0:
42,192,16506,1,0,0:0:0:0:
469,192,16506,1,0,0:0:0:40:LR_J Hit Pong Drop.wav
213,192,16713,1,0,0:0:0:0:
128,192,16713,1,0,0:0:0:0:
42,192,16713,1,0,0:0:0:0:
469,192,16713,1,0,0:0:0:40:LR_J Hit Pong Drop.wav
213,192,16920,1,0,0:0:0:0:
42,192,16920,1,0,0:0:0:0:
128,192,16920,1,0,0:0:0:0:
469,192,16920,1,0,0:0:0:40:LR_J Hit Pong Drop.wav
384,192,17333,1,0,0:0:0:0:
42,192,17333,1,0,0:0:0:0:
128,192,17333,1,0,0:0:0:0:
469,192,17333,1,0,0:0:0:40:LR_J Hit Pong Drop.wav
469,192,17747,128,0,18575:0:0:0:0:
213,192,17747,1,2,0:0:0:0:
42,192,17747,1,0,0:0:0:0:
384,192,17747,1,4,0:0:0:0:
128,192,17954,1,0,0:0:0:0:
298,192,18161,128,0,18575:0:0:0:0:
384,192,18161,1,0,0:0:0:0:
213,192,18161,1,8,0:0:0:0:
128,192,18368,1,0,0:0:0:0:
42,192,18575,128,0,19402:0:0:0:0:
213,192,18575,1,2,0:0:0:0:
384,192,18782,1,0,0:0:0:0:
298,192,18885,1,0,0:0:0:0:
469,192,18989,128,0,19196:0:0:0:0:
128,192,18989,1,8,0:0:0:0:
213,192,18989,1,0,0:0:0:0:
213,192,19196,128,0,19402:0:0:0:0:
384,192,19196,1,0,0:0:0:0:
298,192,19402,128,0,19816:0:0:0:0:
128,192,19402,1,2,0:0:0:0:
128,192,19609,128,0,20023:0:0:0:0:
384,192,19609,1,0,0:0:0:0:
213,192,19816,1,0,0:0:0:0:
384,192,19816,128,0,20230:0:0:0:0:
469,192,19816,1,8,0:0:0:0:
213,192,20023,128,0,20437:0:0:0:0:
42,192,20023,1,0,0:0:0:0:
42,192,20230,128,0,20644:0:0:0:0:
469,192,20230,1,2,0:0:0:0:
298,192,20437,1,0,0:0:0:0:
384,192,20644,1,0,0:0:0:0:
469,192,20644,1,0,0:0:0:0:
128,192,20644,1,8,0:0:0:0:
213,192,20851,1,0,0:0:0:0:
42,192,21058,128,0,21885:0:0:0:0:
469,192,21058,1,2,0:0:0:0:
298,192,21264,1,0,0:0:0:0:
213,192,21471,128,0,21885:0:0:0:0:
128,192,21471,1,8,0:0:0:0:
469,192,21471,1,0,0:0:0:0:
384,192,21678,1,0,0:0:0:0:
469,192,21885,128,0,22713:0:0:0:0:
298,192,21885,1,2,0:0:0:0:
128,192,22092,1,0,0:0:0:0:
213,192,22196,1,0,0:0:0:0:
384,192,22299,1,8,0:0:0:0:
298,192,22299,1,0,0:0:0:0:
42,192,22299,128,0,22506:0:0:0:0:
298,192,22506,128,0,22713:0:0:0:0:
128,192,22506,1,0,0:0:0:0:
213,192,22713,128,0,23127:0:0:0:0:
384,192,22713,1,2,0:0:0:0:
384,192,22920,128,0,23333:0:0:0:0:
42,192,22920,128,0,23127:0:0:0:0:
469,192,23127,1,8,0:0:0:0:
128,192,23127,128,0,23540:0:0:0:0:
298,192,23127,1,0,0:0:0:0:
298,192,23333,128,0,23747:0:0:0:0:
213,192,23333,128,0,23540:0:0:0:0:
469,192,23540,128,0,23954:0:0:0:0:
42,192,23540,1,2,0:0:0:0:
42,192,23747,128,0,23954:0:0:0:0:
213,192,23954,1,0,0:0:0:0:
128,192,23954,1,0,0:0:0:0:
384,192,23954,1,8,0:0:0:0:
298,192,24161,1,0,0:0:0:0:
42,192,24368,1,0,0:0:0:0:
384,192,24368,1,2,0:0:0:0:
469,192,24368,128,0,25196:0:0:0:0:
128,192,24575,1,0,0:0:0:0:
213,192,24782,1,0,0:0:0:0:
384,192,24782,1,8,0:0:0:0:
298,192,24782,128,0,25196:0:0:0:0:
128,192,24989,1,0,0:0:0:0:
213,192,25196,1,2,0:0:0:0:
42,192,25196,128,0,26023:0:0:0:0:
384,192,25402,1,0,0:0:0:0:
298,192,25506,1,0,0:0:0:0:
384,192,25609,1,8,0:0:0:0:
213,192,25609,1,0,0:0:0:0:
128,192,25609,128,0,25816:0:0:0:0:
469,192,25816,128,0,26023:0:0:0:0:
298,192,25816,1,0,0:0:0:0:
298,192,26023,128,0,26437:0:0:0:0:
213,192,26023,1,2,0:0:0:0:
384,192,26230,1,0,0:0:0:0:
128,192,26230,128,0,26644:0:0:0:0:
384,192,26437,128,0,26851:0:0:0:0:
213,192,26437,1,0,0:0:0:0:
469,192,26437,1,8,0:0:0:0:
213,192,26644,128,0,27058:0:0:0:0:
42,192,26644,1,0,0:0:0:0:
42,192,26851,128,0,27264:0:0:0:0:
469,192,26851,1,2,0:0:0:0:
298,192,27058,1,0,0:0:0:0:
469,192,27058,128,0,27471:0:0:0:0:
298,192,27264,128,0,27678:0:0:0:0:
213,192,27264,1,8,0:0:0:0:
128,192,27264,1,0,0:0:0:0:
128,192,27471,128,0,27678:0:0:0:0:
42,192,27471,1,0,0:0:0:0:
469,192,27678,1,0,0:0:0:0:
42,192,27678,1,8,0:0:0:0:
384,192,27678,1,0,0:0:0:40:LR_J Hit Pong Drop.wav
42,192,27885,1,8,0:0:0:0:
384,192,27885,1,0,0:0:0:40:LR_J Hit Pong Drop.wav
469,192,27885,1,0,0:0:0:0:
128,192,27954,1,0,0:0:0:0:
213,192,28023,1,0,0:0:0:0:
298,192,28092,1,0,0:0:0:0:
384,192,28299,1,0,0:0:0:0:
128,192,28299,1,0,0:0:0:0:
469,192,28506,1,0,0:0:0:40:LR_J Hit Pong Drop.wav
42,192,28506,1,0,0:0:0:0:
128,192,28506,1,8,0:0:0:0:
469,192,28713,1,0,0:0:0:40:LR_J Hit Pong Drop.wav
42,192,28713,1,0,0:0:0:0:
128,192,28713,1,8,0:0:0:0:
384,192,28782,1,0,0:0:0:0:
298,192,28851,1,0,0:0:0:0:
213,192,28920,1,0,0:0:0:0:
128,192,29127,1,0,0:0:0:0:
42,192,29127,1,0,0:0:0:0:
469,192,29540,1,0,0:0:0:40:LR_J Hit Pong Drop.wav
384,192,29540,1,0,0:0:0:0:
213,192,29540,1,8,0:0:0:0:
298,192,29540,1,0,0:0:0:0:
213,192,29747,1,8,0:0:0:0:
298,192,29747,1,0,0:0:0:0:
384,192,29747,1,0,0:0:0:0:
469,192,29747,1,0,0:0:0:40:LR_J Hit Pong Drop.wav
128,192,29954,1,0,0:0:0:0:
42,192,29954,1,8,0:0:0:0:
213,192,29954,1,0,0:0:0:0:
298,192,29954,1,0,0:0:0:40:LR_J Hit Pong Drop.wav
128,192,30161,1,0,0:0:0:0:
42,192,30161,1,8,0:0:0:0:
213,192,30161,1,0,0:0:0:0:
298,192,30161,1,0,0:0:0:40:LR_J Hit Pong Drop.wav
42,192,30575,1,0,0:0:0:0:
128,192,30575,1,8,0:0:0:0:
384,192,30575,1,0,0:0:0:40:LR_J Hit Pong Drop.wav
469,192,30575,1,0,0:0:0:0:
213,192,30989,1,0,0:0:0:0:
42,192,30989,1,4,0:0:0:0:
128,192,30989,128,0,31402:0:0:0:0:
298,192,30989,1,2,0:0:0:0:
384,192,31196,1,8,0:0:0:0:
469,192,31196,1,0,0:0:0:0:
42,192,31196,1,0,0:0:0:0:
298,192,31299,1,8,0:0:0:0:
213,192,31299,1,0,0:0:0:0:
384,192,31402,128,0,31816:0:0:0:0:
469,192,31402,1,2,0:0:0:0:
213,192,31609,1,8,0:0:0:0:
42,192,31609,1,0,0:0:0:0:
128,192,31609,1,0,0:0:0:0:
42,192,31816,128,0,32230:0:0:0:0:
469,192,31816,1,2,0:0:0:0:
213,192,31920,1,8,0:0:0:0:
128,192,31920,1,0,0:0:0:0:
298,192,32023,1,0,0:0:0:0:
469,192,32127,1,8,0:0:0:0:
384,192,32127,1,0,0:0:0:0:
128,192,32230,1,2,0:0:0:0:
298,192,32230,128,0,32644:0:0:0:0:
42,192,32437,1,8,0:0:0:0:
213,192,32437,1,0,0:0:0:0:
469,192,32437,128,0,32851:0:0:0:0:
213,192,32644,128,0,33058:0:0:0:0:
384,192,32644,1,2,0:0:0:0:
42,192,32851,128,0,33264:0:0:0:0:
384,192,32851,1,8,0:0:0:0:
298,192,32954,1,8,0:0:0:0:
128,192,32954,1,0,0:0:0:0:
469,192,33058,128,0,33471:0:0:0:0:
384,192,33058,1,2,0:0:0:0:
298,192,33264,128,0,33471:0:0:0:0:
128,192,33264,1,0,0:0:0:0:
213,192,33264,1,8,0:0:0:0:
42,192,33471,1,2,0:0:0:0:
128,192,33471,1,0,0:0:0:0:
384,192,33575,1,8,0:0:0:0:
469,192,33575,1,0,0:0:0:0:
213,192,33678,1,0,0:0:0:0:
128,192,33782,1,8,0:0:0:0:
42,192,33782,1,0,0:0:0:0:
384,192,33885,1,0,0:0:0:0:
298,192,33885,1,2,0:0:0:0:
42,192,34092,1,0,0:0:0:0:
213,192,34092,1,8,0:0:0:0:
469,192,34092,1,0,0:0:0:0:
384,192,34299,128,0,34713:0:0:0:0:
298,192,34299,1,2,0:0:0:0:
42,192,34506,1,0,0:0:0:0:
128,192,34506,1,0,0:0:0:0:
213,192,34506,1,8,0:0:0:0:
298,192,34609,1,8,0:0:0:0:
469,192,34609,1,0,0:0:0:0:
128,192,34713,128,0,35127:0:0:0:0:
42,192,34713,1,2,0:0:0:0:
298,192,34920,1,8,0:0:0:0:
469,192,34920,1,0,0:0:0:0:
213,192,34920,1,0,0:0:0:0:
469,192,35127,128,0,35540:0:0:0:0:
42,192,35127,1,2,0:0:0:0:
298,192,35230,1,8,0:0:0:0:
384,192,35230,1,0,0:0:0:0:
213,192,35333,1,0,0:0:0:0:
42,192,35437,1,8,0:0:0:0:
128,192,35437,1,0,0:0:0:0:
213,192,35540,128,0,35954:0:0:0:0:
384,192,35540,1,2,0:0:0:0:
128,192,35747,1,8,0:0:0:0:
469,192,35747,1,0,0:0:0:0:
42,192,35747,128,0,36161:0:0:0:0:
298,192,35954,128,0,36368:0:0:0:0:
384,192,35954,1,2,0:0:0:0:
469,192,36161,128,0,36575:0:0:0:0:
128,192,36161,1,8,0:0:0:0:
384,192,36264,1,8,0:0:0:0:
213,192,36264,1,0,0:0:0:0:
42,192,36368,128,0,36782:0:0:0:0:
128,192,36368,1,2,0:0:0:0:
213,192,36575,128,0,36782:0:0:0:0:
298,192,36575,1,0,0:0:0:0:
384,192,36575,1,8,0:0:0:0:
469,192,36782,1,0,0:0:0:0:
384,192,36782,1,2,0:0:0:0:
128,192,36885,1,8,0:0:0:0:
42,192,36885,1,0,0:0:0:0:
298,192,36989,1,0,0:0:0:0:
384,192,37092,1,8,0:0:0:0:
469,192,37092,1,0,0:0:0:0:
213,192,37196,1,2,0:0:0:0:
128,192,37196,1,0,0:0:0:0:
42,192,37402,1,0,0:0:0:0:
298,192,37402,1,8,0:0:0:0:
384,192,37402,1,0,0:0:0:0:
469,192,37609,128,0,38023:0:0:0:0:
42,192,37609,1,2,0:0:0:0:
128,192,37609,1,0,0:0:0:0:
384,192,37609,1,4,0:0:0:0:
213,192,37816,1,0,0:0:0:0:
298,192,37816,1,8,0:0:0:0:
384,192,37816,1,0,0:0:0:0:
42,192,37920,1,8,0:0:0:0:
128,192,37920,1,0,0:0:0:0:
298,192,38023,128,0,38437:0:0:0:0:
384,192,38023,1,2,0:0:0:0:
128,192,38230,1,8,0:0:0:0:
469,192,38230,1,0,0:0:0:0:
42,192,38230,1,0,0:0:0:0:
213,192,38437,128,0,38851:0:0:0:0:
384,192,38437,1,2,0:0:0:0:
128,192,38540,1,8,0:0:0:0:
42,192,38540,1,0,0:0:0:0:
298,192,38644,1,0,0:0:0:0:
384,192,38747,1,8,0:0:0:0:
469,192,38747,1,0,0:0:0:0:
42,192,38851,128,0,39264:0:0:0:0:
128,192,38851,1,2,0:0:0:0:
298,192,39058,1,8,0:0:0:0:
213,192,39058,1,0,0:0:0:0:
469,192,39058,128,0,39264:0:0:0:0:
384,192,39264,1,2,0:0:0:0:
128,192,39264,1,0,0:0:0:0:
42,192,39471,1,0,0:0:0:0:
298,192,39471,1,0,0:0:0:0:
213,192,39471,1,8,0:0:0:0:
469,192,39575,1,0,0:0:0:0:
384,192,39575,1,8,0:0:0:0:
213,192,39678,1,2,0:0:0:0:
128,192,39678,1,0,0:0:0:0:
42,192,39885,1,0,0:0:0:0:
469,192,39885,1,0,0:0:0:0:
298,192,39885,1,8,0:0:0:0:
384,192,40092,1,0,0:0:0:0:
298,192,40092,1,2,0:0:0:0:
128,192,40196,1,8,0:0:0:0:
42,192,40196,1,0,0:0:0:0:
213,192,40299,1,0,0:0:0:0:
469,192,40402,1,0,0:0:0:0:
384,192,40402,1,8,0:0:0:0:
42,192,40506,1,0,0:0:0:0:
128,192,40506,1,2,0:0:0:0:
213,192,40713,1,0,0:0:0:0:
469,192,40713,1,0,0:0:0:0:
298,192,40713,1,8,0:0:0:0:
42,192,40920,1,0,0:0:0:0:
469,192,40920,1,0,0:0:0:0:
384,192,40920,1,4,0:0:0:0:
128,192,40920,1,2,0:0:0:0:
42,192,41127,1,0,0:0:0:0:
213,192,41127,1,0,0:0:0:0:
298,192,41127,1,8,0:0:0:0:
384,192,41230,1,8,0:0:0:0:
128,192,41230,1,0,0:0:0:0:
213,192,41333,1,0,0:0:0:0:
469,192,41333,1,0,0:0:0:0:
42,192,41540,1,0,0:0:0:0:
384,192,41540,1,0,0:0:0:0:
298,192,41540,1,8,0:0:0:0:
128,192,41747,1,2,0:0:0:0:
213,192,41747,1,4,0:0:0:0:
469,192,41747,1,0,0:0:0:0:
42,192,41747,1,0,0:0:0:0:
469,192,41954,1,0,0:0:0:0:
384,192,41954,1,0,0:0:0:0:
298,192,41954,1,8,0:0:0:0:
128,192,42058,1,8,0:0:0:0:
42,192,42058,1,0,0:0:0:0:
298,192,42161,1,0,0:0:0:0:
213,192,42161,1,0,0:0:0:0:
384,192,42368,1,8,0:0:0:0:
128,192,42368,1,0,0:0:0:0:
469,192,42368,1,0,0:0:0:0:
42,192,42575,1,0,0:0:0:0:
128,192,42575,1,0,0:0:0:0:
298,192,42575,1,4,0:0:0:0:
213,192,42575,1,2,0:0:0:0:
469,192,42782,1,0,0:0:0:0:
384,192,42782,1,0,0:0:0:40:LR_J Hit Pong Drop.wav
298,192,42782,1,8,0:0:0:0:
42,192,42885,1,0,0:0:0:0:
213,192,42885,1,8,0:0:0:0:
128,192,42885,1,0,0:0:0:40:LR_J Hit Pong Drop.wav
384,192,42989,1,0,0:0:0:0:
298,192,42989,1,2,0:0:0:0:
469,192,43196,1,0,0:0:0:40:LR_J Hit Pong Drop.wav
128,192,43196,1,8,0:0:0:0:
42,192,43196,1,0,0:0:0:0:
384,192,43299,1,0,0:0:0:40:LR_J Hit Pong Drop.wav
298,192,43299,1,8,0:0:0:0:
213,192,43402,1,4,0:0:0:0:
128,192,43402,1,2,0:0:0:0:
42,192,43402,1,0,0:0:0:0:
469,192,43402,1,0,0:0:0:0:
469,192,43609,1,0,0:0:0:40:LR_J Hit Pong Drop.wav
384,192,43609,1,8,0:0:0:0:
42,192,43609,1,0,0:0:0:0:
213,192,43713,1,0,0:0:0:40:LR_J Hit Pong Drop.wav
128,192,43713,1,8,0:0:0:0:
42,192,43816,1,2,0:0:0:0:
298,192,43816,1,4,0:0:0:0:
384,192,43816,1,0,0:0:0:0:
469,192,43816,1,0,0:0:0:0:
298,192,44023,1,0,0:0:0:40:LR_J Hit Pong Drop.wav
213,192,44023,1,8,0:0:0:0:
128,192,44023,1,0,0:0:0:0:
469,192,44127,1,0,0:0:0:40:LR_J Hit Pong Drop.wav
384,192,44127,1,8,0:0:0:0:
42,192,44230,1,0,0:0:0:0:
213,192,44230,1,0,0:0:0:0:
298,192,44230,1,4,0:0:0:0:
128,192,44230,1,2,0:0:0:0:
384,192,44437,1,0,0:0:0:40:LR_J Hit Pong Drop.wav
298,192,44437,1,8,0:0:0:0:
42,192,44437,1,0,0:0:0:0:
384,192,44644,1,0,0:0:0:40:LR_J Hit Pong Drop.wav
469,192,44644,1,0,0:0:0:0:
213,192,44644,1,8,0:0:0:0:
128,192,44644,1,0,0:0:0:0:
298,192,44851,1,0,0:0:0:40:LR_J Hit Pong Drop.wav
213,192,44851,1,8,0:0:0:0:
42,192,44851,1,0,0:0:0:0:
469,192,45058,1,0,0:0:0:0:
384,192,45058,1,4,0:0:0:0:
128,192,45058,1,2,0:0:0:0:
42,192,45058,1,0,0:0:0:0:
298,192,45885,1,0,0:0:0:0:
213,192,46247,1,0,0:0:0:0:
469,192,46558,1,0,0:0:0:0:
42,192,46739,1,0,0:0:0:0:
128,192,46946,1,0,0:0:0:0:
213,192,47127,1,0,0:0:0:0:
298,192,47308,1,0,0:0:0:0:
469,192,47540,1,0,0:0:0:0:
384,192,47575,1,0,0:0:0:0:
213,192,47644,1,0,0:0:0:0:
128,192,48368,1,0,0:0:0:0:
42,192,49196,1,0,0:0:0:0:
128,192,49230,1,0,0:0:0:0:
298,192,49851,1,0,0:0:0:0:
213,192,49946,1,0,0:0:0:0:
128,192,50023,1,0,0:0:0:0:
384,192,50437,1,0,0:0:0:0:
128,192,50816,1,0,0:0:0:0:
213,192,50851,1,0,0:0:0:0:
469,192,51264,1,0,0:0:0:0:
128,192,51644,1,0,0:0:0:0:
298,192,52092,1,0,0:0:0:0:
42,192,52506,1,0,0:0:0:0:
384,192,53299,1,0,0:0:0:0:
298,192,53333,1,0,0:0:0:0:
128,192,53747,1,0,0:0:0:0:
384,192,54127,1,0,0:0:0:0:
213,192,54161,1,0,0:0:0:0:
42,192,54989,1,0,0:0:0:0:
384,192,55713,1,0,0:0:0:0:
298,192,55747,1,0,0:0:0:0:
213,192,55782,1,0,0:0:0:0:
128,192,55816,1,0,0:0:0:0:
469,192,56644,1,0,0:0:0:0:
298,192,57058,1,0,0:0:0:0:
213,192,57333,1,0,0:0:0:0:
128,192,57471,1,0,0:0:0:0:
42,192,57885,1,0,0:0:0:0:
213,192,58299,1,0,0:0:0:0:
384,192,58713,1,0,0:0:0:0:
469,192,59127,1,0,0:0:0:0:
298,192,59954,128,0,60782:0:0:0:0:
384,192,60368,128,0,60782:0:0:0:0:
42,192,60368,1,0,0:0:0:0:
128,192,60437,1,0,0:0:0:0:
213,192,60506,1,0,0:0:0:0:
42,192,60575,1,0,0:0:0:0:
128,192,60644,1,0,0:0:0:0:
213,192,60713,1,0,0:0:0:0:
469,192,60782,128,0,62437:0:0:0:0:
42,192,61609,128,0,62437:0:0:0:0:
384,192,62437,128,0,64092:0:0:0:0:
42,192,63058,1,0,0:0:0:0:
128,192,63161,1,0,0:0:0:0:
213,192,63264,128,0,64092:0:0:0:0:
42,192,63678,128,0,64092:0:0:0:0:
469,192,64092,128,0,64920:0:0:0:0:
298,192,64506,128,0,65274:0:0:0:0:
128,192,64920,128,0,65747:0:0:0:0:
469,192,65274,1,0,0:0:0:0:
384,192,65333,128,0,66161:0:0:0:0:
213,192,65747,128,0,66575:0:0:0:0:
42,192,66161,128,0,66989:0:0:0:0:
469,192,66575,128,0,67402:0:0:0:0:
298,192,66989,128,0,67402:0:0:0:0:
42,192,67402,128,0,69058:0:0:0:0:
384,192,68230,1,0,0:0:0:0:
213,192,69058,1,0,0:0:0:0:
128,192,69885,1,0,0:0:0:0:
213,192,70299,1,0,0:0:0:0:
298,192,70713,1,0,0:0:0:0:
469,192,71540,1,0,0:0:0:0:
298,192,72368,1,0,0:0:0:0:
213,192,73299,1,0,0:0:0:0:
384,192,73713,1,0,0:0:0:0:
42,192,74385,1,0,0:0:0:0:
213,192,74437,1,0,0:0:0:0:
384,192,78127,1,0,0:0:0:0:
469,192,78127,1,0,0:0:0:0:
128,192,78161,128,0,78368:0:0:0:0:
42,192,78161,1,0,0:0:0:0:
298,192,78264,128,0,78471:0:0:0:0:
469,192,78368,128,0,78575:0:0:0:0:
213,192,78471,128,0,78678:0:0:0:0:
384,192,78575,128,0,78782:0:0:0:0:
128,192,78678,128,0,78885:0:0:0:0:
298,192,78782,128,0,78989:0:0:0:0:
469,192,78885,128,0,78989:0:0:0:0:
384,192,78989,1,4,0:0:0:0:
42,192,78989,128,0,81885:0:0:0:0:
128,192,78989,128,2,79402:0:0:0:0:
213,192,78989,1,0,0:0:0:0:
213,192,79196,1,0,0:0:0:0:
384,192,79196,1,8,0:0:0:0:
469,192,79196,1,0,0:0:0:0:
298,192,79299,1,0,0:0:0:0:
384,192,79402,128,0,79816:0:0:0:0:
469,192,79402,1,2,0:0:0:0:
213,192,79506,1,8,0:0:0:0:
128,192,79506,1,0,0:0:0:0:
469,192,79609,1,0,0:0:0:0:
298,192,79609,1,0,0:0:0:0:
128,192,79816,128,0,80023:0:0:0:0:
213,192,79816,1,2,0:0:0:0:
213,192,80023,1,0,0:0:0:0:
298,192,80023,1,0,0:0:0:0:
469,192,80127,1,0,0:0:0:0:
384,192,80127,1,8,0:0:0:0:
213,192,80230,128,0,80437:0:0:0:0:
298,192,80230,1,2,0:0:0:0:
128,192,80437,128,0,80644:0:0:0:0:
469,192,80437,1,8,0:0:0:0:
384,192,80437,1,0,0:0:0:0:
298,192,80644,128,0,80851:0:0:0:0:
469,192,80644,1,2,0:0:0:0:
213,192,80851,128,0,81058:0:0:0:0:
128,192,80851,1,8,0:0:0:0:
469,192,80851,1,0,0:0:0:0:
298,192,80954,1,0,0:0:0:0:
384,192,81058,128,0,81264:0:0:0:0:
469,192,81058,1,2,0:0:0:0:
128,192,81161,1,8,0:0:0:0:
213,192,81161,1,0,0:0:0:0:
298,192,81264,128,0,81471:0:0:0:0:
469,192,81264,1,0,0:0:0:0:
469,192,81471,128,0,81678:0:0:0:0:
128,192,81471,1,2,0:0:0:0:
213,192,81678,1,0,0:0:0:0:
128,192,81678,1,0,0:0:0:0:
469,192,81782,1,0,0:0:0:0:
384,192,81782,1,8,0:0:0:0:
213,192,81885,128,0,82092:0:0:0:0:
298,192,81885,1,2,0:0:0:0:
298,192,82092,128,0,82299:0:0:0:0:
42,192,82092,1,8,0:0:0:0:
384,192,82092,1,0,0:0:0:0:
469,192,82299,128,0,85196:0:0:0:0:
128,192,82299,128,2,82713:0:0:0:0:
42,192,82506,1,8,0:0:0:0:
298,192,82506,1,0,0:0:0:0:
384,192,82506,1,0,0:0:0:0:
213,192,82609,1,0,0:0:0:0:
384,192,82713,128,0,83127:0:0:0:0:
298,192,82713,1,2,0:0:0:0:
128,192,82816,1,8,0:0:0:0:
42,192,82816,1,0,0:0:0:0:
298,192,82920,1,0,0:0:0:0:
213,192,82920,1,0,0:0:0:0:
42,192,83127,128,2,83333:0:0:0:0:
128,192,83127,1,0,0:0:0:0:
384,192,83333,1,0,0:0:0:0:
298,192,83333,1,0,0:0:0:0:
128,192,83437,1,0,0:0:0:0:
42,192,83437,1,8,0:0:0:0:
298,192,83540,128,0,83747:0:0:0:0:
213,192,83540,1,2,0:0:0:0:
384,192,83747,128,0,83954:0:0:0:0:
128,192,83747,1,8,0:0:0:0:
42,192,83747,1,0,0:0:0:0:
213,192,83954,128,0,84161:0:0:0:0:
298,192,83954,1,2,0:0:0:0:
298,192,84161,128,0,84368:0:0:0:0:
42,192,84161,1,8,0:0:0:0:
128,192,84161,1,0,0:0:0:0:
213,192,84264,1,0,0:0:0:0:
128,192,84368,128,0,84575:0:0:0:0:
384,192,84368,1,2,0:0:0:0:
298,192,84471,1,8,0:0:0:0:
42,192,84471,1,0,0:0:0:0:
213,192,84575,128,0,84782:0:0:0:0:
384,192,84575,1,0,0:0:0:0:
42,192,84782,128,0,84989:0:0:0:0:
128,192,84782,1,2,0:0:0:0:
384,192,84989,1,0,0:0:0:0:
298,192,84989,1,0,0:0:0:0:
213,192,85092,1,8,0:0:0:0:
128,192,85092,1,0,0:0:0:0:
384,192,85196,128,0,85402:0:0:0:0:
42,192,85196,1,2,0:0:0:0:
128,192,85402,128,0,85609:0:0:0:0:
298,192,85402,1,8,0:0:0:0:
213,192,85402,1,0,0:0:0:0:
42,192,85609,128,0,86023:0:0:0:0:
298,192,85609,1,2,0:0:0:0:
213,192,85609,1,4,0:0:0:0:
469,192,85609,128,0,86851:0:0:0:0:
298,192,85816,1,0,0:0:0:0:
128,192,85816,1,8,0:0:0:0:
384,192,85816,1,0,0:0:0:0:
213,192,85920,1,0,0:0:0:0:
384,192,86023,128,0,86437:0:0:0:0:
298,192,86023,1,2,0:0:0:0:
128,192,86127,1,8,0:0:0:0:
42,192,86127,1,0,0:0:0:0:
298,192,86230,1,0,0:0:0:0:
213,192,86230,1,0,0:0:0:0:
128,192,86437,128,0,86644:0:0:0:0:
42,192,86437,1,2,0:0:0:0:
298,192,86644,1,0,0:0:0:0:
384,192,86644,1,0,0:0:0:0:
128,192,86747,1,8,0:0:0:0:
213,192,86747,1,0,0:0:0:0:
42,192,86851,128,0,87161:0:0:0:0:
298,192,86851,1,2,0:0:0:0:
128,192,87058,128,0,87368:0:0:0:0:
384,192,87058,1,8,0:0:0:0:
469,192,87058,1,0,0:0:0:0:
213,192,87264,128,0,87575:0:0:0:0:
384,192,87264,1,2,0:0:0:0:
128,192,87471,128,0,87782:0:0:0:0:
469,192,87471,1,8,0:0:0:0:
298,192,87471,1,0,0:0:0:0:
384,192,87575,1,0,0:0:0:0:
42,192,87678,128,0,87989:0:0:0:0:
298,192,87678,1,2,0:0:0:0:
213,192,87782,1,8,0:0:0:0:
469,192,87885,128,0,88196:0:0:0:0:
298,192,87885,1,0,0:0:0:0:
384,192,88092,128,0,88402:0:0:0:0:
213,192,88092,1,2,0:0:0:0:
298,192,88299,128,0,88609:0:0:0:0:
128,192,88299,1,0,0:0:0:0:
384,192,88506,128,0,88816:0:0:0:0:
42,192,88506,1,2,0:0:0:0:
469,192,88713,128,0,89023:0:0:0:0:
213,192,88713,1,8,0:0:0:0:
128,192,88713,1,0,0:0:0:0:
128,192,88920,128,0,90575:0:0:0:0:
298,192,88920,128,2,89333:0:0:0:0:
213,192,89127,1,0,0:0:0:0:
469,192,89127,1,8,0:0:0:0:
42,192,89127,1,0,0:0:0:0:
384,192,89333,128,0,89747:0:0:0:0:
42,192,89333,1,2,0:0:0:0:
298,192,89437,1,0,0:0:0:0:
213,192,89437,1,8,0:0:0:0:
469,192,89540,1,0,0:0:0:0:
42,192,89540,1,0,0:0:0:0:
469,192,89747,128,0,90161:0:0:0:0:
213,192,89747,1,0,0:0:0:0:
42,192,89747,1,8,0:0:0:0:
384,192,89954,1,0,0:0:0:0:
298,192,89954,1,0,0:0:0:0:
213,192,90058,1,8,0:0:0:0:
42,192,90058,1,0,0:0:0:0:
384,192,90161,1,2,0:0:0:0:
298,192,90161,1,0,0:0:0:0:
298,192,90368,128,0,90575:0:0:0:0:
42,192,90368,1,8,0:0:0:0:
469,192,90368,1,0,0:0:0:0:
213,192,90575,1,2,0:0:0:0:
384,192,90575,128,0,92230:0:0:0:0:
42,192,90782,1,0,0:0:0:0:
128,192,90782,1,8,0:0:0:0:
213,192,90782,1,0,0:0:0:0:
298,192,90989,1,2,0:0:0:0:
469,192,90989,1,0,0:0:0:0:
128,192,91092,1,8,0:0:0:0:
42,192,91092,1,0,0:0:0:0:
213,192,91196,1,0,0:0:0:0:
298,192,91196,1,0,0:0:0:0:
469,192,91402,1,0,0:0:0:0:
42,192,91402,1,0,0:0:0:0:
298,192,91402,1,8,0:0:0:0:
128,192,91609,1,0,0:0:0:0:
213,192,91609,1,0,0:0:0:0:
469,192,91713,1,0,0:0:0:0:
298,192,91713,1,8,0:0:0:0:
213,192,91816,1,2,0:0:0:0:
42,192,91816,1,0,0:0:0:0:
213,192,92023,1,8,0:0:0:0:
128,192,92023,1,0,0:0:0:0:
469,192,92023,1,0,0:0:0:0:
298,192,92230,1,8,0:0:0:0:
42,192,92230,1,0,0:0:0:0:
128,192,92230,1,0,0:0:0:0:
213,192,92230,1,0,0:0:0:0:
298,192,92437,1,0,0:0:0:0:
384,192,92437,1,8,0:0:0:0:
42,192,92437,1,0,0:0:0:0:
469,192,92437,1,0,0:0:0:0:
128,192,92506,1,0,0:0:0:0:
213,192,92575,1,0,0:0:0:0:
298,192,92644,1,0,0:0:0:0:
128,192,92851,1,0,0:0:0:0:
42,192,92851,1,0,0:0:0:0:
298,192,93058,1,8,0:0:0:0:
213,192,93058,1,0,0:0:0:0:
384,192,93058,1,0,0:0:0:0:
469,192,93058,1,0,0:0:0:0:
469,192,93264,1,0,0:0:0:0:
213,192,93264,1,0,0:0:0:0:
128,192,93264,1,8,0:0:0:0:
42,192,93264,1,0,0:0:0:0:
384,192,93333,1,0,0:0:0:0:
298,192,93402,1,0,0:0:0:0:
213,192,93471,1,0,0:0:0:0:
384,192,93678,1,0,0:0:0:0:
469,192,93678,1,0,0:0:0:0:
298,192,93885,1,0,0:0:0:0:
213,192,93885,1,0,0:0:0:0:
42,192,93885,1,8,0:0:0:0:
469,192,93885,1,0,0:0:0:40:LR_J Hit Pong Drop.wav
128,192,94196,1,8,0:0:0:0:
213,192,94196,1,0,0:0:0:0:
298,192,94196,1,0,0:0:0:0:
384,192,94196,1,0,0:0:0:40:LR_J Hit Pong Drop.wav
128,192,94506,1,0,0:0:0:0:
42,192,94506,1,8,0:0:0:0:
384,192,94506,1,0,0:0:0:0:
469,192,94506,1,0,0:0:0:40:LR_J Hit Pong Drop.wav
42,192,94713,1,8,0:0:0:0:
213,192,94713,1,0,0:0:0:0:
298,192,94713,1,0,0:0:0:0:
469,192,94713,1,0,0:0:0:40:LR_J Hit Pong Drop.wav
