osu file format v14

[General]
AudioFilename: audio.mp3
AudioLeadIn: 0
PreviewTime:28931
Countdown: 0
SampleSet: Soft
StackLeniency: 0.4
Mode: 0
LetterboxInBreaks: 0
WidescreenStoryboard: 1

[Editor]
Bookmarks: 16985,28985,44985,52985,60994,76985,88994
DistanceSpacing: 1
BeatDivisor: 16
GridSize: 32
TimelineZoom: 2.1

[Metadata]
Title:Any Last Words?
TitleUnicode:尽在吾辈
Artist:HOYO-MiX
ArtistUnicode:HOYO-MiX
Creator:Ascended
Version:Wanpachi's Easy
Source:Genshin Impact
Tags:原神 hu who fuu tao hutao boo 胡桃 フータオ 호두 fuutao Wangsheng Funeral Parlor Wangsheng-tang Wangshengtang Let The Living Beware Butterfly pyro OST original sound track soundtrack video game videogame instrumental folk electronic Papilio Charontis Liyue -_ascended_- -ascended- l1ght_u light_u l1ightu lightu -hitomi GanyuMyMommy Nytrocide_ Nytro Ajisai- Ajisai Down ScubDomino [Keqing] haruto_- haruto aizawa haruto_aizawa -_Heatwave_- -Heatwave- Wanpachi Cycopton @HOYO-MiX Yu-Peng Chen YuPeng 陈致逸 輝く星々 Stellar Moments Vol. 2 Album mihoyo 闪耀的群星2 輝く星々Vol.2 Volume two
BeatmapID:3501994
BeatmapSetID:1690574

[Difficulty]
HPDrainRate:3
CircleSize:3
OverallDifficulty:3
ApproachRate:4
SliderMultiplier:0.999999999999999
SliderTickRate:1

[Events]
//Background and Video events
0,0,"91290705_p0.jpg",0,0
//Break Periods
2,45199,51680
2,64985,65680
//Storyboard Layer 0 (Background)
//Storyboard Layer 1 (Fail)
//Storyboard Layer 2 (Pass)
//Storyboard Layer 3 (Foreground)
//Storyboard Layer 4 (Overlay)
//Storyboard Sound Samples
Sample,49000,0,"society.wav",30
Sample,58994,0,"who.ogg",80

[TimingPoints]
1000,500,4,2,2,30,1,0
1031,-100,4,2,1,30,0,0
2000,-100,4,2,3,30,0,0
2031,-100,4,2,1,30,0,0
3000,-100,4,2,4,30,0,0
3031,-100,4,2,1,30,0,0
5000,-100,4,2,5,30,0,0
5031,-100,4,2,1,30,0,0
6000,-100,4,2,6,30,0,0
6031,-100,4,2,1,30,0,0
6500,-100,4,2,7,30,0,0
6531,-100,4,2,1,30,0,0
8250,-100,4,2,8,30,0,0
8281,-100,4,2,1,30,0,0
12250,-100,4,2,9,30,0,0
12281,-100,4,2,1,30,0,0
14500,-100,4,2,10,65,0,0
15000,-100,4,2,1,65,0,0
17000,-100,4,2,1,50,0,0
27000,-100,4,2,11,50,0,0
27031,-100,4,2,1,50,0,0
28000,-100,4,2,12,65,0,0
28031,-100,4,2,1,65,0,0
29000,-100,4,2,1,65,0,0
31000,-100,4,2,13,65,0,0
31031,-100,4,2,1,65,0,0
31500,-100,4,2,14,65,0,0
31531,-100,4,2,1,65,0,0
31750,-100,4,2,1,65,0,0
32500,-100,4,2,15,65,0,0
32531,-100,4,2,1,65,0,0
33000,-100,4,2,1,65,0,0
34000,-100,4,2,16,65,0,0
34031,-100,4,2,1,65,0,0
34500,-100,4,2,1,65,0,0
36000,-100,4,2,17,65,0,0
36031,-100,4,2,1,65,0,0
36500,-100,4,2,18,65,0,0
36531,-100,4,2,1,65,0,0
37000,-100,4,2,1,65,0,0
40500,-100,4,2,19,65,0,0
40531,-100,4,2,1,65,0,0
41000,-100,4,2,1,65,0,0
43968,-100,4,2,20,70,0,0
45000,-100,4,2,1,40,0,0
45031,-100,4,2,1,40,0,0
53000,-100,4,2,1,50,0,0
57000,-100,4,2,38,55,0,0
57031,-100,4,2,1,55,0,0
58000,-100,4,2,22,55,0,0
58031,-100,4,2,1,55,0,0
58500,-100,4,2,23,55,0,0
58531,-100,4,2,1,55,0,0
59000,-100,4,2,1,65,0,0
61000,-100,4,2,1,70,0,0
64250,-100,4,2,24,70,0,0
64281,-100,4,2,1,70,0,0
64500,-100,4,2,1,70,0,0
64531,-100,4,2,1,70,0,0
66000,-100,4,2,27,70,0,0
67000,-100,4,2,28,70,0,0
67031,-100,4,2,1,70,0,0
68000,-100,4,2,1,70,0,0
70000,-83.3333333333333,4,2,29,70,0,0
70031,-83.3333333333333,4,2,1,70,0,0
70999,-83.3333333333333,4,2,30,70,0,0
71031,-83.3333333333333,4,2,1,70,0,0
72000,-100,4,2,1,70,0,0
72250,-100,4,2,31,70,0,0
72281,-100,4,2,1,70,0,0
72500,-100,4,2,32,70,0,0
72531,-100,4,2,1,70,0,0
73000,-100,4,2,1,70,0,0
74000,-100,4,2,33,70,0,0
74031,-100,4,2,1,70,0,0
74500,-100,4,2,1,60,0,0
75000,-100,4,2,1,70,0,0
76000,-100,4,2,34,70,0,0
76031,-100,4,2,1,70,0,0
77000,-100,4,2,1,50,0,0
80000,-100,4,2,1,40,0,0
87250,-100,4,2,1,20,0,0
89000,-100,4,2,35,5,0,0

[Colours]
Combo1 : 192,192,192
Combo2 : 255,100,100

[HitObjects]
83,67,17000,5,2,2:0:0:0:
83,67,17500,1,2,2:0:0:0:
83,67,18000,1,2,2:0:0:0:
229,203,19000,2,0,P|219:256|209:323,1,99.9999999999999,2|2,2:0|2:0,0:0:0:0:
310,319,20000,2,0,P|320:266|330:199,1,99.9999999999999,2|2,2:0|2:0,0:0:0:0:
298,124,21000,5,2,3:2:0:0:
298,124,21500,1,2,2:0:0:0:
298,124,22000,1,2,2:0:0:0:
362,47,22500,2,0,P|386:51|411:55,2,50,2|2|2,2:3|2:3|3:2,0:0:0:0:
263,29,23500,1,6,2:0:0:0:
263,29,27000,6,0,P|275:85|411:135,2,200,2|8|2,2:0|2:0|3:2,0:0:0:0:
165,7,29500,5,2,2:0:0:0:
107,88,30000,1,10,2:0:0:0:
107,88,30500,1,2,3:2:0:0:
151,177,31000,2,0,P|142:241|129:342,1,150,2|2,2:0|3:2,0:0:0:0:
165,362,32000,2,0,B|211:341|211:341|276:366,1,99.9999999999999,8|2,2:0|2:0,0:0:0:0:
342,305,33000,6,0,P|422:308|464:190,1,200,2|8,3:2|2:0,0:0:0:0:
507,117,34500,1,2,3:2:0:0:
507,117,35000,2,0,P|433:104|338:85,1,150,2|2,2:0|3:2,0:0:0:0:
316,114,36000,2,0,B|328:66|328:66|291:31|291:31|242:43|242:43|229:90,1,200,10|2,2:0|3:2,0:0:0:0:
251,193,37500,5,2,2:0:0:0:
251,193,38000,2,0,P|238:235|225:289,1,99.9999999999999,10|2,2:0|2:0,0:0:0:0:
129,318,39000,2,0,P|116:269|103:221,1,99.9999999999999,2|2,2:0|2:0,0:0:0:0:
32,150,40000,2,0,P|31:101|70:74,1,99.9999999999999,10|2,2:0|3:2,0:0:0:0:
151,16,41000,6,0,B|195:38|195:38|245:29|245:29|289:51|289:51|339:42,1,200,2|10,3:2|2:0,0:0:0:0:
400,121,42500,1,2,3:2:0:0:
348,206,43000,1,2,3:2:0:0:
222,361,43968,6,2,B|168:343|116:343|116:343|82:293|124:254,1,206.25,2|6,0:1|0:0,0:1:0:0:
506,213,53000,6,0,P|440:211|353:302,1,200,4|2,2:0|2:0,0:0:0:0:
164,369,55000,2,0,B|152:253|177:274|167:169,1,200,2|2,2:0|2:0,0:0:0:0:
10,45,57000,6,0,P|57:40|109:31,1,99.9999999999999,2|2,2:0|2:0,0:0:0:0:
199,75,58000,2,0,P|248:80|298:88,1,99.9999999999999,2|2,2:0|2:0,0:0:0:0:
387,42,59000,6,0,B|420:79|420:79|410:129|410:129|372:162|372:162|362:210,1,200,4|4,3:1|3:1,0:0:0:0:
494,360,61000,6,0,P|441:328|374:324,1,99.9999999999999,2|10,3:2|2:0,0:0:0:0:
321,265,62000,2,0,P|272:275|231:303,1,99.9999999999999,2|10,3:2|2:0,0:0:0:0:
162,376,63000,2,0,B|112:371|112:371|75:337|75:337|6:324,1,150,2|2,3:2|2:0,0:0:0:0:
3,283,64000,1,2,3:2:0:0:
74,213,64500,1,4,3:2:0:0:
38,119,67000,6,0,P|174:97|215:98,1,150,0|0,3:0|0:0,0:0:0:0:
230,75,68000,2,0,P|213:148|207:222,1,150,0|0,3:0|0:0,0:0:0:0:
183,266,69000,5,2,3:2:0:0:
264,323,69500,1,8,2:0:0:0:
350,271,70000,2,2,B|464:241|464:241|498:368,2,239.999992675781,2|2|2,3:2|3:2|3:2,2:1:0:0:
303,182,72500,1,4,3:2:0:0:
303,181,73000,6,0,B|308:134|308:134|423:102,1,150,6|6,3:2|3:2,0:0:0:0:
453,89,74000,1,6,3:2:0:0:
273,1,75000,2,0,B|268:49|268:49|153:81,1,150,6|6,3:2|3:2,0:0:0:0:
123,94,76000,1,6,3:2:0:0:
95,292,77000,6,0,B|169:301|191:276|212:253|292:268,1,200,2|2,2:0|2:0,0:0:0:0:
361,338,78500,2,0,B|395:304|395:304|386:253,1,99.9999999999999,2|2,2:0|2:0,0:0:0:0:
256,101,80000,5,2,2:0:0:0:
256,301,81000,5,2,2:0:0:0:
256,101,82000,5,2,2:0:0:0:
256,301,83000,5,2,2:0:0:0:
256,192,84000,12,0,89000,0:0:0:0:
