osu file format v14

[General]
AudioFilename: audio.mp3
AudioLeadIn: 0
PreviewTime: 28931
Countdown: 0
SampleSet: Soft
StackLeniency: 0.4
Mode: 0
LetterboxInBreaks: 0
WidescreenStoryboard: 1

[Editor]
Bookmarks: 14494,23494,23681,23744,23806,23994,24119,24244,24306,24431,24494,24619,24744,24869,24994,25056,25181,25244,25369,25494,25619,25744,25806,25931,25994,26119,26244,26431,26494,26556,26681,26744,44994,45119,45244,45369,45494,45619,45869,45994,46119,46244,46494,46619,46744,46869,46994,47119,47369,47494,47619,47744,47994,48119,48244,48494,48619,48744,48869,49119,49244,49369,49494,49744,49869,49994,50119,50369,50494,50744,50869,50994,51119,51369,51494,51619,51869,51994,52119,52244,52494,52619,52994,58994,60994,76994,88994
DistanceSpacing: 1.3
BeatDivisor: 16
GridSize: 16
TimelineZoom: 1.8

[Metadata]
Title:Any Last Words?
TitleUnicode:尽在吾辈
Artist:HOYO-MiX
ArtistUnicode:HOYO-MiX
Creator:Ascended
Version:Normal
Source:Genshin Impact
Tags:原神 hu who fuu tao hutao boo 胡桃 フータオ 호두 fuutao Wangsheng Funeral Parlor Wangsheng-tang Wangshengtang Let The Living Beware Butterfly pyro OST original sound track soundtrack video game videogame instrumental folk electronic Papilio Charontis Liyue -_ascended_- -ascended- l1ght_u light_u l1ightu lightu -hitomi GanyuMyMommy Nytrocide_ Nytro Ajisai- Ajisai Down ScubDomino [Keqing] haruto_- haruto aizawa haruto_aizawa -_Heatwave_- -Heatwave- Wanpachi Cycopton @HOYO-MiX Yu-Peng Chen YuPeng 陈致逸 輝く星々 Stellar Moments Vol. 2 Album mihoyo 闪耀的群星2 輝く星々Vol.2 Volume two
BeatmapID:3457793
BeatmapSetID:1690574

[Difficulty]
HPDrainRate:4
CircleSize:3.5
OverallDifficulty:4
ApproachRate:5
SliderMultiplier:1.3
SliderTickRate:0.5

[Events]
//Background and Video events
0,0,"hu-tao-ghost-genshin-impact-2k-wallpaper-2560x1440-uhdpaper.com-265.1_a.jpg",0,0
//Break Periods
2,23700,25800
2,45199,51800
//Storyboard Layer 0 (Background)
//Storyboard Layer 1 (Fail)
//Storyboard Layer 2 (Pass)
//Storyboard Layer 3 (Foreground)
//Storyboard Layer 4 (Overlay)
//Storyboard Sound Samples
Sample,49000,0,"society.wav",30
Sample,58994,0,"who.ogg",80

[TimingPoints]
1000,500,4,2,2,30,1,0
1031,-100,4,2,1,30,0,0
2000,-100,4,2,3,30,0,0
2031,-100,4,2,1,30,0,0
3000,-100,4,2,4,30,0,0
3031,-100,4,2,1,30,0,0
5000,-100,4,2,5,30,0,0
5031,-100,4,2,1,30,0,0
6000,-100,4,2,6,30,0,0
6031,-100,4,2,1,30,0,0
6500,-100,4,2,7,30,0,0
6531,-100,4,2,1,30,0,0
8250,-100,4,2,8,30,0,0
8281,-100,4,2,1,30,0,0
12250,-100,4,2,9,30,0,0
12281,-100,4,2,1,30,0,0
14500,-111.111111111111,4,2,10,65,0,0
15000,-111.111111111111,4,2,1,65,0,0
15499,-111.111111111111,4,2,1,65,0,0
17000,-111.111111111111,4,2,1,50,0,0
27000,-111.111111111111,4,2,11,50,0,0
27031,-111.111111111111,4,2,1,50,0,0
27125,-111.111111111111,4,2,1,50,0,0
28000,-111.111111111111,4,2,12,65,0,0
28031,-111.111111111111,4,2,1,65,0,0
28062,-111.111111111111,4,2,1,65,0,0
29000,-100,4,2,1,65,0,0
31000,-100,4,2,13,65,0,0
31031,-100,4,2,1,65,0,0
31500,-100,4,2,14,65,0,0
31531,-100,4,2,1,65,0,0
32500,-100,4,2,15,65,0,0
32531,-100,4,2,1,65,0,0
34000,-100,4,2,16,65,0,0
34031,-100,4,2,1,65,0,0
34062,-100,4,2,1,65,0,0
36000,-100,4,2,17,65,0,0
36031,-100,4,2,1,65,0,0
36062,-100,4,2,1,65,0,0
36500,-100,4,2,18,65,0,0
36531,-100,4,2,1,65,0,0
40500,-100,4,2,19,65,0,0
40531,-100,4,2,1,65,0,0
43968,-100,4,2,20,70,0,0
44999,-100,4,2,1,40,0,0
45031,-100,4,2,1,40,0,0
53000,-111.111111111111,4,2,1,50,0,0
57000,-111.111111111111,4,2,38,55,0,0
57031,-111.111111111111,4,2,1,55,0,0
58000,-111.111111111111,4,2,22,55,0,0
58031,-111.111111111111,4,2,1,55,0,0
58250,-111.111111111111,4,2,1,55,0,0
58500,-111.111111111111,4,2,23,55,0,0
58531,-111.111111111111,4,2,1,55,0,0
58750,-111.111111111111,4,2,1,55,0,0
59000,-111.111111111111,4,2,1,65,0,0
59500,-100,4,2,1,65,0,0
61000,-90.9090909090909,4,2,1,70,0,1
64250,-90.9090909090909,4,2,24,70,0,1
64281,-90.9090909090909,4,2,1,70,0,1
64312,-90.9090909090909,4,2,1,70,0,1
64500,-90.9090909090909,4,2,25,70,0,1
64531,-90.9090909090909,4,2,1,70,0,1
65000,-100,4,2,1,70,0,0
65250,-100,4,2,1,70,0,0
65281,-100,4,2,1,70,0,0
66000,-100,4,2,27,70,0,0
66500,-100,4,2,27,70,0,0
67000,-100,4,2,28,70,0,1
67031,-100,4,2,1,70,0,1
67062,-100,4,2,1,70,0,1
69000,-90.9090909090909,4,2,1,70,0,1
69999,-90.9090909090909,4,2,29,70,0,1
70031,-90.9090909090909,4,2,1,70,0,1
71000,-90.9090909090909,4,2,30,70,0,1
71031,-90.9090909090909,4,2,1,70,0,1
72250,-90.9090909090909,4,2,31,70,0,1
72281,-90.9090909090909,4,2,1,70,0,1
72500,-90.9090909090909,4,2,32,70,0,1
72531,-90.9090909090909,4,2,1,70,0,1
74000,-90.9090909090909,4,2,33,70,0,1
74031,-90.9090909090909,4,2,1,70,0,1
74500,-90.9090909090909,4,2,1,60,0,0
75000,-90.9090909090909,4,2,1,70,0,1
76000,-90.9090909090909,4,2,34,70,0,1
76031,-90.9090909090909,4,2,1,70,0,1
77000,-111.111111111111,4,2,1,50,0,0
80000,-111.111111111111,4,2,1,40,0,0
87250,-111.111111111111,4,2,1,20,0,0
88906,-111.111111111111,4,2,1,20,0,0
88999,-111.111111111111,4,2,35,5,0,0

[Colours]
Combo1 : 255,128,64
Combo2 : 255,128,128
Combo3 : 255,185,151
Combo4 : 232,232,232
Combo5 : 147,147,147
Combo6 : 255,51,51

[HitObjects]
10,367,14500,6,2,B|64:387|101:326|92:320|84:315|124:250|199:270,1,234,6|2,2:0|2:3,2:1:0:0:
494,124,17000,38,0,P|503:59|513:2,2,117,2|2|2,2:0|2:0|2:0,0:0:0:0:
460,350,18750,1,2,2:0:0:0:
385,365,19000,70,0,P|318:332|317:290,1,117,2|2,2:0|2:0,0:0:0:0:
269,152,20000,2,0,P|234:164|221:192,2,58.5000000000001,2|2|2,2:0|2:0|2:0,0:0:0:0:
335,188,20750,1,2,3:2:0:0:
406,163,21000,6,0,P|415:98|425:41,2,117,2|2|2,3:2|2:0|2:0,0:0:0:0:
369,310,22500,70,0,P|334:297|322:279,1,58.4999982147217,2|2,2:3|2:3,0:0:0:0:
288,212,23000,1,2,3:2:0:0:
288,212,23250,1,2,2:0:0:0:
211,235,23500,1,6,2:0:0:0:
19,366,27000,54,0,B|-11:339|-14:292|16:237|83:246|93:272|82:287,1,175.5,2|2,2:0|2:0,0:0:0:0:
105,352,28000,53,8,2:0:0:0:
105,352,28250,1,8,2:0:0:0:
179,365,28500,2,0,P|212:357|244:351,1,58.5000000000001,8|8,2:0|2:0,0:0:0:0:
297,293,29000,22,0,P|303:252|309:228,1,65,2|2,3:2|2:0,0:0:0:0:
260,159,29500,2,0,P|267:127|271:95,1,65,2|2,2:0|3:2,0:0:0:0:
337,42,30000,1,10,2:0:0:0:
487,118,30500,2,0,P|511:144|508:181,1,65,2|2,3:2|2:0,0:0:0:0:
427,182,31000,6,0,B|352:206|393:245|316:273,1,130,2|2,2:0|2:0,0:0:0:0:
261,230,31750,1,2,3:2:0:0:
262,230,32000,2,0,P|255:198|244:167,2,65,8|2|2,2:0|2:3|2:0,0:0:0:0:
175,375,33000,70,0,B|115:354|156:315|83:292,1,130,2|2,3:2|3:2,0:0:0:0:
10,246,33750,1,2,3:2:0:0:
10,246,34000,2,0,P|18:214|22:182,1,65,8|0,2:0|3:0,0:0:0:0:
34,98,34500,1,2,3:2:0:0:
174,3,35000,6,0,B|273:39|219:91|319:123,1,195,2|2,2:0|3:2,0:0:0:0:
400,99,36000,1,10,2:0:0:0:
457,168,36250,1,4,3:2:0:0:
457,168,36500,1,4,2:0:0:0:
383,319,37000,70,0,P|341:313|322:281,1,65,2|2,3:2|2:0,0:0:0:0:
248,266,37500,2,0,P|232:226|250:194,1,65,2|2,2:0|3:2,0:0:0:0:
313,165,38000,2,0,B|373:144|332:105|407:81,1,130,10|2,2:0|2:0,0:0:0:0:
491,107,38750,1,2,3:2:0:0:
491,107,39000,5,2,2:0:0:0:
348,16,39500,2,0,P|308:8|271:2,1,65,2|2,2:0|3:2,0:0:0:0:
206,37,40000,2,0,B|132:60|173:99|113:120,1,130,10|2,2:0|3:2,0:0:0:0:
58,279,41000,69,2,3:2:0:0:
94,355,41250,1,2,3:2:0:0:
177,367,41500,2,0,P|220:349|232:317,1,65,2|2,2:0|3:2,0:0:0:0:
239,250,42000,1,10,2:0:0:0:
125,132,42500,5,2,3:2:0:0:
125,132,42750,1,2,2:0:0:0:
160,55,43000,1,2,3:2:0:0:
421,251,43968,38,2,B|417:243|412:237|410:229|411:219|416:206|425:193|433:186|447:177|467:158|473:145|472:128|465:108|447:94|427:90|420:78|413:60|416:43|421:27|427:19|433:15|441:8,1,268.125,2|6,2:1|2:0,2:1:0:0:
205,342,53000,54,0,P|173:333|146:328,1,58.5000000000001,4|8,2:0|2:3,0:0:0:0:
75,305,53500,2,0,P|84:273|89:246,1,58.5000000000001,8|8,2:3|2:3,0:0:0:0:
104,173,54000,2,0,P|98:144|90:116,2,58.5000000000001,2|2|2,2:0|2:3|2:3,0:0:0:0:
237,245,55000,6,0,P|269:236|296:231,1,58.5000000000001,2|8,2:0|2:3,0:0:0:0:
367,208,55500,2,0,P|358:176|353:149,1,58.5000000000001,8|8,2:3|2:3,0:0:0:0:
338,76,56000,2,0,P|343:47|351:19,2,58.5000000000001,2|2|2,2:0|2:3|2:3,0:0:0:0:
189,42,57000,70,0,P|158:58|145:86,1,58.5000000000001,2|2,2:0|2:0,0:0:0:0:
86,124,57500,2,0,P|84:158|102:184,1,58.5000000000001,2|2,2:0|2:0,0:0:0:0:
118,250,58000,2,0,P|147:268|178:266,1,58.5000000000001,2|2,2:0|2:0,0:0:0:0:
240,298,58500,2,0,P|271:281|284:254,1,58.5000000000001,2|2,2:0|2:0,0:0:0:0:
269,178,59000,21,4,3:1:0:0:
328,117,59250,1,4,3:1:0:0:
406,149,59500,2,0,P|412:186|418:212,1,65,4|4,3:1|3:1,0:0:0:0:
437,294,60000,1,4,3:1:0:0:
70,358,61000,6,0,P|39:320|41:284,1,71.5,2|2,3:2|2:0,0:0:0:0:
96,228,61500,1,10,2:0:0:0:
96,228,61750,1,2,2:0:0:0:
182,261,62000,2,0,P|269:275|330:289,1,143,2|10,3:2|2:0,0:0:0:0:
394,354,62750,1,2,2:0:0:0:
394,354,63000,70,0,B|462:331|414:291|506:262,1,143,2|8,3:2|2:0,0:0:0:0:
409,107,64000,1,2,3:2:0:0:
409,107,64250,2,0,P|399:151|392:184,1,71.5,4|4,3:2|3:2,0:0:0:0:
231,129,65000,54,0,P|238:94|246:66,2,65,2|8|2,2:3|2:3|2:3,0:0:0:0:
246,219,65750,1,2,2:3:0:0:
246,219,66000,2,2,B|181:222|181:222|179:264|179:264|163:289,1,130,2|2,0:1|2:0,0:1:0:0:
0,374,67000,69,0,3:0:0:0:
12,281,67250,1,6,2:0:0:0:
12,281,67500,1,6,2:0:0:0:
26,95,68000,53,0,3:0:0:0:
119,107,68250,1,6,2:0:0:0:
119,107,68500,1,6,2:0:0:0:
292,174,69000,70,0,P|253:185|222:201,1,71.5,2|2,3:2|2:0,0:0:0:0:
177,280,69500,1,8,2:0:0:0:
177,280,69750,1,2,2:0:0:0:
251,335,70000,6,2,B|319:312|271:272|356:246,1,143,2|8,3:2|2:0,2:1:0:0:
442,280,70750,1,2,2:0:0:0:
505,211,71000,2,2,B|436:188|484:148|399:122,1,143,2|10,3:2|2:0,2:1:0:0:
248,13,72000,1,2,3:2:0:0:
236,106,72250,1,4,3:2:0:0:
236,106,72500,1,4,3:2:0:0:
208,289,73000,69,6,3:2:0:0:
208,289,73250,1,6,2:0:0:0:
133,344,73500,2,0,P|92:332|77:302,1,71.5,2|6,2:0|3:2,0:0:0:0:
93,217,74000,1,6,3:2:0:0:
442,358,75000,5,6,3:2:0:0:
442,358,75250,1,6,2:0:0:0:
485,276,75500,2,0,P|471:235|463:199,1,71.5,2|6,2:0|3:2,0:0:0:0:
386,157,76000,1,6,3:2:0:0:
151,350,77000,6,0,P|105:331|93:268,1,117,2|0,2:0|0:0,0:0:0:0:
241,241,78000,2,0,P|287:222|299:159,1,117,2|2,2:0|2:0,0:0:0:0:
253,100,78750,1,2,2:0:0:0:
253,100,79000,22,0,P|187:113|12:161,1,234,2|2,2:0|2:0,0:0:0:0:
285,315,81000,2,0,P|351:328|526:376,1,234,2|2,2:0|2:0,0:0:0:0:
440,75,83000,1,2,2:0:0:0:
256,192,84000,12,0,89000,0:0:0:0:
