osu file format v14

[General]
AudioFilename: audio.mp3
AudioLeadIn: 0
PreviewTime:28931
Countdown: 0
SampleSet: Soft
StackLeniency: 0.4
Mode: 0
LetterboxInBreaks: 0
WidescreenStoryboard: 1

[Editor]
Bookmarks: 14494,23494,23681,23744,23806,23994,24119,24244,24306,24431,24494,24619,24744,24869,24994,25056,25181,25244,25369,25494,25619,25744,25806,25931,25994,26119,26244,26431,26494,26556,26681,26744,44994,45119,45244,45369,45494,45619,45869,45994,46119,46244,46494,46619,46744,46869,46994,47119,47369,47494,47619,47744,47994,48119,48244,48494,48619,48744,48869,49119,49244,49369,49494,49744,49869,49994,50119,50369,50494,50744,50869,50994,51119,51369,51494,51619,51869,51994,52119,52244,52494,52619,52994,58994,60994,76994,88994
DistanceSpacing: 0.1
BeatDivisor: 8
GridSize: 16
TimelineZoom: 1.5

[Metadata]
Title:Any Last Words?
TitleUnicode:尽在吾辈
Artist:HOYO-MiX
ArtistUnicode:HOYO-MiX
Creator:Ascended
Version:L1gHT's Insane
Source:Genshin Impact
Tags:原神 hu who fuu tao hutao boo 胡桃 フータオ 호두 fuutao Wangsheng Funeral Parlor Wangsheng-tang Wangshengtang Let The Living Beware Butterfly pyro OST original sound track soundtrack video game videogame instrumental folk electronic Papilio Charontis Liyue -_ascended_- -ascended- l1ght_u light_u l1ightu lightu -hitomi GanyuMyMommy Nytrocide_ Nytro Ajisai- Ajisai Down ScubDomino [Keqing] haruto_- haruto aizawa haruto_aizawa -_Heatwave_- -Heatwave- Wanpachi Cycopton @HOYO-MiX Yu-Peng Chen YuPeng 陈致逸 輝く星々 Stellar Moments Vol. 2 Album mihoyo 闪耀的群星2 輝く星々Vol.2 Volume two
BeatmapID:3461050
BeatmapSetID:1690574

[Difficulty]
HPDrainRate:5
CircleSize:4.2
OverallDifficulty:7
ApproachRate:8.8
SliderMultiplier:1.8
SliderTickRate:0.5

[Events]
//Background and Video events
0,0,"hu-tao-ghost-genshin-impact-2k-wallpaper-2560x1440-uhdpaper.com-265.1_a.jpg",0,0
//Break Periods
2,23700,26371
2,45199,52371
//Storyboard Layer 0 (Background)
//Storyboard Layer 1 (Fail)
//Storyboard Layer 2 (Pass)
//Storyboard Layer 3 (Foreground)
//Storyboard Layer 4 (Overlay)
//Storyboard Sound Samples
Sample,49000,0,"society.wav",30
Sample,58994,0,"who.ogg",80

[TimingPoints]
1000,500,4,2,2,30,1,0
1000,-250,4,2,2,30,0,0
1031,-250,4,2,1,30,0,0
1875,-250,4,2,2,5,0,0
2000,-142.857142857143,4,2,3,30,0,0
2031,-142.857142857143,4,2,1,30,0,0
2500,-142.857142857143,4,2,3,30,0,0
3000,-250,4,2,4,30,0,0
3031,-250,4,2,1,30,0,0
3875,-250,4,2,4,5,0,0
4000,-142.857142857143,4,2,1,30,0,0
5000,-142.857142857143,4,2,5,30,0,0
5031,-142.857142857143,4,2,1,30,0,0
5500,-142.857142857143,4,2,5,30,0,0
6000,-142.857142857143,4,2,6,30,0,0
6031,-142.857142857143,4,2,1,30,0,0
6500,-142.857142857143,4,2,7,30,0,0
6531,-142.857142857143,4,2,1,30,0,0
7000,-250,4,2,1,30,0,0
8000,-142.857142857143,4,2,1,30,0,0
8250,-142.857142857143,4,2,8,30,0,0
8281,-142.857142857143,4,2,1,30,0,0
10000,-250,4,2,1,30,0,0
11000,-200,4,2,1,30,0,0
12000,-142.857142857143,4,2,37,30,0,0
12250,-142.857142857143,4,2,9,30,0,0
12281,-142.857142857143,4,2,1,30,0,0
12312,-142.857142857143,4,2,1,30,0,0
13000,-250.000000000001,4,2,1,30,0,0
14500,-111.111111111111,4,2,10,65,0,0
15000,-111.111111111111,4,2,1,65,0,0
15375,-111.111111111111,4,2,10,5,0,0
15500,-111.111111111111,4,2,1,65,0,0
17000,-142.857142857143,4,2,1,50,0,0
27000,-142.857142857143,4,2,11,50,0,0
27031,-142.857142857143,4,2,1,50,0,0
27125,-142.857142857143,4,2,1,50,0,0
27187,-142.857142857143,4,2,11,5,0,0
27250,-100,4,2,1,50,0,0
27375,-100,4,2,1,5,0,0
27500,-100,4,2,1,50,0,0
27625,-100,4,2,1,5,0,0
27750,-100,4,2,1,50,0,0
27875,-100,4,2,1,5,0,0
28000,-100,4,2,12,65,0,0
28031,-100,4,2,1,65,0,0
28062,-100,4,2,1,65,0,0
29000,-111.111111111111,4,2,1,65,0,0
31000,-111.111111111111,4,2,13,65,0,0
31031,-111.111111111111,4,2,1,65,0,0
31500,-111.111111111111,4,2,14,65,0,0
31531,-111.111111111111,4,2,1,65,0,0
32500,-111.111111111111,4,2,15,65,0,0
32531,-111.111111111111,4,2,1,65,0,0
34000,-111.111111111111,4,2,16,65,0,0
34031,-111.111111111111,4,2,1,65,0,0
34062,-111.111111111111,4,2,1,65,0,0
36000,-83.3333333333333,4,2,17,65,0,0
36031,-83.3333333333333,4,2,1,65,0,0
36062,-83.3333333333333,4,2,1,65,0,0
36125,-83.3333333333333,4,2,17,5,0,0
36250,-62.5,4,2,1,65,0,0
36375,-62.5,4,2,1,5,0,0
36500,-50,4,2,18,65,0,0
36531,-50,4,2,1,65,0,0
36625,-50,4,2,18,5,0,0
36750,-50,4,2,1,65,0,0
36875,-50,4,2,1,5,0,0
37000,-111.111111111111,4,2,1,65,0,0
39375,-111.111111111111,4,2,1,5,0,0
39500,-111.111111111111,4,2,1,65,0,0
40500,-111.111111111111,4,2,19,65,0,0
40531,-111.111111111111,4,2,1,65,0,0
41000,-83.3333333333333,4,2,1,65,0,0
41125,-83.3333333333333,4,2,1,5,0,0
41250,-83.3333333333333,4,2,1,65,0,0
41375,-83.3333333333333,4,2,1,5,0,0
41500,-142.857142857143,4,2,1,65,0,0
41625,-142.857142857143,4,2,1,5,0,0
41750,-142.857142857143,4,2,1,65,0,0
41875,-142.857142857143,4,2,1,5,0,0
42000,-50,4,2,1,65,0,0
42375,-50,4,2,1,5,0,0
42500,-71.4285714285714,4,2,1,65,0,0
43968,-62.5,4,2,20,70,0,0
44999,-62.5,4,2,1,40,0,0
45031,-62.5,4,2,1,40,0,0
53000,-100,4,2,1,50,0,0
57000,-100,4,2,38,55,0,0
57031,-100,4,2,1,55,0,0
58000,-100,4,2,22,55,0,0
58031,-100,4,2,1,55,0,0
58250,-100,4,2,1,55,0,0
58500,-100,4,2,23,55,0,0
58531,-100,4,2,1,55,0,0
58750,-100,4,2,1,55,0,0
59000,-83.3333333333333,4,2,1,65,0,0
59125,-83.3333333333333,4,2,1,5,0,0
59250,-66.6666666666667,4,2,1,65,0,0
59375,-66.6666666666667,4,2,1,5,0,0
59500,-55.5555555555556,4,2,1,65,0,0
59625,-55.5555555555556,4,2,1,5,0,0
59750,-47.6190476190476,4,2,1,65,0,0
59875,-47.6190476190476,4,2,1,5,0,0
60000,-71.4285714285714,4,2,1,65,0,0
60875,-71.4285714285714,4,2,1,5,0,0
61000,-66.6666666666667,4,2,1,70,0,0
61187,-66.6666666666667,4,2,1,5,0,0
61250,-66.6666666666667,4,2,1,70,0,0
61625,-66.6666666666667,4,2,1,5,0,0
61750,-66.6666666666667,4,2,1,70,0,0
61875,-66.6666666666667,4,2,1,5,0,0
62000,-66.6666666666667,4,2,1,70,0,0
62437,-66.6666666666667,4,2,1,5,0,0
62500,-66.6666666666667,4,2,1,70,0,0
62625,-66.6666666666667,4,2,1,5,0,0
62750,-66.6666666666667,4,2,1,70,0,0
62875,-66.6666666666667,4,2,1,5,0,0
63000,-66.6666666666667,4,2,1,70,0,0
63625,-66.6666666666667,4,2,1,5,0,0
63750,-66.6666666666667,4,2,1,70,0,0
63875,-66.6666666666667,4,2,1,5,0,0
64000,-55.5555555555556,4,2,1,70,0,0
64187,-55.5555555555556,4,2,1,5,0,0
64250,-55.5555555555556,4,2,24,70,0,0
64281,-55.5555555555556,4,2,1,70,0,0
64312,-55.5555555555556,4,2,1,70,0,0
64375,-55.5555555555556,4,2,24,5,0,0
64500,-47.6190476190476,4,2,25,70,0,0
64531,-47.6190476190476,4,2,1,70,0,0
64750,-47.6190476190476,4,2,25,70,0,0
65000,-47.6190476190476,4,2,1,70,0,0
65250,-47.6190476190476,4,2,1,70,0,0
65281,-47.6190476190476,4,2,1,70,0,0
66000,-71.4285714285714,4,2,27,70,0,0
66500,-71.4285714285714,4,2,27,70,0,0
67000,-100,4,2,28,70,0,0
67031,-100,4,2,1,70,0,0
67062,-100,4,2,1,70,0,0
67125,-100,4,2,28,5,0,0
67250,-71.4285714285714,4,2,1,70,0,0
67375,-71.4285714285714,4,2,1,5,0,0
67500,-45.4545454545455,4,2,1,70,0,0
67875,-45.4545454545455,4,2,1,5,0,0
68000,-100,4,2,1,70,0,0
68125,-100,4,2,1,5,0,0
68250,-71.4285714285714,4,2,1,70,0,0
68375,-71.4285714285714,4,2,1,5,0,0
68500,-45.4545454545455,4,2,1,70,0,0
68875,-45.4545454545455,4,2,1,5,0,0
69000,-62.5,4,2,1,70,0,0
69125,-62.5,4,2,1,5,0,0
69250,-62.5,4,2,1,70,0,0
69625,-62.5,4,2,1,5,0,0
69750,-62.5,4,2,1,70,0,0
69875,-62.5,4,2,1,5,0,0
70000,-55.5555555555556,4,2,29,70,0,0
70031,-55.5555555555556,4,2,1,70,0,0
70375,-55.5555555555556,4,2,29,5,0,0
70500,-55.5555555555556,4,2,1,70,0,0
70625,-55.5555555555556,4,2,1,5,0,0
70750,-55.5555555555556,4,2,1,70,0,0
70875,-55.5555555555556,4,2,1,5,0,0
71000,-55.5555555555556,4,2,30,70,0,0
71031,-55.5555555555556,4,2,1,70,0,0
71375,-55.5555555555556,4,2,30,5,0,0
71500,-55.5555555555556,4,2,1,70,0,0
71625,-55.5555555555556,4,2,1,5,0,0
71750,-55.5555555555556,4,2,1,70,0,0
71875,-55.5555555555556,4,2,1,5,0,0
72000,-55.5555555555556,4,2,1,70,0,0
72125,-55.5555555555556,4,2,1,5,0,0
72250,-55.5555555555556,4,2,31,70,0,0
72281,-55.5555555555556,4,2,1,70,0,0
72375,-55.5555555555556,4,2,31,5,0,0
72500,-50,4,2,32,70,0,0
72531,-50,4,2,1,70,0,0
72875,-50,4,2,32,5,0,0
73000,-62.5,4,2,1,70,0,0
73500,-55.5555555555556,4,2,1,70,0,0
73625,-55.5555555555556,4,2,1,5,0,0
73750,-55.5555555555556,4,2,1,70,0,0
73875,-55.5555555555556,4,2,1,5,0,0
74000,-55.5555555555556,4,2,33,70,0,0
74031,-55.5555555555556,4,2,1,70,0,0
74500,-100,4,2,1,60,0,0
75000,-62.5,4,2,1,70,0,0
75500,-55.5555555555556,4,2,1,70,0,0
75625,-55.5555555555556,4,2,1,5,0,0
75750,-55.5555555555556,4,2,1,70,0,0
75875,-55.5555555555556,4,2,1,5,0,0
76000,-55.5555555555556,4,2,34,70,0,0
76031,-55.5555555555556,4,2,1,70,0,0
77000,-55.5555555555556,4,2,1,50,0,0
78500,-83.3333333333333,4,2,1,50,0,0
80000,-166.666666666666,4,2,1,40,0,0
82000,-250,4,2,1,40,0,0
84000,-142.857142857143,4,2,1,40,0,0
87187,-142.857142857143,4,2,1,5,0,0
87250,-142.857142857143,4,2,1,20,0,0
88906,-142.857142857143,4,2,1,20,0,0
89000,-142.857142857143,4,2,35,5,0,0

[Colours]
Combo1 : 255,128,64
Combo2 : 255,128,128
Combo3 : 255,185,151
Combo4 : 232,232,232
Combo5 : 147,147,147
Combo6 : 255,51,51

[HitObjects]
83,59,1000,54,0,L|102:189,1,126,2|0,3:2|2:0,0:0:0:0:
155,245,2000,2,0,L|136:375,1,126,2|0,2:0|0:0,0:0:0:0:
345,370,3000,70,0,L|326:245,1,126,2|0,3:2|2:0,0:0:0:0:
273,184,4000,2,0,L|291:59,2,126,2|6|2,2:0|2:0|3:2,0:0:0:0:
271,194,5500,1,0,0:0:0:0:
271,203,6000,1,2,2:0:0:0:
408,326,6500,6,0,L|443:321,3,31.5,2|2|2|2,2:0|2:0|2:0|2:0,0:0:0:0:
345,370,7000,2,0,L|236:358,1,108,2|0,3:2|0:0,0:0:0:0:
161,315,8000,2,0,L|27:329,2,126,6|0|2,2:0|0:0|3:2,0:0:0:0:
171,310,9500,1,0,0:0:0:0:
179,304,10000,2,0,L|171:191,1,108,2|0,2:0|0:0,0:0:0:0:
221,113,11000,70,0,L|358:97,1,135,2|0,3:2|0:0,0:0:0:0:
442,123,12000,2,0,P|450:157|448:185,1,62.9999999999999,6|2,2:0|2:0,0:0:0:0:
443,193,12312,1,2,2:0:0:0:
438,202,12375,1,2,2:0:0:0:
369,268,12500,1,2,2:0:0:0:
443,360,12750,1,0,0:0:0:0:
512,297,13000,2,0,P|464:310|443:362,1,108,2|0,3:2|3:0,0:0:0:0:
355,374,14000,5,8,3:0:0:0:
222,359,14250,1,8,3:0:0:0:
89,344,14500,2,2,B|28:277|28:277|151:115,1,283.5,6|0,2:0|2:0,2:1:0:0:
245,112,15500,70,0,L|288:128,3,40.5,2|2|2|2,2:3|2:3|2:3|2:3,0:0:0:0:
186,39,16000,2,0,L|126:48,1,60.7499981460572,2|2,2:3|2:3,0:0:0:0:
45,98,16375,1,2,2:3:0:0:
145,221,17000,6,0,P|189:214|290:206,2,126,2|2|2,2:0|2:0|2:0,0:0:0:0:
88,290,18250,1,2,2:0:0:0:
29,214,18500,2,0,P|35:181|35:148,1,62.9999999999999,2|2,2:0|2:0,0:0:0:0:
122,73,19000,70,0,P|161:77|213:79,1,62.9999999999999,2|0,2:0|0:0,0:0:0:0:
267,126,19500,2,0,P|302:109|348:85,1,62.9999999999999,2|0,2:0|0:0,0:0:0:0:
419,99,20000,2,0,P|441:67|469:23,1,62.9999999999999,2|2,2:0|2:0,0:0:0:0:
324,99,20500,1,2,2:0:0:0:
375,203,20750,1,2,3:2:0:0:
306,311,21000,1,2,3:2:0:0:
306,311,21500,6,0,P|317:343|323:373,1,62.9999999999999,2|0,2:0|0:0,0:0:0:0:
420,369,22000,2,0,P|426:338|436:308,1,62.9999999999999,2|8,2:0|2:3,0:0:0:0:
369,247,22500,1,2,2:3:0:0:
365,253,22625,1,2,2:3:0:0:
368,260,22750,1,2,2:3:0:0:
375,262,22875,1,2,2:3:0:0:
379,257,23000,69,2,3:2:0:0:
341,174,23250,1,2,2:0:0:0:
368,88,23500,1,6,2:0:0:0:
322,68,27000,86,0,L|375:75,1,47.2499985580445,2|0,2:0|2:0,0:0:0:0:
190,68,27250,2,0,L|129:72,1,45,2|0,2:0|2:0,0:0:0:0:
336,163,27500,6,0,L|386:196,1,45,2|0,2:0|2:0,0:0:0:0:
176,163,27750,2,0,L|125:196,1,45,2|0,2:0|2:0,0:0:0:0:
256,240,28000,5,8,2:0:0:0:
256,205,28125,1,0,3:0:0:0:
256,174,28250,1,8,2:0:0:0:
256,146,28375,1,0,3:0:0:0:
257,120,28500,5,8,2:0:0:0:
257,96,28625,1,0,3:0:0:0:
257,74,28750,1,8,2:0:0:0:
257,54,28875,1,0,3:0:0:0:
177,8,29000,6,0,L|80:32,1,81.0000000000001,2|2,3:2|2:0,0:0:0:0:
33,93,29500,1,2,2:0:0:0:
137,144,29750,1,2,3:2:0:0:
76,252,30000,2,0,P|69:208|52:175,1,81.0000000000001,10|0,2:0|0:0,0:0:0:0:
189,264,30500,2,0,P|196:220|213:187,1,81.0000000000001,2|2,3:2|2:0,0:0:0:0:
129,343,31000,6,0,L|96:351,5,27,2|2|2|2|2|2,2:0|2:0|2:0|3:2|2:0|2:0,0:0:0:0:
213,342,31500,2,0,L|305:355,1,81.0000000000001,2|2,2:0|3:2,0:0:0:0:
387,373,32000,1,8,2:0:0:0:
417,345,32125,1,2,2:3:0:0:
422,304,32250,1,2,2:3:0:0:
407,266,32375,1,2,2:3:0:0:
375,240,32500,1,2,2:0:0:0:
375,240,33000,70,0,L|345:251,5,27,2|2|2|2|2|2,3:2|2:0|2:0|2:0|2:0|2:0,0:0:0:0:
431,185,33500,2,0,P|433:137|412:95,1,81.0000000000001,2|2,3:2|3:2,0:0:0:0:
349,49,34000,1,8,2:0:0:0:
506,75,34250,1,0,3:0:0:0:
355,159,34500,2,0,L|259:146,1,81.0000000000001,2|0,3:2|0:0,0:0:0:0:
125,114,35000,5,2,2:0:0:0:
118,108,35083,1,2,2:0:0:0:
116,100,35166,1,2,2:0:0:0:
118,92,35250,1,2,3:2:0:0:
122,85,35333,1,2,2:0:0:0:
128,79,35416,1,2,2:0:0:0:
136,78,35500,2,0,L|180:86,3,27,2|2|2|2,2:0|2:0|2:0|3:2,0:0:0:0:
55,53,36000,70,0,L|0:70,1,54,10|0,2:0|2:0,0:0:0:0:
105,183,36250,2,0,P|136:188|173:172,1,72,4|0,3:2|2:0,0:0:0:0:
266,74,36500,6,0,P|313:88|331:136,1,90,4|0,2:0|2:0,0:0:0:0:
402,188,36750,2,0,P|413:236|380:275,1,90,2|0,3:2|2:0,0:0:0:0:
310,321,37000,70,0,L|230:332,1,81.0000000000001,2|2,3:2|2:0,0:0:0:0:
242,235,37500,1,2,2:0:0:0:
336,221,37750,1,2,3:2:0:0:
426,306,38000,6,0,L|456:302,5,27,10|2|2|2|2|2,2:0|2:0|2:0|3:2|2:0|2:0,0:0:0:0:
463,383,38500,2,0,L|476:289,1,81.0000000000001,2|2,2:0|3:2,0:0:0:0:
462,201,39000,70,0,P|455:148|422:77,1,121.5,2|0,2:0|2:0,0:0:0:0:
350,65,39500,1,2,2:0:0:0:
492,36,39750,1,2,3:2:0:0:
344,77,40000,6,0,L|302:88,5,27,10|2|2|2|2|2,2:0|2:0|2:0|3:2|2:0|2:0,0:0:0:0:
241,63,40500,2,0,L|141:57,1,81.0000000000001,2|0,3:2|3:0,0:0:0:0:
70,96,40875,69,2,2:0:0:0:
66,104,40937,1,2,2:0:0:0:
68,113,41000,2,0,P|82:142|77:170,1,54,2|0,3:2|2:0,0:0:0:0:
171,215,41250,2,0,P|169:188|183:165,1,54,2|0,3:2|2:0,0:0:0:0:
104,306,41500,6,0,L|98:262,1,31.5,2|0,2:0|2:0,0:0:0:0:
203,323,41750,2,0,L|197:366,1,31.5,2|0,3:2|2:0,0:0:0:0:
16,320,42000,70,0,L|323:308,1,270,10|0,2:0|2:0,0:0:0:0:
360,274,42500,2,0,P|376:251|377:191,3,63,2|2|2|2,3:2|2:0|2:0|2:0,0:0:0:0:
292,326,43000,5,2,3:2:0:0:
325,147,43968,38,2,B|356:113|412:128|412:128|390:70|355:39|264:23|192:54|166:166|202:256|322:279|385:213,1,594,2|6,2:1|2:0,2:1:0:0:
503,146,53000,54,0,L|413:131,1,90,4|8,2:0|2:3,0:0:0:0:
390,38,53500,2,0,L|300:53,1,90,8|8,2:3|2:3,0:0:0:0:
229,113,54000,1,2,2:0:0:0:
228,126,54250,1,2,2:3:0:0:
239,133,54500,1,2,2:3:0:0:
248,125,54750,1,2,2:0:0:0:
166,72,55000,6,0,P|116:78|70:63,1,90,2|8,2:0|2:3,0:0:0:0:
73,168,55500,2,0,P|123:162|169:177,1,90,8|8,2:3|2:3,0:0:0:0:
241,231,56000,1,2,2:0:0:0:
232,249,56250,1,2,2:3:0:0:
244,262,56500,1,2,2:3:0:0:
236,278,56750,1,0,0:0:0:0:
344,328,57000,69,2,2:0:0:0:
358,322,57250,1,2,2:0:0:0:
444,280,57500,5,2,2:0:0:0:
446,259,57750,1,2,2:0:0:0:
458,158,58000,69,2,2:0:0:0:
432,141,58250,1,2,2:0:0:0:
355,80,58500,5,2,2:0:0:0:
311,101,58750,1,2,2:0:0:0:
236,194,59000,6,0,P|213:204|164:186,1,54,4|0,3:1|2:0,0:0:0:0:
160,82,59250,6,0,P|194:107|196:147,1,67.5,4|0,3:1|2:0,0:0:0:0:
125,275,59500,70,0,P|108:312|120:356,1,80.9999999999999,4|0,3:1|2:0,0:0:0:0:
270,344,59750,6,0,P|227:321|163:325,1,94.5,4|0,3:1|2:0,0:0:0:0:
39,355,60000,22,0,L|-8:372,3,42,4|2|2|2,3:1|2:0|2:0|2:0,0:0:0:0:
125,275,60500,1,2,2:0:0:0:
66,169,60750,2,0,L|74:102,1,63,2|0,2:3|2:0,0:0:0:0:
171,44,61000,38,0,P|220:55|262:103,1,101.25,2|0,3:2|2:0,0:0:0:0:
305,184,61250,1,2,2:0:0:0:
295,188,61375,1,2,2:0:0:0:
287,193,61500,2,0,L|375:182,1,67.5,10|0,2:0|2:0,0:0:0:0:
444,174,61750,2,0,L|532:163,1,67.5,2|0,2:0|2:0,0:0:0:0:
473,291,62000,6,0,B|468:328|434:341|434:341|461:254|444:175,1,236.25,2|0,3:2|2:0,0:0:0:0:
409,101,62500,2,0,P|407:41|422:22,1,67.5,10|0,2:0|2:0,0:0:0:0:
312,26,62750,2,0,P|314:86|299:105,1,67.5,2|0,2:0|2:0,0:0:0:0:
198,134,63000,69,2,3:2:0:0:
184,135,63083,1,2,2:0:0:0:
170,132,63166,1,2,2:0:0:0:
157,126,63250,1,2,2:0:0:0:
148,115,63333,1,2,2:0:0:0:
143,102,63416,1,2,2:0:0:0:
144,88,63500,6,0,L|227:91,1,67.5,8|0,2:0|2:0,0:0:0:0:
96,26,63750,2,0,L|28:28,1,67.5,2|0,2:0|2:0,0:0:0:0:
13,121,64000,2,0,B|4:181|4:181|46:230,1,121.5,2|0,3:2|2:0,0:0:0:0:
134,267,64250,70,0,L|128:176,1,80.9999999999999,4|0,3:2|2:0,0:0:0:0:
44,327,64500,2,0,P|107:310|266:348,1,189,4|0,3:2|0:0,0:0:0:0:
323,351,65000,53,2,2:3:0:0:
345,348,65250,1,8,2:3:0:0:
427,293,65500,5,2,2:3:0:0:
405,290,65750,1,2,2:3:0:0:
365,160,66000,70,2,P|261:181|325:265,1,252,2|2,0:1|2:0,0:1:0:0:
406,77,67000,70,0,L|415:23,1,45,0|0,3:0|2:0,0:0:0:0:
330,0,67250,86,0,L|317:74,1,63,6|0,2:0|2:0,0:0:0:0:
507,117,67500,86,0,P|397:90|197:72,1,297,6|0,2:0|2:0,0:0:0:0:
110,166,68000,54,0,L|101:220,1,45,0|0,3:0|2:0,0:0:0:0:
186,243,68250,22,0,L|198:168,1,63,6|0,2:0|2:0,0:0:0:0:
9,126,68500,54,0,P|119:153|319:171,1,297,6|0,2:0|2:0,0:0:0:0:
441,36,69000,70,0,P|430:85|382:127,1,72,2|0,3:2|2:0,0:0:0:0:
301,170,69250,1,2,2:0:0:0:
297,160,69375,1,2,2:0:0:0:
292,152,69500,2,0,L|303:240,1,72,8|0,2:0|2:0,0:0:0:0:
311,309,69750,2,0,L|322:397,1,72,2|0,2:0|2:0,0:0:0:0:
201,313,70000,6,2,B|158:294|75:304|45:357|45:357|92:358|96:303,1,243,2|0,3:2|2:0,2:1:0:0:
64,245,70500,2,0,P|45:211|62:164,1,80.9999999999999,8|0,2:0|2:0,0:0:0:0:
154,156,70750,2,0,P|172:189|155:236,1,80.9999999999999,2|0,2:0|2:0,0:0:0:0:
17,88,71000,70,2,B|60:107|143:97|173:44|173:44|126:43|122:98,1,243,2|0,3:2|2:0,2:1:0:0:
154,156,71500,2,0,P|172:189|155:236,1,80.9999999999999,10|0,2:0|2:0,0:0:0:0:
64,245,71750,2,0,P|45:211|62:164,1,80.9999999999999,2|0,2:0|2:0,0:0:0:0:
126,297,72000,6,0,P|167:309|207:289,1,80.9999999999999,2|0,3:2|2:0,0:0:0:0:
278,235,72250,2,0,P|315:220|352:233,1,80.9999999999999,4|0,3:2|2:0,0:0:0:0:
331,366,72500,70,0,P|319:265|287:100,1,270,4|0,3:2|2:0,0:0:0:0:
350,12,73000,6,0,P|399:2|464:70,1,144,6|6,3:2|2:0,0:0:0:0:
505,186,73500,2,0,P|496:225|474:259,1,80.9999999999999,2|0,2:0|2:0,0:0:0:0:
356,151,73750,2,0,P|365:112|388:79,1,80.9999999999999,6|0,3:2|2:0,0:0:0:0:
382,240,74000,1,6,3:2:0:0:
382,240,74500,70,0,L|319:230,3,45,2|2|2|2,2:0|2:0|2:0|2:0,0:0:0:0:
260,280,75000,6,0,P|211:290|146:222,1,144,6|6,3:2|2:0,0:0:0:0:
104,105,75500,2,0,P|112:65|135:32,1,80.9999999999999,2|0,2:0|2:0,0:0:0:0:
253,140,75750,2,0,P|244:179|221:212,1,80.9999999999999,6|0,3:2|2:0,0:0:0:0:
228,52,76000,1,6,3:2:0:0:
228,52,77000,37,2,2:0:0:0:
253,140,77250,1,0,0:0:0:0:
168,158,77500,5,0,0:0:0:0:
147,230,77750,1,0,0:0:0:0:
260,280,78000,69,2,2:0:0:0:
252,300,78500,2,0,L|362:287,1,108,2|2,2:0|2:0,0:0:0:0:
356,299,78833,1,2,2:0:0:0:
352,313,78916,1,2,2:0:0:0:
350,325,79000,1,2,2:0:0:0:
386,68,80000,6,0,P|289:103|272:205,1,216.000000000001,2|2,2:0|2:0,0:0:0:0:
164,267,82000,70,0,P|232:282|263:344,1,144,2|2,2:0|2:0,0:0:0:0:
364,295,84000,54,0,B|455:283|500:221|501:168|501:168|542:161|542:161|504:129|504:129|500:38|414:-5|349:39|338:113|385:151|385:151|357:195|357:195|404:188|404:188|421:223|413:264|357:291,1,803.249999999999,2|0,2:3|2:0,0:0:0:0:
256,192,87250,12,0,89000,0:0:0:0:
