osu file format v14

[General]
AudioFilename: audio.mp3
AudioLeadIn: 0
PreviewTime:28931
Countdown: 0
SampleSet: Soft
StackLeniency: 0.4
Mode: 0
LetterboxInBreaks: 0
WidescreenStoryboard: 1

[Editor]
DistanceSpacing: 0.1
BeatDivisor: 16
GridSize: 4
TimelineZoom: 2.3

[Metadata]
Title:Any Last Words?
TitleUnicode:尽在吾辈
Artist:HOYO-MiX
ArtistUnicode:HOYO-MiX
Creator:Ascended
Version:Down's Lingering Carmine
Source:Genshin Impact
Tags:原神 hu who fuu tao hutao boo 胡桃 フータオ 호두 fuutao Wangsheng Funeral Parlor Wangsheng-tang Wangshengtang Let The Living Beware Butterfly pyro OST original sound track soundtrack video game videogame instrumental folk electronic Papilio Charontis Liyue -_ascended_- -ascended- l1ght_u light_u l1ightu lightu -hitomi GanyuMyMommy Nytrocide_ Nytro Ajisai- Ajisai Down ScubDomino [Keqing] haruto_- haruto aizawa haruto_aizawa -_Heatwave_- -Heatwave- Wanpachi Cycopton @HOYO-MiX Yu-Peng Chen YuPeng 陈致逸 輝く星々 Stellar Moments Vol. 2 Album mihoyo 闪耀的群星2 輝く星々Vol.2 Volume two
BeatmapID:3498150
BeatmapSetID:1690574

[Difficulty]
HPDrainRate:5
CircleSize:4.3
OverallDifficulty:8.5
ApproachRate:9.1
SliderMultiplier:2
SliderTickRate:1

[Events]
//Background and Video events
0,0,"93721101_p0.jpg",0,0
//Break Periods
2,23700,26416
//Storyboard Layer 0 (Background)
//Storyboard Layer 1 (Fail)
//Storyboard Layer 2 (Pass)
//Storyboard Layer 3 (Foreground)
//Storyboard Layer 4 (Overlay)
//Storyboard Sound Samples
Sample,58994,0,"who.ogg",80

[TimingPoints]
1000,500,4,2,2,30,1,0
1000,-200,4,2,2,30,0,0
1031,-200,4,2,1,30,0,0
1500,-200,4,2,2,30,0,0
1875,-200,4,2,1,30,0,0
2000,-200,4,2,3,30,0,0
2031,-200,4,2,1,30,0,0
2500,-200,4,2,3,30,0,0
2875,-200,4,2,1,30,0,0
3000,-200,4,2,4,30,0,0
3031,-200,4,2,1,30,0,0
3500,-200,4,2,4,30,0,0
3875,-200,4,2,1,30,0,0
4000,-200,4,2,1,30,0,0
4375,-200,4,2,1,5,0,0
4500,-200,4,2,1,30,0,0
5000,-200,4,2,5,30,0,0
5031,-200,4,2,1,30,0,0
5500,-200,4,2,5,30,0,0
6000,-200,4,2,6,30,0,0
6031,-200,4,2,1,30,0,0
6500,-200,4,2,7,30,0,0
6531,-200,4,2,1,30,0,0
8250,-200,4,2,8,30,0,0
8281,-200,4,2,1,30,0,0
8500,-200,4,2,8,30,0,0
8875,-200,4,2,1,30,0,0
9000,-200,4,2,1,30,0,0
9875,-200,4,2,1,30,0,0
10000,-200,4,2,1,30,0,0
10875,-200,4,2,1,30,0,0
11000,-200,4,2,1,30,0,0
11875,-200,4,2,1,30,0,0
12000,-200,4,2,37,30,0,0
12250,-200,4,2,9,30,0,0
12281,-200,4,2,1,30,0,0
12312,-200,4,2,1,30,0,0
12875,-200,4,2,1,30,0,0
13000,-200,4,2,1,30,0,0
13625,-200,4,2,1,30,0,0
13750,-200,4,2,1,30,0,0
14125,-200,4,2,1,30,0,0
14250,-200,4,2,1,30,0,0
14375,-200,4,2,1,30,0,0
14500,-200,4,2,10,65,0,0
15000,-200,4,2,1,65,0,0
15375,-200,4,2,1,65,0,0
15500,-200,4,2,1,65,0,0
17000,-200,4,2,1,50,0,0
17687,-200,4,2,1,50,0,0
17750,-200,4,2,1,50,0,0
17812,-200,4,2,1,50,0,0
18000,-200,4,2,1,50,0,0
18187,-200,4,2,1,50,0,0
18250,-200,4,2,1,50,0,0
18312,-200,4,2,1,50,0,0
18500,-200,4,2,1,50,0,0
18687,-200,4,2,1,50,0,0
18750,-200,4,2,1,50,0,0
18812,-200,4,2,1,50,0,0
19000,-200,4,2,1,50,0,0
19187,-200,4,2,1,50,0,0
19250,-200,4,2,1,50,0,0
19312,-200,4,2,1,50,0,0
19500,-200,4,2,1,50,0,0
19687,-200,4,2,1,50,0,0
19750,-200,4,2,1,50,0,0
19812,-200,4,2,1,50,0,0
20000,-200,4,2,1,50,0,0
20375,-200,4,2,1,50,0,0
20500,-200,4,2,1,50,0,0
20687,-200,4,2,1,50,0,0
20750,-200,4,2,1,50,0,0
20937,-200,4,2,1,50,0,0
21000,-200,4,2,1,50,0,0
21687,-200,4,2,1,50,0,0
21750,-200,4,2,1,50,0,0
21812,-200,4,2,1,50,0,0
22000,-200,4,2,1,50,0,0
22125,-200,4,2,1,50,0,0
22250,-200,4,2,1,50,0,0
23125,-200,4,2,1,50,0,0
23250,-200,4,2,1,50,0,0
23375,-200,4,2,1,50,0,0
23500,-200,4,2,1,50,0,0
27000,-200,4,2,11,50,0,0
27031,-200,4,2,1,50,0,0
27125,-200,4,2,11,5,0,0
27250,-100,4,2,1,50,0,0
27375,-100,4,2,1,5,0,0
27500,-66.6666666666667,4,2,1,50,0,0
27625,-66.6666666666667,4,2,1,5,0,0
27750,-50,4,2,1,50,0,0
27875,-50,4,2,1,5,0,0
28000,-50,4,2,12,65,0,0
28031,-50,4,2,1,65,0,0
28062,-50,4,2,1,65,0,0
29000,-66.6666666666667,4,2,1,65,0,0
29187,-66.6666666666667,4,2,1,5,0,0
29250,-66.6666666666667,4,2,1,65,0,0
29375,-66.6666666666667,4,2,1,5,0,0
29500,-100,4,2,1,65,0,0
29625,-100,4,2,1,5,0,0
29750,-100,4,2,1,65,0,0
29875,-100,4,2,1,5,0,0
30000,-100,4,2,1,65,0,0
30375,-100,4,2,1,5,0,0
30500,-100,4,2,1,65,0,0
30625,-100,4,2,1,5,0,0
30750,-100,4,2,1,65,0,0
30875,-100,4,2,1,5,0,0
31000,-100,4,2,13,65,0,0
31031,-100,4,2,1,65,0,0
31500,-100,4,2,14,65,0,0
31531,-100,4,2,1,65,0,0
31625,-100,4,2,14,5,0,0
31750,-100,4,2,1,65,0,0
31875,-100,4,2,1,5,0,0
32000,-100,4,2,1,65,0,0
32500,-100,4,2,15,65,0,0
32531,-100,4,2,1,65,0,0
33625,-100,4,2,1,5,0,0
33687,-100,4,2,1,65,0,0
33750,-100,4,2,1,65,0,0
33875,-100,4,2,1,5,0,0
34000,-100,4,2,16,65,0,0
34031,-100,4,2,1,65,0,0
34062,-100,4,2,1,65,0,0
34125,-100,4,2,16,5,0,0
34250,-100,4,2,1,65,0,0
34375,-100,4,2,1,5,0,0
34437,-100,4,2,1,65,0,0
34500,-100,4,2,1,65,0,0
34625,-100,4,2,1,65,0,0
34750,-100,4,2,1,65,0,0
34875,-100,4,2,1,5,0,0
35000,-100,4,2,1,65,0,0
35812,-100,4,2,1,65,0,0
35875,-100,4,2,1,65,0,0
36000,-66.6666666666667,4,2,17,65,0,0
36031,-66.6666666666667,4,2,1,65,0,0
36062,-66.6666666666667,4,2,1,65,0,0
36187,-66.6666666666667,4,2,17,5,0,0
36250,-66.6666666666667,4,2,1,65,0,0
36312,-66.6666666666667,4,2,1,5,0,0
36375,-66.6666666666667,4,2,1,65,0,0
36437,-66.6666666666667,4,2,1,5,0,0
36500,-66.6666666666667,4,2,18,65,0,0
36531,-66.6666666666667,4,2,1,65,0,0
36625,-66.6666666666667,4,2,18,65,0,0
36687,-66.6666666666667,4,2,1,65,0,0
36750,-66.6666666666667,4,2,1,65,0,0
36875,-66.6666666666667,4,2,1,65,0,0
37000,-66.6666666666667,4,2,1,65,0,0
37187,-66.6666666666667,4,2,1,5,0,0
37250,-66.6666666666667,4,2,1,65,0,0
37375,-66.6666666666667,4,2,1,5,0,0
37500,-100,4,2,1,65,0,0
37625,-100,4,2,1,5,0,0
37750,-100,4,2,1,65,0,0
37875,-100,4,2,1,5,0,0
38000,-100,4,2,1,65,0,0
38625,-100,4,2,1,5,0,0
38750,-100,4,2,1,65,0,0
38875,-100,4,2,1,5,0,0
39000,-100,4,2,1,65,0,0
39187,-100,4,2,1,65,0,0
39250,-100,4,2,1,65,0,0
39375,-100,4,2,1,5,0,0
39437,-100,4,2,1,65,0,0
39500,-100,4,2,1,65,0,0
39625,-100,4,2,1,5,0,0
39750,-100,4,2,1,65,0,0
39875,-100,4,2,1,5,0,0
39937,-100,4,2,1,65,0,0
40000,-100,4,2,1,65,0,0
40500,-100,4,2,19,65,0,0
40531,-100,4,2,1,65,0,0
41000,-50,4,2,1,65,0,0
41125,-50,4,2,1,5,0,0
41187,-50,4,2,1,65,0,0
41250,-66.6666666666667,4,2,1,65,0,0
41375,-66.6666666666667,4,2,1,5,0,0
41437,-66.6666666666667,4,2,1,65,0,0
41500,-100,4,2,1,65,0,0
41625,-100,4,2,1,5,0,0
41750,-200,4,2,1,65,0,0
41875,-200,4,2,1,5,0,0
42000,-100,4,2,1,65,0,0
42062,-100,4,2,1,65,0,0
42375,-100,4,2,1,5,0,0
42500,-100,4,2,1,65,0,0
43968,-62.111801242236,4,2,20,70,0,0
44875,-62.111801242236,4,2,20,5,0,0
44936,-62.111801242236,4,2,20,70,0,0
45000,-100,4,2,1,40,0,0
45031,-100,4,2,1,40,0,0
45250,-100,4,2,1,40,0,0
46125,-100,4,2,1,5,0,0
46250,-100,4,2,1,40,0,0
47125,-100,4,2,1,5,0,0
47250,-100,4,2,1,40,0,0
49000,-100,4,2,36,40,0,0
49250,-100,4,2,1,40,0,0
50125,-100,4,2,1,5,0,0
50250,-100,4,2,1,40,0,0
51125,-100,4,2,1,5,0,0
51250,-100,4,2,1,40,0,0
51625,-100,4,2,1,5,0,0
51750,-100,4,2,1,40,0,0
52125,-100,4,2,1,40,0,0
52250,-100,4,2,1,40,0,0
52375,-100,4,2,1,40,0,0
52500,-100,4,2,1,40,0,0
52625,-100,4,2,1,40,0,0
52750,-100,4,2,1,40,0,0
53000,-100,4,2,1,50,0,0
53125,-100,4,2,1,5,0,0
53250,-100,4,2,1,50,0,0
55125,-100,4,2,1,5,0,0
55250,-100,4,2,1,50,0,0
56875,-100,4,2,1,50,0,0
57000,-100,4,2,38,55,0,0
57031,-100,4,2,1,55,0,0
58000,-100,4,2,22,55,0,0
58031,-100,4,2,1,55,0,0
58250,-100,4,2,1,55,0,0
58500,-100,4,2,23,55,0,0
58531,-100,4,2,1,55,0,0
58750,-100,4,2,1,55,0,0
59000,-200,4,2,1,65,0,0
59125,-200,4,2,1,5,0,0
59250,-100,4,2,1,65,0,0
59375,-100,4,2,1,5,0,0
59500,-66.6666666666667,4,2,1,65,0,0
59625,-66.6666666666667,4,2,1,5,0,0
59750,-50,4,2,1,65,0,0
59875,-50,4,2,1,5,0,0
60000,-40,4,2,1,65,0,0
60125,-40,4,2,1,5,0,0
60500,-40,4,2,1,65,0,0
60812,-40,4,2,1,65,0,0
60875,-40,4,2,1,65,0,0
60937,-40,4,2,1,65,0,0
61000,-50,4,2,1,70,0,0
61187,-50,4,2,1,5,0,0
61250,-50,4,2,1,70,0,0
61687,-50,4,2,1,5,0,0
61750,-50,4,2,1,70,0,0
61875,-50,4,2,1,5,0,0
62000,-50,4,2,1,70,0,0
62187,-50,4,2,1,70,0,0
62250,-50,4,2,1,70,0,0
62625,-50,4,2,1,5,0,0
62687,-50,4,2,1,70,0,0
62750,-50,4,2,1,70,0,0
62875,-50,4,2,1,5,0,0
63000,-50,4,2,1,70,0,0
63625,-50,4,2,1,5,0,0
63687,-50,4,2,1,70,0,0
63750,-50,4,2,1,70,0,0
63875,-50,4,2,1,5,0,0
64000,-50,4,2,1,70,0,0
64125,-50,4,2,1,5,0,0
64187,-50,4,2,1,70,0,0
64250,-50,4,2,24,70,0,0
64281,-50,4,2,1,70,0,0
64312,-50,4,2,1,70,0,0
64375,-50,4,2,24,70,0,0
64500,-50,4,2,25,70,0,0
64531,-50,4,2,1,70,0,0
65625,-50,4,2,1,70,0,0
65750,-50,4,2,1,70,0,0
65875,-50,4,2,1,70,0,0
66000,-100,4,2,27,70,0,0
66375,-100,4,2,27,5,0,0
66437,-100,4,2,27,70,0,0
66500,-100,4,2,27,70,0,0
66875,-100,4,2,27,70,0,0
67000,-50,4,2,28,70,0,0
67031,-50,4,2,1,70,0,0
67062,-50,4,2,1,70,0,0
67125,-50,4,2,28,5,0,0
67187,-50,4,2,1,70,0,0
67375,-50,4,2,1,5,0,0
67500,-50,4,2,1,70,0,0
67687,-50,4,2,1,70,0,0
67750,-50,4,2,1,70,0,0
67875,-50,4,2,1,5,0,0
68000,-50,4,2,1,70,0,0
68125,-50,4,2,1,5,0,0
68187,-50,4,2,1,70,0,0
68250,-50,4,2,1,70,0,0
68375,-50,4,2,1,5,0,0
68500,-50,4,2,1,70,0,0
68625,-50,4,2,1,70,0,0
68750,-50,4,2,1,70,0,0
68875,-50,4,2,1,5,0,0
69000,-50,4,2,1,70,0,0
69187,-50,4,2,1,5,0,0
69250,-50,4,2,1,70,0,0
69687,-50,4,2,1,5,0,0
69750,-50,4,2,1,70,0,0
69875,-50,4,2,1,5,0,0
70000,-50,4,2,29,70,0,0
70031,-50,4,2,1,70,0,0
70250,-50,4,2,29,70,0,0
70375,-50,4,2,29,70,0,0
70500,-50,4,2,1,70,0,0
70625,-50,4,2,1,5,0,0
70687,-50,4,2,1,70,0,0
70750,-50,4,2,1,70,0,0
70875,-50,4,2,1,5,0,0
71000,-50,4,2,30,70,0,0
71031,-50,4,2,1,70,0,0
71250,-50,4,2,30,70,0,0
71500,-50,4,2,1,70,0,0
71625,-50,4,2,1,5,0,0
71687,-50,4,2,1,70,0,0
71750,-50,4,2,1,70,0,0
71875,-50,4,2,1,5,0,0
72000,-50,4,2,1,70,0,0
72125,-50,4,2,1,5,0,0
72187,-50,4,2,1,70,0,0
72250,-50,4,2,31,70,0,0
72281,-50,4,2,1,70,0,0
72375,-50,4,2,31,70,0,0
72500,-50,4,2,32,70,0,0
72531,-50,4,2,1,70,0,0
72625,-50,4,2,1,70,0,0
72937,-50,4,2,1,70,0,0
73125,-50,4,2,1,5,0,0
73187,-50,4,2,1,70,0,0
73250,-50,4,2,1,70,0,0
73375,-50,4,2,1,5,0,0
73437,-50,4,2,1,70,0,0
73500,-50,4,2,1,70,0,0
73625,-50,4,2,1,5,0,0
73687,-50,4,2,1,70,0,0
73750,-50,4,2,1,70,0,0
73875,-50,4,2,1,5,0,0
73937,-50,4,2,1,70,0,0
74000,-100,4,2,33,70,0,0
74031,-100,4,2,1,70,0,0
74062,-100,4,2,1,70,0,0
74375,-100,4,2,33,5,0,0
74500,-100,4,2,1,60,0,0
75000,-50,4,2,1,70,0,0
75125,-50,4,2,1,5,0,0
75187,-50,4,2,1,70,0,0
75250,-50,4,2,1,70,0,0
75375,-50,4,2,1,5,0,0
75437,-50,4,2,1,70,0,0
75500,-50,4,2,1,70,0,0
75625,-50,4,2,1,5,0,0
75687,-50,4,2,1,70,0,0
75750,-50,4,2,1,70,0,0
75875,-50,4,2,1,5,0,0
75937,-50,4,2,1,70,0,0
76000,-100,4,2,34,70,0,0
76031,-100,4,2,1,70,0,0
76125,-100,4,2,1,70,0,0
76250,-100,4,2,34,70,0,0
76937,-100,4,2,1,70,0,0
77000,-100,4,2,1,50,0,0
78375,-100,4,2,1,5,0,0
78437,-100,4,2,1,50,0,0
78500,-100,4,2,1,50,0,0
80000,-100,4,2,1,40,0,0
87250,-100,4,2,1,20,0,0
88906,-100,4,2,1,20,0,0
89000,-100,4,2,35,5,0,0

[Colours]
Combo1 : 241,134,69
Combo2 : 247,51,51

[HitObjects]
336,45,1000,6,0,P|327:96|319:155,1,100,2|0,3:2|0:0,0:0:0:0:
320,143,2000,2,0,P|271:139|247:93,1,100,2|0,2:0|0:0,0:0:0:0:
20,241,3000,6,0,P|70:253|122:263,1,100,2|0,3:2|0:0,0:0:0:0:
117,262,4000,2,0,P|145:238|147:199,1,75,2|0,2:0|2:0,0:0:0:0:
100,142,4500,1,6,2:0:0:0:
273,372,5000,6,0,P|278:313|291:265,1,100,2|0,3:2|0:0,0:0:0:0:
288,273,6000,2,0,P|336:250|382:233,1,100,2|2,2:0|2:0,0:0:0:0:
430,177,6625,1,2,2:0:0:0:
453,171,6750,1,2,2:0:0:0:
432,161,6875,1,2,2:0:0:0:
461,248,7000,6,0,P|454:283|439:350,1,100,2|0,3:2|0:0,0:0:0:0:
440,345,8000,2,0,P|414:335|394:327,2,50,6|2|0,2:0|2:0|0:0,0:0:0:0:
391,78,9000,6,0,P|359:80|327:140,1,100,2|0,3:2|0:0,0:0:0:0:
326,133,10000,1,2,2:0:0:0:
57,11,11000,6,0,P|73:58|86:110,1,100,2|0,3:2|0:0,0:0:0:0:
85,106,12000,1,6,2:0:0:0:
184,149,12250,6,0,P|187:136|192:129,3,12.5,2|2|2|0,2:0|2:0|2:0|0:0,0:0:0:0:
173,155,12500,1,2,2:0:0:0:
0,253,13000,6,0,P|49:265|101:281,1,100,2|0,3:2|0:0,0:0:0:0:
204,222,13750,1,0,3:0:0:0:
179,263,13875,1,0,3:0:0:0:
255,274,14000,5,8,3:0:0:0:
431,143,14250,1,8,3:0:0:0:
200,34,14500,6,2,B|191:92|232:143|241:103|283:144|286:208,1,200,6|2,2:0|2:3,2:1:0:0:
255,274,15625,1,2,2:3:0:0:
286,319,15750,1,2,2:3:0:0:
339,330,15875,1,2,2:3:0:0:
406,294,16000,6,0,P|415:268|425:251,1,33.3333333333333,2|2,2:3|2:3,0:0:0:0:
356,156,16375,1,2,2:3:0:0:
356,156,17000,5,2,2:0:0:0:
176,117,17500,1,2,2:0:0:0:
137,297,18000,1,2,2:0:0:0:
317,336,18500,1,2,2:0:0:0:
429,302,18750,1,2,2:0:0:0:
356,156,19000,5,2,2:0:0:0:
137,297,19500,1,2,2:0:0:0:
176,117,20000,1,2,2:0:0:0:
317,336,20500,1,2,2:0:0:0:
429,302,20750,1,2,3:2:0:0:
356,156,21000,5,2,3:2:0:0:
176,117,21500,1,2,2:0:0:0:
137,297,22000,1,2,2:0:0:0:
317,336,22250,1,8,2:3:0:0:
317,336,22375,1,8,2:3:0:0:
317,336,22500,1,2,2:3:0:0:
429,302,22750,1,2,2:3:0:0:
356,156,23000,5,2,3:2:0:0:
137,297,23250,1,2,2:0:0:0:
176,117,23500,1,6,2:0:0:0:
176,117,27000,6,0,P|189:125|198:136,1,25,2|0,2:0|2:0,0:0:0:0:
338,58,27250,6,0,P|339:81|320:108,1,50,2|0,2:0|2:0,0:0:0:0:
465,187,27500,6,0,P|428:212|395:209,1,75.0000028610231,2|0,2:0|2:0,0:0:0:0:
371,379,27750,6,0,P|330:360|309:304,1,100,2|0,2:0|2:0,0:0:0:0:
156,267,28000,5,8,2:0:0:0:
167,291,28125,1,0,3:0:0:0:
94,208,28250,5,8,2:0:0:0:
76,246,28375,1,0,3:0:0:0:
179,152,28500,5,8,2:0:0:0:
203,209,28625,1,0,3:0:0:0:
115,51,28750,5,8,2:0:0:0:
84,117,28875,1,0,3:0:0:0:
251,47,29000,6,0,P|224:101|216:184,1,112.500004291535,2|0,3:2|2:0,0:0:0:0:
208,166,29250,2,0,P|238:193|283:193,1,75.0000028610231,2|0,2:0|2:0,0:0:0:0:
363,294,29500,6,0,P|396:288|410:265,1,50,2|0,2:0|2:0,0:0:0:0:
490,232,29750,2,0,P|496:206|506:175,1,50,2|0,3:2|2:0,0:0:0:0:
368,68,30000,6,0,B|363:98|363:98|429:141|413:205,1,150,10|0,2:0|2:0,0:0:0:0:
337,219,30500,2,0,P|308:202|312:167,1,50,2|0,3:2|2:0,0:0:0:0:
251,47,30750,2,0,P|233:56|198:68,1,50,2|0,2:0|2:0,0:0:0:0:
82,169,31000,5,2,2:0:0:0:
74,167,31083,1,2,2:0:0:0:
69,161,31166,1,2,2:0:0:0:
68,153,31250,2,0,L|78:105,2,33.3333333333333,2|2|2,3:2|2:0|2:0,0:0:0:0:
54,161,31500,6,0,B|34:174|34:174|33:231,1,50,2|0,2:0|2:0,0:0:0:0:
126,297,31750,2,0,P|157:304|188:313,1,50,2|0,3:2|2:0,0:0:0:0:
312,339,32000,5,8,2:0:0:0:
381,263,32125,1,2,2:3:0:0:
238,195,32250,5,2,2:3:0:0:
307,268,32375,1,2,2:3:0:0:
292,135,32500,5,2,2:0:0:0:
292,135,33000,5,2,3:2:0:0:
300,133,33083,1,2,2:0:0:0:
305,127,33166,1,2,2:0:0:0:
306,119,33250,2,0,L|296:71,2,33.3333333333333,2|2|2,2:0|2:0|2:0,0:0:0:0:
323,130,33500,6,0,L|376:140,1,50,2|0,3:2|2:0,0:0:0:0:
441,221,33750,2,0,B|451:245|451:245|440:291,1,50,2|0,3:2|2:0,0:0:0:0:
341,341,34000,6,0,P|315:327|310:289,1,50,8|0,2:0|2:0,0:0:0:0:
146,299,34250,2,0,P|162:261|173:238,1,50,0|0,3:0|2:0,0:0:0:0:
323,130,34500,2,0,P|293:133|243:239,1,150,2|0,3:2|2:0,0:0:0:0:
165,253,35000,5,2,2:0:0:0:
157,251,35083,1,2,2:0:0:0:
152,245,35166,1,2,2:0:0:0:
151,237,35250,2,0,L|161:189,2,33.3333333333333,2|2|2,3:2|2:0|2:0,0:0:0:0:
74,321,35500,1,2,2:0:0:0:
82,319,35583,1,2,2:0:0:0:
87,313,35666,1,2,2:0:0:0:
88,305,35750,2,0,L|78:257,2,33.3333333333333,2|0|0,3:2|0:0|0:0,0:0:0:0:
161,333,36000,6,0,P|210:330|271:375,1,112.500004291535,10|0,2:0|2:0,0:0:0:0:
274,369,36250,2,0,L|316:358,1,37.5000014305115,4|0,3:2|2:0,0:0:0:0:
300,254,36375,2,0,L|352:263,1,37.5000014305115,0|0,0:0|2:0,0:0:0:0:
379,384,36500,5,4,2:0:0:0:
479,271,36625,1,0,0:0:0:0:
411,314,36750,5,2,3:2:0:0:
509,382,36875,1,0,0:0:0:0:
374,249,37000,6,0,P|355:208|293:134,1,112.500004291535,2|0,3:2|2:0,0:0:0:0:
298,152,37250,2,0,P|301:110|341:85,1,75.0000028610231,2|0,2:0|2:0,0:0:0:0:
434,133,37500,6,0,P|458:141|481:148,1,50,2|0,2:0|2:0,0:0:0:0:
257,221,37750,2,0,B|232:212|232:212|220:167,1,50,2|0,3:2|2:0,0:0:0:0:
105,55,38000,5,10,2:0:0:0:
97,57,38083,1,2,2:0:0:0:
92,63,38166,1,2,2:0:0:0:
91,71,38250,2,0,L|101:119,2,33.3333333333333,2|2|2,3:2|2:0|2:0,0:0:0:0:
109,67,38500,6,0,P|140:78|168:89,1,50,2|0,2:0|2:0,0:0:0:0:
55,226,38750,2,0,P|33:236|5:247,1,50,2|0,3:2|2:0,0:0:0:0:
159,163,39000,6,0,B|199:175|199:175|240:232|240:232|279:245,1,150,2|0,2:0|2:0,0:0:0:0:
290,163,39500,2,0,B|307:142|307:142|300:118,1,50,2|0,2:0|2:0,0:0:0:0:
151,246,39750,2,0,P|157:283|163:314,1,50,2|0,3:2|2:0,0:0:0:0:
321,349,40000,5,10,2:0:0:0:
329,347,40083,1,2,2:0:0:0:
334,341,40166,1,2,2:0:0:0:
335,333,40250,2,0,L|325:285,2,33.3333333333333,2|2|2,3:2|2:0|2:0,0:0:0:0:
347,331,40500,6,0,P|402:344|451:361,1,100,2|0,3:2|3:0,0:0:0:0:
451,227,40875,1,2,2:0:0:0:
451,227,40937,1,2,2:0:0:0:
451,227,41000,6,0,P|467:178|493:129,1,100,2|0,3:2|2:0,0:0:0:0:
314,192,41250,6,0,P|327:157|353:108,1,75.0000028610231,2|0,3:2|2:0,0:0:0:0:
177,164,41500,6,0,P|187:138|203:108,1,50,2|0,2:0|2:0,0:0:0:0:
49,137,41750,6,0,P|54:124|63:107,1,25,2|0,3:2|2:0,0:0:0:0:
0,233,42000,6,0,P|62:265|34:349,1,150,10|0,2:0|2:0,0:0:0:0:
128,374,42500,5,2,3:2:0:0:
277,294,42625,1,2,2:0:0:0:
147,268,42750,5,2,2:0:0:0:
282,368,42875,1,2,2:0:0:0:
335,155,43000,5,2,3:2:0:0:
193,146,43968,6,2,B|211:111|201:75|201:75|196:59|184:48|184:48|179:50|179:50|182:45|182:45|161:26|133:27|133:27|107:30|92:49|92:49|91:50|90:51|90:51|85:49|85:49|88:53|88:53|69:81|76:114|76:114|81:134|93:150|93:150|98:148|98:148|95:152|95:152|96:153|96:153|119:171|122:199|122:199|123:222|109:239|109:239|107:240|105:242|105:242|100:239|100:239|103:244|103:244|85:260|61:257|61:257|43:254|33:241|33:241|25:231|25:218|25:218|19:216|19:216|25:215|25:215|25:210|27:203,1,583.625000890541,2|0,2:1|2:0,2:1:0:0:
28,201,45000,6,0,P|66:207|71:277,1,100,6|2,2:0|2:3,0:0:0:0:
68,333,45375,1,8,2:3:0:0:
59,343,45500,1,2,2:3:0:0:
192,319,45750,1,8,2:3:0:0:
292,241,46000,6,0,P|300:209|304:180,1,50,8|0,2:3|2:0,0:0:0:0:
433,199,46250,1,2,2:3:0:0:
485,97,46500,5,2,2:3:0:0:
380,64,46750,1,0,0:0:0:0:
402,45,46875,1,2,2:3:0:0:
323,19,47000,6,0,P|332:53|340:79,1,50,2|0,2:3|2:0,0:0:0:0:
433,199,47250,1,0,0:0:0:0:
343,304,47500,5,0,0:0:0:0:
370,144,47750,1,8,2:3:0:0:
165,228,48000,5,2,2:3:0:0:
110,216,48125,1,2,2:3:0:0:
85,165,48250,1,8,2:3:0:0:
118,85,48375,5,8,2:3:0:0:
124,47,48500,1,2,2:3:0:0:
97,87,48625,1,2,2:3:0:0:
160,154,48750,5,8,2:3:0:0:
412,32,49000,6,0,P|382:56|370:129,1,100,2|2,2:0|2:3,0:0:0:0:
402,185,49375,1,8,2:3:0:0:
414,179,49500,1,2,2:3:0:0:
273,131,49750,1,8,2:3:0:0:
200,246,50000,6,0,P|170:237|139:221,1,50,2|0,2:3|2:0,0:0:0:0:
40,273,50250,1,2,2:3:0:0:
29,53,50500,5,2,2:3:0:0:
157,151,50750,5,0,0:0:0:0:
166,147,50833,1,0,0:0:0:0:
171,139,50916,1,0,0:0:0:0:
169,130,51000,6,0,P|130:137|115:143,1,50,2|0,2:3|2:0,0:0:0:0:
40,273,51250,1,0,0:0:0:0:
80,312,51375,1,8,2:3:0:0:
116,298,51500,6,0,P|123:276|133:247,1,50,0|0,0:0|2:0,0:0:0:0:
61,186,51750,1,8,2:3:0:0:
120,140,51875,1,8,2:3:0:0:
38,95,52000,5,2,2:3:0:0:
260,149,52250,5,2,2:3:0:0:
426,308,52500,5,2,2:3:0:0:
454,161,52750,5,2,2:0:0:0:
414,137,52875,1,2,2:0:0:0:
468,85,53000,6,0,P|480:50|491:19,1,50,4|0,2:0|2:0,0:0:0:0:
328,28,53250,1,8,2:3:0:0:
340,37,53375,1,8,2:3:0:0:
288,95,53500,5,8,2:3:0:0:
152,27,53750,1,8,2:3:0:0:
13,258,54000,6,0,P|74:235|132:220,1,100,2|2,2:0|2:3,0:0:0:0:
107,225,54500,1,2,2:3:0:0:
44,137,54750,5,2,2:0:0:0:
20,123,54875,1,2,2:0:0:0:
69,70,55000,6,0,P|98:61|130:51,1,50,2|0,2:0|2:0,0:0:0:0:
250,126,55250,1,8,2:3:0:0:
237,139,55375,1,8,2:3:0:0:
164,120,55500,5,8,2:3:0:0:
262,289,55750,1,8,2:3:0:0:
393,178,56000,6,0,P|405:111|419:54,1,100,2|2,2:0|2:3,0:0:0:0:
412,79,56500,1,2,2:3:0:0:
0,375,57000,5,2,2:0:0:0:
0,359,57250,5,2,2:0:0:0:
8,337,57500,5,2,2:0:0:0:
25,292,57750,5,2,2:0:0:0:
77,226,58000,5,2,2:0:0:0:
167,161,58250,5,2,2:0:0:0:
289,117,58500,5,2,2:0:0:0:
465,137,58750,5,2,2:0:0:0:
482,362,59000,6,0,B|479:367|479:367|483:373|483:373|488:365|488:365|485:359,1,25,4|0,3:1|2:0,0:0:0:0:
381,342,59250,6,0,P|364:349|379:338,1,50,4|0,3:1|2:0,0:0:0:0:
253,277,59500,6,0,P|253:291|254:279,1,75.0000028610231,4|0,3:1|2:0,0:0:0:0:
148,172,59750,6,0,P|124:197|141:167,1,100,4|0,3:1|2:0,0:0:0:0:
52,23,60000,6,0,P|32:57|53:24,1,125,4|0,3:1|2:0,0:0:0:0:
421,160,60500,5,2,2:0:0:0:
338,34,60750,5,2,2:3:0:0:
298,70,60875,1,0,0:0:0:0:
342,134,61000,6,0,P|355:183|361:324,1,150,2|0,3:2|2:0,0:0:0:0:
372,292,61250,2,0,P|310:297|275:263,1,100,2|2,2:0|2:0,0:0:0:0:
173,130,61500,6,0,B|108:149|72:155|72:155|109:164|128:187,1,150,10|0,2:0|2:0,0:0:0:0:
120,185,61750,2,0,P|110:235|106:297,1,100,2|0,2:0|2:0,0:0:0:0:
267,369,62000,6,0,P|256:277|242:170,1,200,2|0,3:2|0:0,0:0:0:0:
270,41,62375,1,2,2:0:0:0:
352,94,62500,2,0,P|329:152|329:218,1,100,10|0,2:0|2:0,0:0:0:0:
168,209,62750,2,0,P|123:200|96:138,1,100,2|0,2:0|2:0,0:0:0:0:
19,21,63000,5,2,3:2:0:0:
28,20,63083,1,2,2:0:0:0:
37,21,63166,1,2,2:0:0:0:
46,25,63250,1,2,2:0:0:0:
55,29,63333,1,2,2:0:0:0:
62,36,63416,1,2,2:0:0:0:
67,43,63500,6,0,P|113:50|188:64,1,100,8|0,2:0|2:0,0:0:0:0:
352,94,63750,2,0,B|376:62|401:75|401:75|386:77|352:106,1,100,2|0,2:0|2:0,0:0:0:0:
207,257,64000,6,0,P|164:252|175:184,1,100,2|0,3:2|2:0,0:0:0:0:
214,122,64250,5,4,3:2:0:0:
272,203,64375,1,0,0:0:0:0:
236,98,64500,1,4,3:2:0:0:
454,56,65000,5,2,2:3:0:0:
440,164,65250,1,8,2:3:0:0:
464,151,65375,1,8,2:3:0:0:
390,134,65500,5,2,2:3:0:0:
479,295,65750,1,2,2:3:0:0:
320,98,66000,6,2,P|246:123|145:150,1,150,2|0,0:1|2:0,0:1:0:0:
109,108,66500,1,2,2:0:0:0:
109,108,67000,6,0,B|154:126|154:126|93:83,1,100,0|0,3:0|2:0,0:0:0:0:
40,231,67250,2,0,B|-5:249|-5:249|56:206,1,100,6|0,2:0|2:0,0:0:0:0:
40,143,67500,6,0,P|40:191|93:106,1,300,6|0,2:0|2:0,0:0:0:0:
210,62,68000,6,0,B|205:40|226:22|226:22|188:32|199:77,1,100,0|0,3:0|2:0,0:0:0:0:
313,172,68250,2,0,B|308:194|329:211|329:211|291:202|302:157,1,100,6|0,2:0|2:0,0:0:0:0:
278,97,68500,6,0,P|278:145|225:60,1,300,6|0,2:0|2:0,0:0:0:0:
346,41,69000,6,0,P|402:53|421:162,1,150,2|0,3:2|2:0,0:0:0:0:
447,139,69250,2,0,P|406:174|388:215,1,100,2|2,2:0|2:0,0:0:0:0:
435,362,69500,6,0,P|374:338|285:310,1,150,8|0,2:0|2:0,0:0:0:0:
285,302,69750,2,0,P|243:318|181:359,1,100,2|0,2:0|2:0,0:0:0:0:
102,47,70000,6,2,B|157:72|168:133|142:127|159:185|216:207,1,200,2|0,3:2|0:0,2:1:0:0:
136,287,70375,1,0,0:0:0:0:
285,302,70500,2,0,P|288:248|315:174,1,100,8|0,2:0|2:0,0:0:0:0:
322,42,70750,2,0,P|274:55|203:78,1,100,2|0,2:0|2:0,0:0:0:0:
368,269,71000,6,2,B|423:243|434:182|408:188|425:130|482:108,1,200,2|0,3:2|0:0,2:1:0:0:
322,42,71375,1,0,0:0:0:0:
210,94,71500,2,0,P|274:113|326:140,1,100,10|0,2:0|2:0,0:0:0:0:
316,328,71750,2,0,P|252:312|231:258,1,100,2|0,2:0|2:0,0:0:0:0:
75,238,72000,6,0,B|58:260|31:261|31:261|52:237|74:234,1,100,2|0,3:2|2:0,0:0:0:0:
121,151,72250,5,4,3:2:0:0:
179,228,72375,1,0,0:0:0:0:
143,127,72500,1,4,3:2:0:0:
406,25,73000,6,0,P|371:70|376:147,1,100,6|0,3:2|2:0,0:0:0:0:
100,145,73250,2,0,P|137:178|159:240,1,100,6|0,2:0|2:0,0:0:0:0:
348,327,73500,2,0,P|341:294|349:327,1,100,2|0,2:0|2:0,0:0:0:0:
177,358,73750,2,0,P|133:343|142:270,1,100,6|0,3:2|2:0,0:0:0:0:
213,144,74000,6,0,P|286:179|360:210,1,150,6|0,3:2|2:0,0:0:0:0:
421,171,74500,5,2,2:0:0:0:
466,56,74625,1,2,2:0:0:0:
495,151,74750,5,2,2:0:0:0:
392,65,74875,1,2,2:0:0:0:
349,205,75000,6,0,P|319:228|315:302,1,100,6|0,3:2|2:0,0:0:0:0:
107,123,75250,2,0,P|65:88|68:34,1,100,6|0,2:0|2:0,0:0:0:0:
135,10,75500,2,0,P|176:38|175:108,1,100,2|0,2:0|2:0,0:0:0:0:
94,243,75750,2,0,P|44:220|-32:203,1,100,6|0,3:2|2:0,0:0:0:0:
143,349,76000,6,0,P|201:329|262:317,2,100,6|0|0,3:2|0:0|0:0,0:0:0:0:
143,349,77000,6,0,B|123:301|161:264|161:264|158:192|102:172,1,200,2|0,2:0|0:0,0:0:0:0:
314,131,77750,1,0,0:0:0:0:
187,10,78000,6,0,P|260:36|347:60,1,150,2|0,2:0|2:0,0:0:0:0:
404,33,78500,1,2,2:0:0:0:
264,194,78750,5,2,2:0:0:0:
260,204,78833,1,2,2:0:0:0:
261,215,78916,1,2,2:0:0:0:
267,224,79000,5,2,2:0:0:0:
499,175,80000,5,2,2:0:0:0:
2,228,81000,5,2,2:0:0:0:
499,175,82000,5,2,2:0:0:0:
2,228,83000,5,2,2:0:0:0:
256,192,84000,12,0,89000,0:0:0:0:
