osu file format v14

[General]
AudioFilename: audio.mp3
AudioLeadIn: 0
PreviewTime:28931
Countdown: 0
SampleSet: Soft
StackLeniency: 0.4
Mode: 0
LetterboxInBreaks: 0
WidescreenStoryboard: 1

[Editor]
DistanceSpacing: 0.1
BeatDivisor: 12
GridSize: 4
TimelineZoom: 2.3

[Metadata]
Title:Any Last Words?
TitleUnicode:尽在吾辈
Artist:HOYO-MiX
ArtistUnicode:HOYO-MiX
Creator:Ascended
Version:Ajisai's Ominous Rainfall
Source:Genshin Impact
Tags:原神 hu who fuu tao hutao boo 胡桃 フータオ 호두 fuutao Wangsheng Funeral Parlor Wangsheng-tang Wangshengtang Let The Living Beware Butterfly pyro OST original sound track soundtrack video game videogame instrumental folk electronic Papilio Charontis Liyue -_ascended_- -ascended- l1ght_u light_u l1ightu lightu -hitomi GanyuMyMommy Nytrocide_ Nytro Ajisai- Ajisai Down ScubDomino [Keqing] haruto_- haruto aizawa haruto_aizawa -_Heatwave_- -Heatwave- Wanpachi Cycopton @HOYO-MiX Yu-Peng Chen YuPeng 陈致逸 輝く星々 Stellar Moments Vol. 2 Album mihoyo 闪耀的群星2 輝く星々Vol.2 Volume two
BeatmapID:3494723
BeatmapSetID:1690574

[Difficulty]
HPDrainRate:5
CircleSize:4.6
OverallDifficulty:8.2
ApproachRate:9.1
SliderMultiplier:1.74
SliderTickRate:1

[Events]
//Background and Video events
0,0,"93721101_p0.jpg",0,0
//Break Periods
//Storyboard Layer 0 (Background)
//Storyboard Layer 1 (Fail)
//Storyboard Layer 2 (Pass)
//Storyboard Layer 3 (Foreground)
//Storyboard Layer 4 (Overlay)
//Storyboard Sound Samples
Sample,58994,0,"who.ogg",80

[TimingPoints]
1000,500,4,2,2,30,1,0
1000,-227.272727272727,4,2,2,30,0,0
1031,-227.272727272727,4,2,1,30,0,0
1875,-227.272727272727,4,2,1,5,0,0
2000,-185.185185185185,4,2,3,30,0,0
2031,-185.185185185185,4,2,1,30,0,0
2500,-185.185185185185,4,2,1,30,0,0
2875,-185.185185185185,4,2,1,30,0,0
3000,-227.272727272727,4,2,4,30,0,0
3031,-227.272727272727,4,2,1,30,0,0
3875,-227.272727272727,4,2,1,5,0,0
4000,-185.185185185185,4,2,1,30,0,0
4375,-185.185185185185,4,2,1,30,0,0
4500,-106.382978723404,4,2,1,30,0,0
5000,-96.1538461538461,4,2,5,30,0,0
5031,-96.1538461538461,4,2,1,30,0,0
5214,-96.1538461538461,4,2,1,30,0,0
6000,-185.185185185185,4,2,6,30,0,0
6031,-185.185185185185,4,2,1,30,0,0
6375,-185.185185185185,4,2,1,5,0,0
6500,-185.185185185185,4,2,7,30,0,0
6531,-185.185185185185,4,2,1,30,0,0
7000,-135.135135135135,4,2,1,30,0,0
8250,-135.135135135135,4,2,8,30,0,0
8281,-135.135135135135,4,2,1,30,0,0
8875,-135.135135135135,4,2,1,5,0,0
9000,-227.272727272727,4,2,1,30,0,0
9875,-227.272727272727,4,2,1,5,0,0
10000,-185.185185185185,4,2,1,30,0,0
10875,-185.185185185185,4,2,1,30,0,0
11000,-227.272727272727,4,2,1,30,0,0
11875,-227.272727272727,4,2,1,30,0,0
12000,-96.1538461538461,4,2,37,30,0,0
12031,-96.1538461538461,4,2,1,30,0,0
12249,-96.1538461538461,4,2,9,30,0,0
12281,-96.1538461538461,4,2,1,30,0,0
12312,-96.1538461538461,4,2,1,30,0,0
12875,-96.1538461538461,4,2,1,30,0,0
13000,-135.135135135135,4,2,1,30,0,0
13625,-135.135135135135,4,2,1,5,0,0
13750,-135.135135135135,4,2,1,30,0,0
14000,-106.382978723404,4,2,1,30,0,0
14125,-106.382978723404,4,2,1,5,0,0
14250,-106.382978723404,4,2,1,30,0,0
14375,-106.382978723404,4,2,1,5,0,0
14500,-119.047619047619,4,2,10,65,0,0
15000,-119.047619047619,4,2,1,65,0,0
15375,-119.047619047619,4,2,1,5,0,0
15500,-96.1538461538461,4,2,1,65,0,0
15857,-96.1538461538461,4,2,1,65,0,0
16000,-96.1538461538461,4,2,1,65,0,0
17000,-185.185185185185,4,2,1,50,0,0
17437,-185.185185185185,4,2,1,5,0,0
17500,-106.382978723404,4,2,1,50,0,0
17687,-106.382978723404,4,2,1,50,0,0
17750,-106.382978723404,4,2,1,50,0,0
17812,-106.382978723404,4,2,1,50,0,0
17874,-106.382978723404,4,2,1,5,0,0
18000,-87.719298245614,4,2,1,50,0,0
18187,-87.719298245614,4,2,1,5,0,0
18250,-96.1538461538461,4,2,1,50,0,0
18312,-96.1538461538461,4,2,1,50,0,0
18374,-96.1538461538461,4,2,1,5,0,0
18500,-60.9756097560976,4,2,1,50,0,0
18687,-60.9756097560976,4,2,1,5,0,0
18750,-80.6451612903226,4,2,1,50,0,0
18812,-80.6451612903226,4,2,1,50,0,0
18874,-80.6451612903226,4,2,1,5,0,0
19000,-74.6268656716417,4,2,1,50,0,0
19187,-74.6268656716417,4,2,1,5,0,0
19250,-80.6451612903226,4,2,1,50,0,0
19312,-80.6451612903226,4,2,1,50,0,0
19500,-69.4444444444444,4,2,1,50,0,0
19687,-69.4444444444444,4,2,1,5,0,0
19750,-80.6451612903226,4,2,1,50,0,0
19812,-80.6451612903226,4,2,1,50,0,0
19874,-80.6451612903226,4,2,1,5,0,0
20000,-96.1538461538461,4,2,1,50,0,0
20187,-96.1538461538461,4,2,1,5,0,0
20250,-69.4444444444444,4,2,1,50,0,0
20375,-69.4444444444444,4,2,1,50,0,0
20437,-69.4444444444444,4,2,1,5,0,0
20500,-64.9350649350649,4,2,1,50,0,0
20687,-64.9350649350649,4,2,1,50,0,0
20750,-64.9350649350649,4,2,1,50,0,0
20937,-64.9350649350649,4,2,1,50,0,0
21000,-96.1538461538461,4,2,1,50,0,0
21374,-96.1538461538461,4,2,1,5,0,0
21500,-69.4444444444444,4,2,1,50,0,0
21687,-69.4444444444444,4,2,1,5,0,0
21750,-87.719298245614,4,2,1,50,0,0
21812,-87.719298245614,4,2,1,50,0,0
21874,-87.719298245614,4,2,1,5,0,0
22000,-80.6451612903225,4,2,1,50,0,0
22125,-80.6451612903225,4,2,1,5,0,0
22250,-80.6451612903225,4,2,1,50,0,0
23000,-156.25,4,2,1,50,0,0
23125,-156.25,4,2,1,5,0,0
23250,-54.3478260869565,4,2,1,50,0,0
23375,-54.3478260869565,4,2,1,5,0,0
23500,-294.117647058824,4,2,1,50,0,0
27000,-80.6451612903226,4,2,11,50,0,0
27031,-80.6451612903226,4,2,1,50,0,0
27125,-80.6451612903226,4,2,1,5,0,0
27250,-96.1538461538461,4,2,1,50,0,0
27375,-96.1538461538461,4,2,1,5,0,0
27500,-106.382978723404,4,2,1,50,0,0
27625,-106.382978723404,4,2,1,5,0,0
27750,-119.047619047619,4,2,1,50,0,0
27875,-119.047619047619,4,2,1,5,0,0
28000,-96.1538461538461,4,2,12,65,0,0
28031,-96.1538461538461,4,2,1,65,0,0
28062,-96.1538461538461,4,2,1,65,0,0
29000,-80.6451612903226,4,2,1,65,0,0
29187,-80.6451612903226,4,2,1,5,0,0
29250,-74.6268656716418,4,2,1,65,0,0
29375,-74.6268656716418,4,2,1,65,0,0
29437,-74.6268656716418,4,2,1,5,0,0
29500,-64.9350649350649,4,2,1,65,0,0
29875,-64.9350649350649,4,2,1,5,0,0
30000,-80.6451612903226,4,2,1,65,0,0
30375,-80.6451612903226,4,2,1,5,0,0
30500,-87.7192982456139,4,2,1,65,0,0
30625,-87.7192982456139,4,2,1,5,0,0
30750,-80.6451612903226,4,2,1,65,0,0
30875,-80.6451612903226,4,2,1,5,0,0
31000,-74.6268656716418,4,2,13,65,0,0
31031,-74.6268656716418,4,2,1,65,0,0
31500,-69.4444444444444,4,2,14,65,0,0
31531,-69.4444444444444,4,2,1,65,0,0
31625,-69.4444444444444,4,2,1,5,0,0
31750,-64.9350649350649,4,2,1,65,0,0
31875,-69.4444444444444,4,2,1,5,0,0
32000,-96.1538461538461,4,2,1,65,0,0
32500,-96.1538461538461,4,2,15,65,0,0
32531,-74.6268656716418,4,2,1,65,0,0
33500,-60.9756097560976,4,2,1,65,0,0
33687,-96.1538461538461,4,2,1,5,0,0
33750,-96.1538461538461,4,2,1,65,0,0
33875,-96.1538461538461,4,2,1,5,0,0
34000,-54.3478260869565,4,2,16,65,0,0
34031,-54.3478260869565,4,2,1,65,0,0
34062,-96.1538461538461,4,2,1,65,0,0
34125,-96.1538461538461,4,2,1,65,0,0
34187,-96.1538461538461,4,2,1,5,0,0
34250,-80.6451612903226,4,2,1,65,0,0
34374,-80.6451612903226,4,2,1,5,0,0
34437,-96.1538461538461,4,2,1,65,0,0
34500,-119.047619047619,4,2,1,65,0,0
34625,-96.1538461538461,4,2,1,65,0,0
34750,-74.6268656716418,4,2,1,65,0,0
35812,-96.1538461538461,4,2,1,65,0,0
35875,-96.1538461538461,4,2,1,65,0,0
36000,-49.0196078431373,4,2,17,65,0,0
36031,-49.0196078431373,4,2,1,65,0,0
36062,-96.1538461538461,4,2,1,65,0,0
36187,-96.1538461538461,4,2,1,5,0,0
36250,-96.1538461538461,4,2,1,65,0,0
36375,-96.1538461538461,4,2,1,65,0,0
36500,-46.7289719626168,4,2,18,65,0,0
36531,-46.7289719626168,4,2,1,65,0,0
36687,-96.1538461538461,4,2,1,5,0,0
36750,-54.3478260869565,4,2,1,65,0,0
36875,-96.1538461538461,4,2,1,65,0,0
36937,-96.1538461538461,4,2,1,5,0,0
37000,-96.1538461538461,4,2,1,65,0,0
37187,-96.1538461538461,4,2,1,5,0,0
37250,-69.4444444444444,4,2,1,65,0,0
37375,-96.1538461538461,4,2,1,65,0,0
37437,-96.1538461538461,4,2,1,5,0,0
37500,-80.6451612903226,4,2,1,65,0,0
37875,-96.1538461538461,4,2,1,5,0,0
38000,-74.6268656716418,4,2,1,65,0,0
38500,-69.4444444444444,4,2,1,65,0,0
38625,-96.1538461538461,4,2,1,5,0,0
38750,-64.9350649350649,4,2,1,65,0,0
38875,-96.1538461538461,4,2,1,65,0,0
38937,-96.1538461538461,4,2,1,5,0,0
39000,-60.9756097560976,4,2,1,65,0,0
39187,-96.1538461538461,4,2,1,5,0,0
39250,-96.1538461538461,4,2,1,65,0,0
39374,-96.1538461538461,4,2,1,5,0,0
39437,-96.1538461538461,4,2,1,65,0,0
39500,-80.6451612903226,4,2,1,65,0,0
39687,-80.6451612903226,4,2,1,5,0,0
39750,-64.9350649350649,4,2,1,65,0,0
39937,-96.1538461538461,4,2,1,5,0,0
40000,-64.9350649350649,4,2,1,65,0,0
40500,-69.4444444444444,4,2,19,65,0,0
40531,-44.6428571428571,4,2,1,65,0,0
41187,-96.1538461538461,4,2,1,5,0,0
41250,-36.4963503649635,4,2,1,65,0,0
41437,-96.1538461538461,4,2,1,5,0,0
41500,-44.6428571428571,4,2,1,65,0,0
41625,-96.1538461538461,4,2,1,65,0,0
41687,-96.1538461538461,4,2,1,5,0,0
41750,-54.3478260869565,4,2,1,65,0,0
41875,-96.1538461538461,4,2,1,5,0,0
42000,-96.1538461538461,4,2,1,65,0,0
42062,-96.1538461538461,4,2,1,65,0,0
42500,-96.1538461538461,4,2,1,65,0,0
43968,-80.6451612903226,4,2,20,70,0,0
44936,-96.1538461538461,4,2,20,5,0,0
45000,-96.1538461538461,4,2,1,40,0,0
45031,-96.1538461538461,4,2,1,40,0,0
45249,-96.1538461538461,4,2,1,40,0,0
45624,-96.1538461538461,4,2,1,5,0,0
45750,-96.1538461538461,4,2,1,40,0,0
46000,-60.9756097560976,4,2,1,40,0,0
46187,-60.9756097560976,4,2,1,5,0,0
46250,-96.1538461538461,4,2,1,40,0,0
46437,-96.1538461538461,4,2,1,5,0,0
46500,-96.1538461538461,4,2,1,40,0,0
47000,-60.9756097560976,4,2,1,40,0,0
47500,-96.1538461538461,4,2,1,40,0,0
48000,-60.9756097560976,4,2,1,40,0,0
49000,-57.4712643678161,4,2,36,40,0,0
49062,-57.4712643678161,4,2,1,40,0,0
49187,-57.4712643678161,4,2,1,5,0,0
49250,-60.9756097560976,4,2,1,40,0,0
49500,-57.4712643678161,4,2,1,40,0,0
49687,-57.4712643678161,4,2,1,5,0,0
49750,-60.9756097560976,4,2,1,40,0,0
49875,-60.9756097560976,4,2,1,5,0,0
50000,-57.4712643678161,4,2,1,40,0,0
50187,-57.4712643678161,4,2,1,5,0,0
50250,-69.4444444444444,4,2,1,40,0,0
50437,-69.4444444444444,4,2,1,5,0,0
50500,-96.1538461538461,4,2,1,40,0,0
51000,-69.4444444444444,4,2,1,40,0,0
51500,-80.6451612903226,4,2,1,40,0,0
52000,-69.4444444444444,4,2,1,40,0,0
52125,-96.1538461538461,4,2,1,5,0,0
52250,-60.9756097560976,4,2,1,40,0,0
52375,-96.1538461538461,4,2,1,5,0,0
52500,-54.3478260869565,4,2,1,40,0,0
52625,-96.1538461538461,4,2,1,5,0,0
52750,-96.1538461538461,4,2,1,40,0,0
53000,-69.4444444444444,4,2,1,50,0,0
53500,-96.1538461538461,4,2,1,50,0,0
54000,-69.4444444444444,4,2,1,50,0,0
54187,-69.4444444444444,4,2,1,5,0,0
54250,-69.4444444444444,4,2,1,50,0,0
54375,-69.4444444444444,4,2,1,5,0,0
54500,-69.4444444444444,4,2,1,50,0,0
55000,-64.9350649350649,4,2,1,50,0,0
55500,-69.4444444444444,4,2,1,50,0,0
56000,-60.9756097560976,4,2,1,50,0,0
56187,-60.9756097560976,4,2,1,5,0,0
56250,-69.4444444444444,4,2,1,50,0,0
56375,-69.4444444444444,4,2,1,5,0,0
56500,-106.382978723404,4,2,1,50,0,0
56875,-96.1538461538461,4,2,1,5,0,0
57000,-96.1538461538461,4,2,38,55,0,0
57031,-96.1538461538461,4,2,1,55,0,0
58000,-96.1538461538461,4,2,22,55,0,0
58031,-96.1538461538461,4,2,1,55,0,0
58250,-96.1538461538461,4,2,1,55,0,0
58500,-96.1538461538461,4,2,23,55,0,0
58531,-96.1538461538461,4,2,1,55,0,0
58750,-96.1538461538461,4,2,1,55,0,0
59000,-54.3478260869565,4,2,1,65,0,0
59125,-54.3478260869565,4,2,1,5,0,0
59250,-54.3478260869565,4,2,1,65,0,0
59375,-54.3478260869565,4,2,1,5,0,0
59500,-54.3478260869565,4,2,1,65,0,0
59625,-54.3478260869565,4,2,1,5,0,0
59750,-54.3478260869565,4,2,1,65,0,0
59875,-54.3478260869565,4,2,1,5,0,0
60000,-64.9350649350649,4,2,1,65,0,0
60750,-64.9350649350649,4,2,1,65,0,0
60812,-96.1538461538461,4,2,1,65,0,0
60875,-96.1538461538461,4,2,1,65,0,0
60937,-96.1538461538461,4,2,1,65,0,0
61000,-49.0196078431373,4,2,1,70,0,0
61187,-96.1538461538461,4,2,1,5,0,0
61250,-60.9756097560976,4,2,1,70,0,0
61500,-40.983606557377,4,2,1,70,0,0
61687,-96.1538461538461,4,2,1,5,0,0
61750,-69.4444444444444,4,2,1,70,0,0
61875,-96.1538461538461,4,2,1,5,0,0
62000,-49.0196078431373,4,2,1,70,0,0
62187,-96.1538461538461,4,2,1,5,0,0
62250,-69.4444444444444,4,2,1,70,0,0
62500,-40.983606557377,4,2,1,70,0,0
62687,-96.1538461538461,4,2,1,5,0,0
62750,-96.1538461538461,4,2,1,70,0,0
62875,-96.1538461538461,4,2,1,5,0,0
63000,-96.1538461538461,4,2,1,70,0,0
63500,-40.983606557377,4,2,1,70,0,0
63687,-96.1538461538461,4,2,1,5,0,0
63750,-69.4444444444444,4,2,1,70,0,0
63875,-96.1538461538461,4,2,1,5,0,0
64000,-96.1538461538461,4,2,1,70,0,0
64187,-37.8787878787879,4,2,1,5,0,0
64250,-40.983606557377,4,2,24,70,0,0
64281,-40.983606557377,4,2,1,70,0,0
64312,-96.1538461538461,4,2,1,70,0,0
64375,-96.1538461538461,4,2,1,5,0,0
64500,-40.983606557377,4,2,25,70,0,0
64531,-69.4444444444444,4,2,1,70,0,0
64624,-69.4444444444444,4,2,1,5,0,0
65000,-69.4444444444444,4,2,1,70,0,0
65625,-96.1538461538461,4,2,1,5,0,0
65750,-69.4444444444444,4,2,1,70,0,0
65875,-96.1538461538461,4,2,1,5,0,0
66000,-80.6451612903226,4,2,27,70,0,0
66437,-96.1538461538461,4,2,27,70,0,0
66500,-96.1538461538461,4,2,27,70,0,0
66875,-96.1538461538461,4,2,27,70,0,0
67000,-135.135135135135,4,2,28,70,0,0
67031,-135.135135135135,4,2,1,70,0,0
67062,-135.135135135135,4,2,1,70,0,0
67125,-96.1538461538461,4,2,1,70,0,0
67187,-49.0196078431373,4,2,1,5,0,0
67250,-49.0196078431373,4,2,1,70,0,0
67375,-96.1538461538461,4,2,1,5,0,0
67500,-49.0196078431373,4,2,1,70,0,0
67687,-96.1538461538461,4,2,1,5,0,0
67750,-96.1538461538461,4,2,1,70,0,0
67875,-96.1538461538461,4,2,1,5,0,0
68000,-119.047619047619,4,2,1,70,0,0
68187,-96.1538461538461,4,2,1,5,0,0
68250,-49.0196078431373,4,2,1,70,0,0
68375,-96.1538461538461,4,2,1,5,0,0
68500,-49.0196078431373,4,2,1,70,0,0
68625,-96.1538461538461,4,2,1,5,0,0
68750,-69.4444444444444,4,2,1,70,0,0
68812,-69.4444444444444,4,2,1,5,0,0
68875,-69.4444444444444,4,2,1,70,0,0
69000,-49.0196078431373,4,2,1,70,0,0
69187,-96.1538461538461,4,2,1,5,0,0
69250,-60.9756097560976,4,2,1,70,0,0
69500,-40.983606557377,4,2,1,70,0,0
69687,-96.1538461538461,4,2,1,5,0,0
69750,-69.4444444444444,4,2,1,70,0,0
69875,-96.1538461538461,4,2,1,5,0,0
70000,-40.983606557377,4,2,29,70,0,0
70031,-40.983606557377,4,2,1,70,0,0
70187,-96.1538461538461,4,2,1,5,0,0
70250,-69.4444444444444,4,2,1,70,0,0
70375,-96.1538461538461,4,2,1,5,0,0
70500,-37.8787878787879,4,2,1,70,0,0
70687,-96.1538461538461,4,2,1,5,0,0
70750,-60.9756097560976,4,2,1,70,0,0
70875,-96.1538461538461,4,2,1,5,0,0
71000,-37.8787878787879,4,2,30,70,0,0
71031,-37.8787878787879,4,2,1,70,0,0
71187,-37.8787878787879,4,2,1,5,0,0
71250,-69.4444444444444,4,2,1,70,0,0
71375,-69.4444444444444,4,2,1,5,0,0
71500,-37.8787878787879,4,2,1,70,0,0
71687,-96.1538461538461,4,2,1,5,0,0
71750,-69.4444444444444,4,2,1,70,0,0
71875,-96.1538461538461,4,2,1,5,0,0
72000,-49.0196078431373,4,2,1,70,0,0
72187,-96.1538461538461,4,2,1,5,0,0
72250,-44.6428571428571,4,2,31,70,0,0
72281,-44.6428571428571,4,2,1,70,0,0
72375,-96.1538461538461,4,2,1,5,0,0
72500,-96.1538461538461,4,2,32,70,0,0
72531,-96.1538461538461,4,2,1,70,0,0
72625,-87.719298245614,4,2,1,70,0,0
72812,-87.719298245614,4,2,1,5,0,0
72937,-40.983606557377,4,2,1,70,0,0
73187,-96.1538461538461,4,2,1,5,0,0
73250,-40.983606557377,4,2,1,70,0,0
73437,-96.1538461538461,4,2,1,5,0,0
73500,-69.4444444444444,4,2,1,70,0,0
73625,-69.4444444444444,4,2,1,5,0,0
73687,-96.1538461538461,4,2,1,70,0,0
73750,-36.4963503649635,4,2,1,70,0,0
73937,-96.1538461538461,4,2,1,5,0,0
74000,-96.1538461538461,4,2,33,70,0,0
74031,-96.1538461538461,4,2,1,70,0,0
74062,-96.1538461538461,4,2,1,70,0,0
74500,-96.1538461538461,4,2,1,60,0,0
75000,-35.2112676056338,4,2,1,70,0,0
75187,-96.1538461538461,4,2,1,5,0,0
75250,-35.2112676056338,4,2,1,70,0,0
75437,-96.1538461538461,4,2,1,5,0,0
75500,-60.9756097560976,4,2,1,70,0,0
75625,-60.9756097560976,4,2,1,5,0,0
75687,-96.1538461538461,4,2,1,70,0,0
75750,-35.2112676056338,4,2,1,70,0,0
75937,-96.1538461538461,4,2,1,5,0,0
76000,-96.1538461538461,4,2,34,70,0,0
76031,-96.1538461538461,4,2,1,70,0,0
76125,-96.1538461538461,4,2,1,5,0,0
76937,-96.1538461538461,4,2,1,70,0,0
77000,-119.047619047619,4,2,1,50,0,0
78437,-96.1538461538461,4,2,1,50,0,0
78500,-96.1538461538461,4,2,1,50,0,0
80000,-227.272727272727,4,2,1,40,0,0
84000,-185.185185185185,4,2,1,40,0,0
87250,-87.719298245614,4,2,1,20,0,0
88906,-96.1538461538461,4,2,1,20,0,0
89000,-96.1538461538461,4,2,35,5,0,0

[Colours]
Combo1 : 255,128,64
Combo2 : 255,128,128
Combo3 : 255,185,151
Combo4 : 232,232,232
Combo5 : 147,147,147
Combo6 : 255,51,51

[HitObjects]
30,94,1000,38,0,P|62:38|128:48,1,133.980004088745,2|0,3:2|2:0,0:0:0:0:
212,20,2000,6,0,L|190:115,1,93.9600022939454,2|0,2:0|0:0,0:0:0:0:
356,269,3000,70,0,P|419:274|449:219,1,133.980004088745,2|0,3:2|2:0,0:0:0:0:
444,133,4000,6,0,L|392:152,1,46.9800011469727,2|0,2:0|0:0,0:0:0:0:
288,352,4500,70,0,L|198:318,1,81.7799987521363,6|0,2:0|0:0,0:0:0:0:
64,176,4875,5,2,0:2:0:0:
72,168,4937,1,2,0:2:0:0:
80,160,5000,2,0,P|120:184|112:232,1,77.5542852409319,2|0,3:2|0:0,0:0:0:0:
16,120,5625,69,0,0:0:0:0:
176,32,6000,6,0,L|104:56,1,70.470001720459,2|0,2:0|2:0,0:0:0:0:
96,48,6500,69,2,2:0:0:0:
154,6,6625,1,2,2:0:0:0:
224,18,6750,1,2,2:0:0:0:
263,76,6875,1,2,2:0:0:0:
254,85,7000,5,2,3:2:0:0:
72,288,7875,1,0,0:0:0:0:
24,232,8000,70,0,B|101:252|101:252|135:311|135:311|212:332,1,225.330005501221,6|0,2:0|2:0,0:0:0:0:
328,360,9000,6,0,B|376:320|376:320|344:256,1,133.980004088745,2|0,3:2|2:0,0:0:0:0:
232,168,10000,70,0,P|192:200|192:240,1,93.9600022939454,2|0,2:0|0:0,0:0:0:0:
343,96,11000,6,0,P|384:147|436:147,1,114.840003504639,2|0,3:2|0:0,0:0:0:0:
512,384,12000,70,0,P|480:344|432:352,1,90.4799994477539,6|2,2:0|2:0,0:0:0:0:
367,358,12312,1,2,2:0:0:0:
369,365,12375,1,2,2:0:0:0:
371,373,12437,1,0,0:0:0:0:
373,381,12500,5,2,2:0:0:0:
240,216,12750,1,0,0:0:0:0:
216,304,13000,70,0,L|184:136,1,160.950003929443,2|0,3:2|2:0,0:0:0:0:
128,96,13750,1,0,3:0:0:0:
120,88,13875,1,0,3:0:0:0:
184,40,14000,6,0,L|232:24,1,40.8899993760681,8|0,3:0|2:0,0:0:0:0:
72,144,14250,70,0,L|24:128,1,40.8899993760681,8|0,3:0|2:0,0:0:0:0:
240,216,14500,54,2,B|292:214|316:250|316:250|344:286|382:283|382:283|340:262|332:210,1,255.779992194214,6|0,2:0|2:0,2:1:0:0:
416,104,15500,37,2,2:3:0:0:
468,152,15625,1,2,2:3:0:0:
424,204,15750,1,2,2:3:0:0:
412,208,15857,69,0,0:0:0:0:
332,140,16000,5,2,2:3:0:0:
264,104,16166,1,2,2:3:0:0:
176,160,16375,69,2,2:3:0:0:
176,160,17000,6,0,P|148:136|156:88,1,82.2150020072022,2|0,2:0|2:0,0:0:0:0:
152,16,17500,2,0,B|194:27|194:27|213:49|213:49|263:62,1,122.669998128204,2|0,2:0|2:0,0:0:0:0:
384,168,18000,70,0,B|408:144|408:144|396:100,1,74.38499909198,2|0,2:0|2:0,0:0:0:0:
308,176,18250,2,0,L|324:224,1,45.239999723877,2|0,2:0|2:0,0:0:0:0:
485,371,18500,6,0,P|453:326|395:334,1,107.010001632843,2|0,2:0|2:0,0:0:0:0:
406,328,18750,2,0,P|433:318|444:287,1,53.9399978600465,2|0,2:0|2:0,0:0:0:0:
212,239,19000,70,0,L|190:327,1,87.4349958641283,2|0,2:0|2:0,0:0:0:0:
190,323,19250,1,0,0:0:0:0:
56,176,19500,6,0,P|78:211|142:201,1,93.9600022939454,2|0,2:0|2:0,0:0:0:0:
176,160,19750,2,0,L|161:107,1,53.9399978600465,0|0,0:0|2:0,0:0:0:0:
191,324,20000,70,0,B|219:330|219:330|227:335|227:335|261:342,1,67.8599995858154,2|0,2:0|2:0,0:0:0:0:
323,218,20250,6,0,P|277:224|259:273,1,93.9600022939454,2|0,2:0|2:0,0:0:0:0:
133,372,20500,70,0,P|72:351|62:288,1,133.979997342316,2|2,2:0|3:2,0:0:0:0:
241,112,21000,6,0,B|318:91|279:68|364:45,1,135.719999171631,2|0,3:2|2:0,0:0:0:0:
462,3,21500,70,0,P|496:23|498:81,1,93.9600022939454,2|0,2:0|2:0,0:0:0:0:
451,125,21750,2,0,L|403:109,1,49.5899993946533,0|0,0:0|2:0,0:0:0:0:
189,1,22000,6,0,L|202:55,1,53.9399978600465,2|0,2:0|2:0,0:0:0:0:
276,206,22250,1,8,2:3:0:0:
284,222,22375,1,8,2:3:0:0:
292,238,22500,69,2,2:3:0:0:
234,277,22625,1,2,2:3:0:0:
165,263,22750,1,2,2:3:0:0:
125,205,22875,1,2,2:3:0:0:
139,135,23000,6,0,L|148:102,1,27.84,2|0,3:2|2:0,0:0:0:0:
202,54,23250,70,0,P|240:81|237:119,1,80.0399973131104,2|0,2:0|2:0,0:0:0:0:
0,222,23500,54,0,B|57:203|87:260|87:260|95:333|164:329|164:329|191:290|164:262,1,295.80000180542,6|0,2:0|0:0,0:0:0:0:
408,24,26937,21,2,2:0:0:0:
400,32,27000,6,0,L|416:96,1,53.9399978600465,2|0,2:0|2:0,0:0:0:0:
296,224,27250,70,0,L|312:160,1,45.239999723877,2|0,2:0|2:0,0:0:0:0:
488,84,27500,6,0,L|479:122,1,40.8899993760681,2|0,2:0|2:0,0:0:0:0:
380,260,27750,70,0,L|371:221,1,36.5399988848877,2|0,2:0|2:0,0:0:0:0:
328,108,28000,5,8,2:0:0:0:
275,82,28125,5,0,3:0:0:0:
209,103,28250,5,8,2:0:0:0:
171,169,28375,69,0,3:0:0:0:
78,197,28500,5,8,2:0:0:0:
8,131,28625,69,0,3:0:0:0:
25,55,28750,5,8,2:0:0:0:
51,25,28875,69,0,3:0:0:0:
76,28,29000,22,0,L|161:56,1,80.9099967900697,2|0,3:2|2:0,0:0:0:0:
288,0,29250,6,0,P|256:4|232:60,1,87.4349958641283,2|0,2:0|2:0,0:0:0:0:
284,100,29500,1,2,2:0:0:0:
360,368,29750,70,0,P|392:368|420:336,1,66.9899986711579,2|0,3:2|2:0,0:0:0:0:
344,148,30000,2,0,L|312:308,1,161.819993580139,10|0,2:0|2:0,0:0:0:0:
236,368,30500,6,0,L|188:356,1,49.5899993946533,2|0,3:2|2:0,0:0:0:0:
144,216,30750,2,0,L|91:229,1,53.9399978600465,2|0,2:0|2:0,0:0:0:0:
30,327,31000,70,0,L|43:274,2,38.8599981618348,2|2|2,2:0|2:0|2:0,0:0:0:0:
106,307,31250,2,0,L|96:344,2,38.8599981618348,2|2|2,3:2|2:0|2:0,0:0:0:0:
91,228,31500,6,0,L|75:166,1,62.6400015292969,2|0,2:0|2:0,0:0:0:0:
216,88,31750,2,0,L|199:156,1,66.9899986711579,2|0,3:2|2:0,0:0:0:0:
48,76,32000,69,8,2:0:0:0:
96,20,32125,1,2,2:3:0:0:
168,28,32250,1,2,2:3:0:0:
216,88,32375,1,2,2:3:0:0:
208,96,32500,5,2,2:0:0:0:
280,40,33000,70,0,L|268:0,2,38.8599981618348,2|2|2,3:2|2:0|2:0,0:0:0:0:
336,88,33250,2,0,L|324:125,2,38.8599981618348,2|2|2,2:0|2:0|2:0,0:0:0:0:
392,40,33500,6,0,P|444:52|448:112,1,107.010001632843,2|0,3:2|2:0,0:0:0:0:
444,112,33750,2,0,L|400:128,1,45.239999723877,2|0,3:2|2:0,0:0:0:0:
255,312,34000,70,0,P|279:256|335:264,1,120.059995969666,8|0,2:0|2:0,0:0:0:0:
404,232,34250,2,0,B|415:257|415:257|404:284,1,53.9399978600465,0|0,3:0|2:0,0:0:0:0:
512,384,34500,6,0,L|432:364,1,73.0799977697755,2|0,3:2|0:0,0:0:0:0:
404,232,35000,70,0,L|444:220,2,38.8599981618348,2|2|2,2:0|2:0|2:0,0:0:0:0:
255,312,35250,2,0,L|215:300,2,38.8599981618348,2|2|2,3:2|2:0|2:0,0:0:0:0:
353,332,35500,2,0,L|365:372,2,38.8599981618348,2|2|2,2:0|2:0|2:0,0:0:0:0:
324,241,35750,5,2,3:2:0:0:
328,226,35833,1,0,0:0:0:0:
332,210,35916,1,0,0:0:0:0:
336,196,36000,70,0,P|274:176|268:108,1,133.110000812439,10|0,2:0|2:0,0:0:0:0:
276,100,36250,69,4,3:2:0:0:
396,4,36375,1,0,0:0:0:0:
396,84,36500,70,0,B|321:70|351:35|272:21,1,139.634995738678,4|0,2:0|2:0,0:0:0:0:
184,132,36750,86,0,B|120:143|142:176|76:187,1,120.059995969666,2|0,3:2|2:0,0:0:0:0:
72,96,37000,22,0,P|92:64|132:60,1,67.8599995858154,2|0,3:2|2:0,0:0:0:0:
174,1,37250,2,0,P|215:26|220:78,1,93.9600022939454,2|0,2:0|2:0,0:0:0:0:
184,132,37500,1,2,2:0:0:0:
36,248,37750,2,0,L|92:264,1,53.9399978600465,2|0,3:2|2:0,0:0:0:0:
264,176,38000,6,0,L|277:123,2,38.8599981618348,10|2|2,2:0|2:0|2:0,0:0:0:0:
332,200,38250,2,0,L|345:147,2,38.8599981618348,2|2|2,3:2|2:0|2:0,0:0:0:0:
272,252,38500,70,0,L|292:336,1,62.6400015292969,2|0,2:0|2:0,0:0:0:0:
415,204,38750,2,0,P|391:164|331:168,1,100.484998006737,2|0,3:2|2:0,0:0:0:0:
286,312,39000,2,0,B|324:322|324:322|338:334|338:334|388:347,1,107.010001632843,2|0,2:0|2:0,0:0:0:0:
385,346,39250,2,0,L|341:357,1,45.239999723877,0|0,3:0|2:0,0:0:0:0:
160,268,39500,2,0,P|116:284|112:332,1,80.9099967900697,2|0,2:0|2:0,0:0:0:0:
107,314,39750,2,0,L|85:213,1,100.484998006737,2|0,3:2|2:0,0:0:0:0:
140,164,40000,6,0,P|161:168|183:173,2,44.6599991141052,10|2|2,2:0|2:0|2:0,0:0:0:0:
196,56,40250,2,0,P|174:51|152:46,2,44.6599991141052,2|2|2,3:2|2:0|2:0,0:0:0:0:
96,100,40500,70,0,P|44:104|8:40,1,125.280003058594,2|0,3:2|3:0,0:0:0:0:
240,236,40875,5,2,2:0:0:0:
236,224,40937,1,2,2:0:0:0:
244,216,41000,2,0,B|298:230|298:230|314:263|314:263|375:280,1,146.16000178418,2|0,3:2|2:0,0:0:0:0:
456,144,41250,70,0,B|412:140|384:100|384:100|404:144|376:188,1,178.785005046879,2|0,3:2|2:0,0:0:0:0:
240,120,41500,6,0,B|211:90|237:50|237:50|280:38|305:69,1,146.16000178418,2|0,2:0|2:0,0:0:0:0:
188,272,41750,70,0,B|157:280|157:280|143:292|143:292|108:301,1,80.0399973131104,2|0,3:2|2:0,0:0:0:0:
244,216,42000,1,10,2:0:0:0:
244,216,42500,5,2,3:2:0:0:
317,211,42625,1,2,2:0:0:0:
362,267,42750,1,2,2:0:0:0:
354,344,42875,1,2,2:0:0:0:
344,352,43000,69,2,3:2:0:0:
180,168,43968,54,2,B|112:184|76:112|76:112|116:176|128:232|92:272|44:280|-4:264|-12:204|20:176,1,418.03498341536,2|0,2:1|2:0,2:1:0:0:
76,112,45000,54,0,L|172:88,1,90.4799994477539,6|2,2:0|2:3,0:0:0:0:
244,216,45375,1,8,2:3:0:0:
244,216,45500,2,0,L|292:228,1,45.239999723877,2|0,2:3|2:0,0:0:0:0:
364,176,45750,1,8,2:3:0:0:
364,176,46000,6,0,P|312:144|320:96,1,107.010001632843,2|0,2:3|2:0,0:0:0:0:
392,32,46250,2,0,L|408:104,1,67.8599995858154,2|0,2:3|2:0,0:0:0:0:
472,128,46500,1,2,2:3:0:0:
440,300,46875,69,2,2:3:0:0:
376,264,47000,2,0,B|294:285|331:313|253:333,1,142.680002177124,2|0,2:3|0:0,0:0:0:0:
160,248,47375,5,8,2:3:0:0:
172,228,47500,2,0,P|218:221|252:268,1,90.4799994477539,0|8,0:0|2:3,0:0:0:0:
352,384,47875,1,0,0:0:0:0:
416,352,48000,69,2,2:3:0:0:
424,328,48125,1,2,2:3:0:0:
376,264,48250,5,8,2:3:0:0:
368,240,48375,1,8,2:3:0:0:
400,168,48500,69,2,2:3:0:0:
415,143,48625,1,2,2:3:0:0:
444,141,48750,1,8,2:3:0:0:
504,184,48875,5,0,0:0:0:0:
444,141,49000,70,0,L|464:28,1,113.535000952824,2|0,2:0|2:0,0:0:0:0:
392,0,49250,2,0,B|364:24|364:24|376:72,1,71.340001088562,2|8,2:3|2:3,0:0:0:0:
228,144,49500,6,0,P|180:136|168:76,1,113.535000952824,2|0,2:3|2:0,0:0:0:0:
228,36,49750,2,0,L|296:60,1,71.340001088562,8|0,2:3|2:0,0:0:0:0:
156,160,50000,70,0,L|114:277,1,113.535000952824,2|0,2:3|2:0,0:0:0:0:
168,344,50250,2,0,P|208:348|240:292,1,93.9600022939454,2|0,2:3|2:0,0:0:0:0:
208,244,50500,1,2,2:3:0:0:
8,36,50833,5,0,0:0:0:0:
4,24,50916,69,0,0:0:0:0:
0,12,51000,6,0,P|80:28|72:120,1,187.920004587891,2|8,2:3|2:3,0:0:0:0:
73,118,51500,70,0,P|96:68|153:74,1,107.879995720093,0|8,0:0|2:3,0:0:0:0:
216,24,51875,5,8,2:3:0:0:
228,16,52000,70,0,P|273:36|270:92,1,62.6400015292969,2|0,2:3|2:0,0:0:0:0:
433,118,52250,6,0,P|392:147|345:116,1,71.340001088562,2|0,2:3|2:0,0:0:0:0:
227,244,52500,70,0,P|221:194|271:168,1,80.0399973131104,2|0,2:3|2:0,0:0:0:0:
464,276,52750,5,2,2:0:0:0:
456,284,52875,1,2,2:0:0:0:
448,289,53000,2,0,B|377:276|403:244|336:232,1,125.280003058594,4|8,2:0|2:3,0:0:0:0:
296,296,53375,1,8,2:3:0:0:
299,307,53500,2,0,L|311:353,2,45.239999723877,8|0|8,2:3|0:0|2:3,0:0:0:0:
448,204,54000,70,0,P|469:165|524:172,1,93.9600022939454,2|0,2:0|2:0,0:0:0:0:
512,164,54250,2,0,P|482:164|452:139,1,62.6400015292969,2|0,2:3|2:0,0:0:0:0:
412,80,54500,1,2,2:3:0:0:
468,308,54750,5,2,2:0:0:0:
460,300,54875,1,2,2:0:0:0:
452,292,55000,2,0,P|392:292|372:360,1,133.979997342316,2|8,2:0|2:3,0:0:0:0:
272,216,55375,1,8,2:3:0:0:
320,164,55500,2,0,L|384:144,2,62.6400015292969,8|0|8,2:3|0:0|2:3,0:0:0:0:
216,160,56000,70,0,P|177:139|180:80,1,107.010001632843,2|0,2:0|2:0,0:0:0:0:
196,12,56250,2,0,P|225:19|244:52,1,62.6400015292969,2|0,2:3|2:0,0:0:0:0:
272,216,56500,6,0,B|260:279|232:257|219:328,1,122.669998128204,2|0,2:3|2:0,0:0:0:0:
168,384,57000,69,2,2:0:0:0:
160,376,57250,1,2,2:0:0:0:
40,264,57500,5,2,2:0:0:0:
72,200,57750,1,2,2:0:0:0:
224,64,58000,69,2,2:0:0:0:
248,152,58250,1,2,2:0:0:0:
72,16,58500,5,2,2:0:0:0:
16,152,58750,1,2,2:0:0:0:
224,64,59000,6,0,L|312:88,1,80.0399973131104,4|0,3:1|2:0,0:0:0:0:
440,216,59250,2,0,L|362:194,1,80.0399973131104,4|0,3:1|2:0,0:0:0:0:
412,0,59500,6,0,B|436:32|436:32|420:80,1,80.0399973131104,4|0,3:1|2:0,0:0:0:0:
259,221,59750,2,0,B|235:189|235:189|251:141,1,80.0399973131104,4|0,3:1|2:0,0:0:0:0:
416,328,60000,70,0,B|430:297|470:291|470:291|411:277|386:320|386:320|362:378|304:368,1,267.959994684631,4|2,3:1|2:0,0:0:0:0:
176,283,60625,53,0,0:0:0:0:
176,283,60687,1,0,0:0:0:0:
176,283,60750,2,0,L|184:243,2,33.4949993355789,2|0|2,2:3|0:0|0:0,0:0:0:0:
70,348,61000,22,0,P|14:340|14:260,1,133.110000812439,2|0,3:2|2:0,0:0:0:0:
30,205,61250,2,0,P|63:224|70:270,1,71.340001088562,2|2,2:0|2:0,0:0:0:0:
232,367,61500,6,0,B|247:281|288:321|305:226,1,159.20999344075,10|0,2:0|2:0,0:0:0:0:
304,229,61750,2,0,P|324:248|320:296,1,62.6400015292969,2|0,2:0|2:0,0:0:0:0:
172,156,62000,70,0,B|163:125|163:125|110:81|110:81|102:50,1,133.110000812439,2|0,3:2|2:0,0:0:0:0:
164,8,62250,2,0,L|148:68,1,62.6400015292969,0|2,0:0|2:0,0:0:0:0:
30,205,62500,6,0,B|103:224|103:224|110:230|110:230|183:250,1,159.20999344075,10|0,2:0|2:0,0:0:0:0:
181,249,62750,2,0,L|227:234,1,45.239999723877,2|0,2:0|2:0,0:0:0:0:
304,80,63000,69,2,3:2:0:0:
327,86,63083,1,2,2:0:0:0:
350,92,63166,1,2,2:0:0:0:
384,160,63250,5,2,2:0:0:0:
407,154,63333,1,2,2:0:0:0:
430,148,63416,1,2,2:0:0:0:
503,133,63500,70,0,L|348:91,1,159.20999344075,8|0,2:0|2:0,0:0:0:0:
301,31,63750,2,0,P|326:2|373:13,1,62.6400015292969,2|0,2:0|2:0,0:0:0:0:
408,184,64000,6,0,B|400:211|400:211|394:217|394:217|386:248,1,67.8599995858154,2|0,3:2|2:0,0:0:0:0:
386,247,64250,70,0,L|282:271,1,106.139995627167,4|0,3:2|2:0,0:0:0:0:
205,73,64500,6,0,L|101:49,1,106.139995627167,4|0,3:2|2:0,0:0:0:0:
101,49,65000,38,0,P|149:43|178:108,1,125.280003058594,2|8,2:3|2:3,0:0:0:0:
36,236,65375,1,8,2:3:0:0:
16,168,65500,2,0,L|0:104,1,62.6400015292969,2|0,2:3|2:0,0:0:0:0:
184,264,65750,2,0,L|200:200,1,62.6400015292969,2|0,2:3|2:0,0:0:0:0:
48,336,66000,6,2,B|-8:328|-8:328|120:288,1,188.789992510163,2|0,0:1|0:0,0:1:0:0:
184,264,66500,1,2,2:0:0:0:
448,352,67000,54,0,L|461:304,1,48.285001178833,0|0,3:0|2:0,0:0:0:0:
409,253,67250,54,0,P|367:282|382:338,1,88.740000541626,6|0,2:0|2:0,0:0:0:0:
169,151,67500,2,0,P|227:194|206:272,1,133.110000812439,6|0,2:0|2:0,0:0:0:0:
226,249,67750,22,0,L|171:267,1,45.239999723877,0|0,0:0|2:0,0:0:0:0:
39,79,68000,2,0,B|22:58|22:58|34:24,1,54.8099983273316,0|0,3:0|2:0,0:0:0:0:
32,32,68250,54,0,B|62:40|62:40|79:57|79:57|117:67,1,88.740000541626,6|0,2:0|2:0,0:0:0:0:
242,180,68500,2,0,B|273:171|273:171|290:154|290:154|321:146,1,88.740000541626,6|0,2:0|2:0,0:0:0:0:
500,91,68750,22,0,L|512:59,1,31.3200007646485,2|0,0:0|2:0,0:0:0:0:
421,3,68875,1,2,0:0:0:0:
421,3,68937,1,0,0:0:0:0:
421,3,69000,38,0,P|357:39|372:92,1,133.110000812439,2|0,3:2|2:0,0:0:0:0:
367,87,69250,2,0,L|439:115,1,71.340001088562,2|2,2:0|2:0,0:0:0:0:
285,340,69500,6,0,B|300:257|346:293|362:203,1,159.20999344075,8|0,2:0|2:0,0:0:0:0:
321,146,69750,2,0,P|292:170|296:211,1,62.6400015292969,2|0,2:0|2:0,0:0:0:0:
511,383,70000,70,2,B|536:310|536:310|465:270,1,159.20999344075,2|0,3:2|2:0,2:1:0:0:
464,269,70250,2,0,L|396:297,1,62.6400015292969,0|0,0:0|2:0,0:0:0:0:
161,278,70500,22,0,B|133:233|133:233|132:180|186:157|222:193,1,172.259999474304,8|0,2:0|2:0,0:0:0:0:
256,250,70750,2,0,P|285:221|286:183,1,71.340001088562,2|0,2:0|2:0,0:0:0:0:
120,56,71000,54,2,B|113:42|113:42|69:29|69:29|34:32|5:73|29:114,1,172.259999474304,2|0,3:2|2:0,2:1:0:0:
28,112,71250,2,0,B|37:127|37:127|81:139,1,62.6400015292969,0|0,0:0|2:0,0:0:0:0:
307,62,71500,22,0,B|402:29|402:29|365:49|368:95,1,172.259999474304,10|0,2:0|2:0,0:0:0:0:
433,131,71750,2,0,P|459:102|454:61,1,62.6400015292969,2|0,2:0|2:0,0:0:0:0:
288,192,72000,70,0,B|299:235|299:235|331:260|331:260|343:306,1,133.110000812439,2|0,3:2|2:0,0:0:0:0:
392,360,72250,70,0,B|440:376|440:376|400:336,1,97.4400011894531,4|0,3:2|2:0,0:0:0:0:
204,240,72500,2,0,B|142:256|173:281|107:298,1,113.099999309692,4|0,3:2|2:0,0:0:0:0:
96,216,72937,5,2,2:0:0:0:
104,220,73000,2,0,B|128:208|128:208|176:224|176:224|180:272|224:288,1,159.20999344075,6|0,3:2|2:0,0:0:0:0:
384,182,73250,70,0,B|401:166|422:152|422:152|440:110|408:73|367:87,1,159.20999344075,6|0,2:0|2:0,0:0:0:0:
296,38,73500,2,0,L|276:98,1,62.6400015292969,2|0,2:0|2:0,0:0:0:0:
110,298,73750,6,0,B|83:356|14:353|4:318|-1:281|32:260|73:273,1,178.785005046879,6|0,3:2|2:0,0:0:0:0:
180,352,74000,1,6,3:2:0:0:
276,97,74500,37,2,2:0:0:0:
261,92,74625,1,2,2:0:0:0:
246,88,74750,1,2,2:0:0:0:
230,84,74875,1,2,2:0:0:0:
148,56,75000,22,0,B|228:40|228:40|196:140,1,185.3099906689,6|0,3:2|2:0,0:0:0:0:
92,248,75250,6,0,B|134:242|172:210|172:210|173:262|207:299,1,185.3099906689,6|0,2:0|2:0,0:0:0:0:
264,340,75500,2,0,B|288:312|288:312|276:280,1,71.340001088562,2|0,2:0|2:0,0:0:0:0:
104,160,75750,70,0,B|86:101|11:94|-25:138|12:188|47:182,1,185.3099906689,6|0,3:2|2:0,0:0:0:0:
148,56,76000,2,0,L|124:4,1,45.239999723877,6|0,3:2|2:0,0:0:0:0:
284,160,76937,53,2,2:0:0:0:
292,168,77000,2,0,L|313:247,1,73.0799977697755,2|0,2:0|0:0,0:0:0:0:
404,308,77500,2,0,B|435:299|435:299|442:293|442:293|473:285,2,73.0799977697755,0|0|2,0:0|0:0|2:0,0:0:0:0:
492,168,78500,6,0,P|463:129|415:141,1,90.4799994477539,2|2,2:0|2:0,0:0:0:0:
372,181,78833,69,2,2:0:0:0:
375,192,78916,1,2,2:0:0:0:
378,204,79000,1,2,2:0:0:0:
240,112,80000,5,2,2:0:0:0:
223,46,81000,1,2,2:0:0:0:
289,29,82000,1,2,2:0:0:0:
306,95,83000,1,2,2:0:0:0:
164,128,84000,38,0,B|188:136|204:156|204:156|204:64|112:12|32:28|32:28|68:60|80:104|52:152|52:152|108:200|168:216|168:216|137:216|84:242|62:283|62:329|120:380|120:380|140:328|172:284|172:284|152:286|142:305,1,939.600022939454,2|0,2:3|0:0,0:0:0:0:
