osu file format v14

[General]
AudioFilename: audio.mp3
AudioLeadIn: 0
PreviewTime: 56997
Countdown: 0
SampleSet: Normal
StackLeniency: 0.7
Mode: 1
LetterboxInBreaks: 0
WidescreenStoryboard: 0

[Editor]
Bookmarks: 997,4997,8997,12997,16997,20997,24997,28997,32997,36997,40997,44997,48997,52997,56997,60997,64997,68997,72997,76997,78997,83997,88872
DistanceSpacing: 1
BeatDivisor: 4
GridSize: 32
TimelineZoom: 1.7

[Metadata]
Title:Any Last Words?
TitleUnicode:尽在吾辈
Artist:HOYO-MiX
ArtistUnicode:HOYO-MiX
Creator:Annabel
Version:Ghost
Source:Genshin Impact
Tags:Ayyri eiri- 原神 Hu Who Fuu Tao HuTao Boo 胡桃 フータオ 호두 Fuutao Wangsheng Funeral Parlor Wangsheng-tang Wangshengtang Let The Living Beware Butterfly Pyro OST Original Sound Track Soundtrack Video Game Instrumental Folk Electronic Papilio Charontis Liyue @HOYO-MiX 陈致逸 輝く星々 Stellar Moments Vol. 2 Album mihoyo 闪耀的群星2 輝く星々Vol.2 Volume Two
BeatmapID:3954685
BeatmapSetID:1916599

[Difficulty]
HPDrainRate:8
CircleSize:2
OverallDifficulty:6
ApproachRate:10
SliderMultiplier:1.4
SliderTickRate:1

[Events]
//Background and Video events
0,0,"Hu Tao 875.jpg",0,-35
//Break Periods
//Storyboard Layer 0 (Background)
//Storyboard Layer 1 (Fail)
//Storyboard Layer 2 (Pass)
//Storyboard Layer 3 (Foreground)
//Storyboard Layer 4 (Overlay)
//Storyboard Sound Samples

[TimingPoints]
997,500,4,1,1,50,1,0
997,-125,4,1,1,50,0,0
4434,-120.481927710843,4,1,1,50,0,0
4809,-123.456790123457,4,1,1,50,0,0
4934,-125,4,1,1,50,0,0
6434,-111.111111111111,4,1,1,50,0,0
6559,-114.942528735632,4,1,1,50,0,0
6684,-117.647058823529,4,1,1,50,0,0
6809,-120.481927710843,4,1,1,50,0,0
6934,-125,4,1,1,50,0,0
8184,-117.647058823529,4,1,1,50,0,0
8434,-111.111111111111,4,1,1,50,0,0
8559,-114.942528735632,4,1,1,50,0,0
8684,-117.647058823529,4,1,1,50,0,0
8934,-125,4,1,1,50,0,0
12184,-117.647058823529,4,1,1,50,0,0
12309,-114.942528735632,4,1,1,50,0,0
12434,-111.111111111111,4,1,1,50,0,0
12934,-125,4,1,1,50,0,0
13684,-120.481927710843,4,1,1,50,0,0
13809,-117.647058823529,4,1,1,50,0,0
13934,-114.942528735632,4,1,1,50,0,0
14184,-111.111111111111,4,1,1,50,0,0
14434,-100,4,1,1,70,0,0
14934,-111.111111111111,4,1,1,60,0,0
16934,-125,4,1,1,50,0,0
22184,-123.456790123457,4,1,1,50,0,0
22309,-121.951219512195,4,1,1,50,0,0
22434,-120.481927710843,4,1,1,50,0,0
22559,-117.647058823529,4,1,1,50,0,0
22684,-114.942528735632,4,1,1,50,0,0
22809,-111.111111111111,4,1,1,50,0,0
22934,-105.263157894737,4,1,1,50,0,0
23184,-100,4,1,1,60,0,0
23434,-86.9565217391304,4,1,1,70,0,0
23684,-95.2380952380952,4,1,1,50,0,0
23934,-100,4,1,1,50,0,0
24309,-105.263157894737,4,1,1,50,0,0
24684,-111.111111111111,4,1,1,50,0,0
24934,-117.647058823529,4,1,1,50,0,0
25122,-125,4,1,1,50,0,0
26934,-83.3333333333333,4,1,1,60,0,0
27059,-84.7457627118644,4,1,1,60,0,0
27184,-86.2068965517241,4,1,1,60,0,0
27434,-87.719298245614,4,1,1,60,0,0
27684,-89.2857142857143,4,1,1,60,0,0
27934,-83.3333333333333,4,1,1,70,0,0
28059,-85.4700854700855,4,1,1,70,0,0
28184,-86.9565217391304,4,1,1,70,0,0
28309,-88.4955752212389,4,1,1,70,0,0
28434,-90.9090909090909,4,1,1,70,0,0
28559,-93.4579439252336,4,1,1,70,0,0
28684,-95.2380952380952,4,1,1,70,0,0
28934,-100,4,1,1,75,0,0
31934,-90.9090909090909,4,1,1,75,0,0
32059,-88.4955752212389,4,1,1,75,0,0
32184,-86.9565217391304,4,1,1,75,0,0
32309,-83.3333333333333,4,1,1,75,0,0
32434,-76.9230769230769,4,1,1,75,0,0
32934,-100,4,1,1,75,0,0
35934,-90.9090909090909,4,1,1,75,0,0
36184,-93.4579439252336,4,1,1,75,0,0
36309,-95.2380952380952,4,1,1,75,0,0
36434,-97.0873786407767,4,1,1,75,0,0
36684,-99.009900990099,4,1,1,75,0,0
36934,-100,4,1,1,75,0,0
40809,-103.092783505155,4,1,1,75,0,0
40934,-105.263157894737,4,1,1,75,0,0
41184,-111.111111111111,4,1,1,75,0,0
41434,-117.647058823529,4,1,1,75,0,0
41684,-125,4,1,1,75,0,0
41934,-133.333333333333,4,1,1,75,0,0
42434,-95.2380952380952,4,1,1,75,0,0
42559,-93.4579439252336,4,1,1,75,0,0
42684,-90.9090909090909,4,1,1,75,0,0
42809,-88.4955752212389,4,1,1,75,0,0
42934,-86.9565217391304,4,1,1,75,0,0
43934,-83.3333333333333,4,1,1,60,0,0
44184,-86.9565217391304,4,1,1,60,0,0
44309,-88.4955752212389,4,1,1,60,0,0
44434,-90.9090909090909,4,1,1,60,0,0
44559,-93.4579439252336,4,1,1,60,0,0
44684,-95.2380952380952,4,1,1,60,0,0
44809,-97.0873786407767,4,1,1,60,0,0
44934,-100,4,1,1,70,0,0
52684,-97.0873786407767,4,1,1,70,0,0
52809,-95.2380952380952,4,1,1,70,0,0
52934,-90.9090909090909,4,1,1,75,0,0
53184,-95.2380952380952,4,1,1,75,0,0
53309,-97.0873786407767,4,1,1,75,0,0
53434,-99.009900990099,4,1,1,75,0,0
53684,-105.263157894737,4,1,1,75,0,0
53934,-107.52688172043,4,1,1,75,0,0
54184,-111.111111111111,4,1,1,75,0,0
54684,-99.009900990099,4,1,1,70,0,0
54809,-97.0873786407767,4,1,1,70,0,0
54934,-95.2380952380952,4,1,1,75,0,0
55184,-97.0873786407767,4,1,1,75,0,0
55309,-98.0392156862745,4,1,1,75,0,0
55434,-99.009900990099,4,1,1,75,0,0
55684,-105.263157894737,4,1,1,75,0,0
55934,-107.52688172043,4,1,1,75,0,0
56184,-111.111111111111,4,1,1,75,0,0
56934,-125,4,1,1,60,0,0
57184,-121.951219512195,4,1,1,60,0,0
57434,-119.047619047619,4,1,1,60,0,0
57684,-116.279069767442,4,1,1,60,0,0
57809,-114.942528735632,4,1,1,60,0,0
57934,-113.636363636364,4,1,1,70,0,0
58184,-111.111111111111,4,1,1,70,0,0
58434,-108.695652173913,4,1,1,70,0,0
58684,-106.382978723404,4,1,1,70,0,0
58809,-104.166666666667,4,1,1,70,0,0
58934,-100,4,1,1,75,0,0
59184,-95.2380952380952,4,1,1,75,0,0
59434,-90.9090909090909,4,1,1,75,0,0
59684,-86.9565217391304,4,1,1,75,0,0
59934,-83.3333333333333,4,1,1,75,0,0
60455,-100,4,1,1,60,0,0
60538,-98.0392156862745,4,1,1,60,0,0
60622,-96.1538461538461,4,1,1,60,0,0
60705,-94.3396226415094,4,1,1,60,0,0
60955,-100,4,1,1,80,0,0
64934,-111.111111111111,4,1,1,60,0,0
66934,-100,4,1,1,70,0,0
67184,-102.040816326531,4,1,1,70,0,0
67434,-104.166666666667,4,1,1,70,0,0
67684,-106.382978723404,4,1,1,70,0,0
67809,-108.695652173913,4,1,1,70,0,0
67934,-111.111111111111,4,1,1,70,0,0
68684,-105.263157894737,4,1,1,70,0,0
68809,-100,4,1,1,70,0,0
68934,-95.2380952380952,4,1,1,80,0,0
72934,-90.9090909090909,4,1,1,80,0,0
74434,-98.0392156862745,4,1,1,70,0,0
74559,-96.1538461538461,4,1,1,70,0,0
74684,-94.3396226415094,4,1,1,70,0,0
74809,-92.5925925925926,4,1,1,70,0,0
74934,-90.9090909090909,4,1,1,80,0,0
76934,-100,4,1,1,60,0,0
77184,-105.263157894737,4,1,1,60,0,0
77434,-111.111111111111,4,1,1,60,0,0
77684,-117.647058823529,4,1,1,60,0,0
77934,-125,4,1,1,60,0,0
78434,-111.111111111111,4,1,1,60,0,0
78684,-105.263157894737,4,1,1,60,0,0
78809,-103.092783505155,4,1,1,60,0,0
78934,-100,4,1,1,50,0,0
79934,-83.3333333333333,4,1,1,70,0,0
80934,-100,4,1,1,50,0,0
81934,-83.3333333333333,4,1,1,70,0,0
82934,-100,4,1,1,50,0,0
83934,-90.9090909090909,4,1,1,60,0,0
87247,-90.9090909090909,4,1,1,55,0,0
87497,-90.9090909090909,4,1,1,50,0,0
87747,-90.9090909090909,4,1,1,45,0,0
87997,-90.9090909090909,4,1,1,40,0,0
88247,-90.9090909090909,4,1,1,35,0,0
88497,-90.9090909090909,4,1,1,30,0,0
88747,-90.9090909090909,4,1,1,25,0,0

[HitObjects]
256,192,997,5,0,0:0:0:0:
256,192,1997,1,8,0:0:0:0:
256,192,2997,1,0,0:0:0:0:
256,192,3997,1,8,0:0:0:0:
256,192,4497,1,8,0:0:0:0:
256,192,4840,1,8,0:0:0:0:
256,192,4997,1,0,0:0:0:0:
256,192,5997,1,8,0:0:0:0:
256,192,6497,1,0,0:0:0:0:
256,192,6622,1,8,0:0:0:0:
256,192,6747,1,8,0:0:0:0:
256,192,6872,1,8,0:0:0:0:
256,192,6997,1,0,0:0:0:0:
256,192,7997,1,8,0:0:0:0:
256,192,8247,1,0,0:0:0:0:
256,192,8497,1,0,0:0:0:0:
256,192,8622,1,0,0:0:0:0:
256,192,8747,1,0,0:0:0:0:
256,192,8997,1,0,0:0:0:0:
256,192,9997,1,8,0:0:0:0:
256,192,10997,1,0,0:0:0:0:
256,192,11997,1,8,0:0:0:0:
256,192,12247,1,8,0:0:0:0:
256,192,12372,1,8,0:0:0:0:
256,192,12497,1,0,0:0:0:0:
256,192,12997,1,0,0:0:0:0:
256,192,13747,1,0,0:0:0:0:
256,192,13872,1,0,0:0:0:0:
256,192,13997,1,8,0:0:0:0:
256,192,14247,1,8,0:0:0:0:
256,192,14497,1,12,0:0:0:0:
256,192,14997,12,0,16747,0:0:0:0:
256,192,16997,5,0,0:0:0:0:
256,192,17497,1,8,0:0:0:0:
256,192,17747,1,8,0:0:0:0:
256,192,17997,1,0,0:0:0:0:
256,192,18247,1,0,0:0:0:0:
256,192,18497,1,8,0:0:0:0:
256,192,18747,1,0,0:0:0:0:
256,192,18997,1,0,0:0:0:0:
256,192,19247,1,0,0:0:0:0:
256,192,19497,1,8,0:0:0:0:
256,192,19747,1,0,0:0:0:0:
256,192,19997,1,8,0:0:0:0:
256,192,20247,1,8,0:0:0:0:
256,192,20372,1,8,0:0:0:0:
256,192,20497,1,8,0:0:0:0:
256,192,20747,1,0,0:0:0:0:
256,192,20997,1,0,0:0:0:0:
256,192,21497,1,0,0:0:0:0:
256,192,21747,1,8,0:0:0:0:
256,192,21997,1,0,0:0:0:0:
256,192,22247,1,0,0:0:0:0:
256,192,22372,1,0,0:0:0:0:
256,192,22497,1,8,0:0:0:0:
256,192,22622,1,8,0:0:0:0:
256,192,22747,1,8,0:0:0:0:
256,192,22872,1,8,0:0:0:0:
256,192,22997,1,0,0:0:0:0:
256,192,23247,1,8,0:0:0:0:
256,192,23497,1,4,0:0:0:0:
256,192,23747,1,8,0:0:0:0:
256,192,23997,1,8,0:0:0:0:
256,192,24330,1,8,0:0:0:0:
256,192,24747,1,8,0:0:0:0:
256,192,25163,1,8,0:0:0:0:
256,192,26997,1,0,0:0:0:0:
256,192,27122,1,0,0:0:0:0:
256,192,27247,1,0,0:0:0:0:
256,192,27497,1,8,0:0:0:0:
256,192,27747,1,0,0:0:0:0:
256,192,27997,1,8,0:0:0:0:
256,192,28122,1,8,0:0:0:0:
256,192,28247,1,0,0:0:0:0:
256,192,28372,1,0,0:0:0:0:
256,192,28497,1,8,0:0:0:0:
256,192,28622,1,0,0:0:0:0:
256,192,28747,1,8,0:0:0:0:
256,192,28997,1,0,0:0:0:0:
256,192,29247,1,0,0:0:0:0:
256,192,29372,1,0,0:0:0:0:
256,192,29497,1,8,0:0:0:0:
256,192,29747,1,0,0:0:0:0:
256,192,29997,1,8,0:0:0:0:
256,192,30497,1,0,0:0:0:0:
256,192,30747,1,0,0:0:0:0:
256,192,30997,1,8,0:0:0:0:
256,192,31080,1,8,0:0:0:0:
256,192,31163,1,8,0:0:0:0:
256,192,31247,1,0,0:0:0:0:
256,192,31330,1,0,0:0:0:0:
256,192,31413,1,0,0:0:0:0:
256,192,31497,1,8,0:0:0:0:
256,192,31747,1,0,0:0:0:0:
256,192,31997,1,8,0:0:0:0:
256,192,32122,1,8,0:0:0:0:
256,192,32247,1,8,0:0:0:0:
256,192,32372,1,8,0:0:0:0:
256,192,32497,1,0,0:0:0:0:
256,192,32997,1,0,0:0:0:0:
256,192,33080,1,0,0:0:0:0:
256,192,33163,1,0,0:0:0:0:
256,192,33247,1,0,0:0:0:0:
256,192,33330,1,0,0:0:0:0:
256,192,33413,1,0,0:0:0:0:
256,192,33497,1,8,0:0:0:0:
256,192,33747,1,0,0:0:0:0:
256,192,33997,1,8,0:0:0:0:
256,192,34247,1,0,0:0:0:0:
256,192,34372,1,8,0:0:0:0:
256,192,34497,1,0,0:0:0:0:
256,192,34997,1,8,0:0:0:0:
256,192,35080,1,8,0:0:0:0:
256,192,35163,1,8,0:0:0:0:
256,192,35247,1,0,0:0:0:0:
256,192,35330,1,0,0:0:0:0:
256,192,35413,1,0,0:0:0:0:
256,192,35497,1,8,0:0:0:0:
256,192,35580,1,8,0:0:0:0:
256,192,35663,1,8,0:0:0:0:
256,192,35747,1,0,0:0:0:0:
256,192,35997,1,8,0:0:0:0:
256,192,36247,1,0,0:0:0:0:
256,192,36372,1,0,0:0:0:0:
256,192,36497,1,8,0:0:0:0:
256,192,36747,1,0,0:0:0:0:
256,192,36997,1,0,0:0:0:0:
256,192,37247,1,8,0:0:0:0:
256,192,37372,1,8,0:0:0:0:
256,192,37497,1,0,0:0:0:0:
256,192,37747,1,0,0:0:0:0:
256,192,37997,1,8,0:0:0:0:
256,192,38080,1,8,0:0:0:0:
256,192,38163,1,8,0:0:0:0:
256,192,38247,1,0,0:0:0:0:
256,192,38330,1,0,0:0:0:0:
256,192,38413,1,0,0:0:0:0:
256,192,38497,1,8,0:0:0:0:
256,192,38747,1,0,0:0:0:0:
256,192,38997,1,8,0:0:0:0:
256,192,39247,1,0,0:0:0:0:
256,192,39372,1,0,0:0:0:0:
256,192,39497,1,8,0:0:0:0:
256,192,39747,1,0,0:0:0:0:
256,192,39997,1,8,0:0:0:0:
256,192,40080,1,8,0:0:0:0:
256,192,40163,1,8,0:0:0:0:
256,192,40247,1,0,0:0:0:0:
256,192,40330,1,0,0:0:0:0:
256,192,40413,1,0,0:0:0:0:
256,192,40497,1,8,0:0:0:0:
256,192,40747,1,0,0:0:0:0:
256,192,40872,1,8,0:0:0:0:
256,192,40997,1,0,0:0:0:0:
256,192,41247,1,0,0:0:0:0:
256,192,41497,1,8,0:0:0:0:
256,192,41747,1,0,0:0:0:0:
256,192,41997,1,8,0:0:0:0:
256,192,42497,1,0,0:0:0:0:
256,192,42622,1,8,0:0:0:0:
256,192,42747,1,0,0:0:0:0:
256,192,42872,1,0,0:0:0:0:
256,192,42997,1,8,0:0:0:0:
256,192,43997,1,0,0:0:0:0:
256,192,44247,1,0,0:0:0:0:
256,192,44372,1,0,0:0:0:0:
256,192,44497,1,8,0:0:0:0:
256,192,44622,1,8,0:0:0:0:
256,192,44747,1,0,0:0:0:0:
256,192,44872,1,0,0:0:0:0:
256,192,44997,1,8,0:0:0:0:
256,192,45247,1,0,0:0:0:0:
256,192,45372,1,8,0:0:0:0:
256,192,45497,1,0,0:0:0:0:
256,192,45747,1,8,0:0:0:0:
256,192,45997,1,8,0:0:0:0:
256,192,46122,1,0,0:0:0:0:
256,192,46247,1,8,0:0:0:0:
256,192,46497,1,8,0:0:0:0:
256,192,46747,1,0,0:0:0:0:
256,192,46872,1,0,0:0:0:0:
256,192,46997,1,8,0:0:0:0:
256,192,47247,1,0,0:0:0:0:
256,192,47372,1,8,0:0:0:0:
256,192,47497,1,0,0:0:0:0:
256,192,47747,1,8,0:0:0:0:
256,192,47872,1,0,0:0:0:0:
256,192,47997,1,8,0:0:0:0:
256,192,48122,1,8,0:0:0:0:
256,192,48247,1,0,0:0:0:0:
256,192,48372,1,8,0:0:0:0:
256,192,48497,1,0,0:0:0:0:
256,192,48622,1,8,0:0:0:0:
256,192,48747,1,0,0:0:0:0:
256,192,48997,1,8,0:0:0:0:
256,192,49247,1,0,0:0:0:0:
256,192,49372,1,8,0:0:0:0:
256,192,49497,1,0,0:0:0:0:
256,192,49747,1,8,0:0:0:0:
256,192,49997,1,8,0:0:0:0:
256,192,50122,1,0,0:0:0:0:
256,192,50247,1,8,0:0:0:0:
256,192,50497,1,8,0:0:0:0:
256,192,50747,1,0,0:0:0:0:
256,192,50872,1,0,0:0:0:0:
256,192,50997,1,8,0:0:0:0:
256,192,51247,1,0,0:0:0:0:
256,192,51372,1,8,0:0:0:0:
256,192,51497,1,0,0:0:0:0:
256,192,51747,1,0,0:0:0:0:
256,192,51872,1,0,0:0:0:0:
256,192,51997,1,8,0:0:0:0:
256,192,52247,1,8,0:0:0:0:
256,192,52497,1,8,0:0:0:0:
256,192,52747,1,0,0:0:0:0:
256,192,52872,1,8,0:0:0:0:
256,192,52997,1,4,0:0:0:0:
256,192,53247,1,0,0:0:0:0:
256,192,53372,1,0,0:0:0:0:
256,192,53497,1,0,0:0:0:0:
256,192,53747,1,0,0:0:0:0:
256,192,53997,1,0,0:0:0:0:
256,192,54247,1,8,0:0:0:0:
256,192,54497,1,8,0:0:0:0:
256,192,54747,1,0,0:0:0:0:
256,192,54872,1,8,0:0:0:0:
256,192,54997,1,0,0:0:0:0:
256,192,55247,1,0,0:0:0:0:
256,192,55372,1,0,0:0:0:0:
256,192,55497,1,0,0:0:0:0:
256,192,55747,1,0,0:0:0:0:
256,192,55997,1,0,0:0:0:0:
256,192,56247,1,8,0:0:0:0:
256,192,56497,1,8,0:0:0:0:
256,192,56997,1,0,0:0:0:0:
256,192,57247,1,8,0:0:0:0:
256,192,57497,1,0,0:0:0:0:
256,192,57747,1,0,0:0:0:0:
256,192,57872,1,0,0:0:0:0:
256,192,57997,1,8,0:0:0:0:
256,192,58247,1,8,0:0:0:0:
256,192,58497,1,0,0:0:0:0:
256,192,58747,1,8,0:0:0:0:
256,192,58872,1,8,0:0:0:0:
256,192,58997,1,4,0:0:0:0:
256,192,59247,1,4,0:0:0:0:
256,192,59497,1,4,0:0:0:0:
256,192,59747,1,4,0:0:0:0:
256,192,59997,1,4,0:0:0:0:
256,192,60497,1,0,0:0:0:0:
256,192,60580,1,0,0:0:0:0:
256,192,60663,1,0,0:0:0:0:
256,192,60747,1,8,0:0:0:0:
256,192,60997,1,4,0:0:0:0:
256,192,61247,1,0,0:0:0:0:
256,192,61372,1,0,0:0:0:0:
256,192,61497,1,8,0:0:0:0:
256,192,61747,1,0,0:0:0:0:
256,192,61997,1,0,0:0:0:0:
256,192,62122,1,8,0:0:0:0:
256,192,62247,1,0,0:0:0:0:
256,192,62497,1,8,0:0:0:0:
256,192,62747,1,0,0:0:0:0:
256,192,62997,1,0,0:0:0:0:
256,192,63080,1,0,0:0:0:0:
256,192,63163,1,0,0:0:0:0:
256,192,63247,1,0,0:0:0:0:
256,192,63330,1,0,0:0:0:0:
256,192,63413,1,0,0:0:0:0:
256,192,63497,1,8,0:0:0:0:
256,192,63747,1,0,0:0:0:0:
256,192,63872,1,8,0:0:0:0:
256,192,63997,1,0,0:0:0:0:
256,192,64247,1,12,0:0:0:0:
256,192,64497,1,12,0:0:0:0:
256,192,64997,1,8,0:0:0:0:
256,192,65247,1,0,0:0:0:0:
256,192,65372,1,8,0:0:0:0:
256,192,65497,1,8,0:0:0:0:
256,192,65747,1,8,0:0:0:0:
256,192,65997,1,8,0:0:0:0:
256,192,66122,1,8,0:0:0:0:
256,192,66247,1,0,0:0:0:0:
256,192,66372,1,8,0:0:0:0:
256,192,66497,1,0,0:0:0:0:
256,192,66997,1,0,0:0:0:0:
256,192,67247,1,12,0:0:0:0:
256,192,67497,1,12,0:0:0:0:
256,192,67747,1,0,0:0:0:0:
256,192,67872,1,8,0:0:0:0:
256,192,67997,1,0,0:0:0:0:
256,192,68247,1,12,0:0:0:0:
256,192,68497,1,12,0:0:0:0:
256,192,68747,1,0,0:0:0:0:
256,192,68872,1,8,0:0:0:0:
256,192,68997,1,4,0:0:0:0:
256,192,69247,1,0,0:0:0:0:
256,192,69372,1,0,0:0:0:0:
256,192,69497,1,8,0:0:0:0:
256,192,69747,1,0,0:0:0:0:
256,192,69997,1,0,0:0:0:0:
256,192,70122,1,0,0:0:0:0:
256,192,70247,1,0,0:0:0:0:
256,192,70372,1,0,0:0:0:0:
256,192,70497,1,8,0:0:0:0:
256,192,70747,1,0,0:0:0:0:
256,192,70997,1,0,0:0:0:0:
256,192,71122,1,0,0:0:0:0:
256,192,71247,1,0,0:0:0:0:
256,192,71372,1,0,0:0:0:0:
256,192,71497,1,8,0:0:0:0:
256,192,71747,1,0,0:0:0:0:
256,192,71872,1,8,0:0:0:0:
256,192,71997,1,0,0:0:0:0:
256,192,72247,1,12,0:0:0:0:
256,192,72497,1,12,0:0:0:0:
256,192,72997,1,12,0:0:0:0:
256,192,73247,1,12,0:0:0:0:
256,192,73497,1,4,0:0:0:0:
256,192,73747,1,12,0:0:0:0:
256,192,73997,1,12,0:0:0:0:
256,192,74497,1,0,0:0:0:0:
256,192,74622,1,8,0:0:0:0:
256,192,74747,1,0,0:0:0:0:
256,192,74872,1,0,0:0:0:0:
256,192,74997,1,12,0:0:0:0:
256,192,75247,1,12,0:0:0:0:
256,192,75497,1,4,0:0:0:0:
256,192,75747,1,12,0:0:0:0:
256,192,75997,1,12,0:0:0:0:
256,192,76997,1,8,0:0:0:0:
256,192,77247,1,8,0:0:0:0:
256,192,77497,1,0,0:0:0:0:
256,192,77747,1,8,0:0:0:0:
256,192,77997,1,8,0:0:0:0:
256,192,78497,1,0,0:0:0:0:
256,192,78747,1,0,0:0:0:0:
256,192,78872,1,8,0:0:0:0:
256,192,78997,1,0,0:0:0:0:
256,192,79997,1,8,0:0:0:0:
256,192,80997,1,0,0:0:0:0:
256,192,81997,1,8,0:0:0:0:
256,192,82997,1,0,0:0:0:0:
256,192,83997,12,0,88872,0:0:0:0:
