osu file format v14

[General]
AudioFilename: audio.mp3
AudioLeadIn: 0
PreviewTime: 56997
Countdown: 0
SampleSet: Normal
StackLeniency: 0.7
Mode: 1
LetterboxInBreaks: 0
WidescreenStoryboard: 1

[Editor]
Bookmarks: 997,4997,8997,12997,16997,20997,24997,28997,32997,36997,40997,44997,48997,52997,56997,60997,64997,68997,72997,76997,78997,83997,88872
DistanceSpacing: 1
BeatDivisor: 4
GridSize: 32
TimelineZoom: 1.3

[Metadata]
Title:Any Last Words?
TitleUnicode:尽在吾辈
Artist:HOYO-MiX
ArtistUnicode:HOYO-MiX
Creator:Annabel
Version:Futsuu
Source:Genshin Impact
Tags:Ayyri eiri- 原神 Hu Who Fuu Tao HuTao Boo 胡桃 フータオ 호두 Fuutao Wangsheng Funeral Parlor Wangsheng-tang Wangshengtang Let The Living Beware Butterfly Pyro OST Original Sound Track Soundtrack Video Game Instrumental Folk Electronic Papilio Charontis Liyue @HOYO-MiX 陈致逸 輝く星々 Stellar Moments Vol. 2 Album mihoyo 闪耀的群星2 輝く星々Vol.2 Volume Two
BeatmapID:3955106
BeatmapSetID:1916599

[Difficulty]
HPDrainRate:9.5
CircleSize:2
OverallDifficulty:4
ApproachRate:10
SliderMultiplier:1.4
SliderTickRate:1

[Events]
//Background and Video events
0,0,"Hu Tao 875.jpg",0,-35
//Break Periods
//Storyboard Layer 0 (Background)
//Storyboard Layer 1 (Fail)
//Storyboard Layer 2 (Pass)
//Storyboard Layer 3 (Foreground)
//Storyboard Layer 4 (Overlay)
//Storyboard Sound Samples

[TimingPoints]
997,500,4,1,1,50,1,0
14434,-100,4,1,1,70,0,0
14934,-100,4,1,1,60,0,0
16934,-100,4,1,1,50,0,0
23434,-100,4,1,1,70,0,0
26934,-100,4,1,1,60,0,0
27934,-100,4,1,1,70,0,0
28934,-100,4,1,1,75,0,0
44934,-100,4,1,1,70,0,0
52934,-100,4,1,1,75,0,0
56934,-100,4,1,1,60,0,0
57934,-100,4,1,1,70,0,0
58934,-100,4,1,1,75,0,0
60955,-100,4,1,1,80,0,0
64934,-100,4,1,1,60,0,0
66934,-100,4,1,1,70,0,0
68934,-100,4,1,1,80,0,0
76934,-100,4,1,1,60,0,0
78934,-100,4,1,1,50,0,0
83934,-100,4,1,1,60,0,0
87247,-100,4,1,1,55,0,0
87497,-100,4,1,1,50,0,0
87747,-100,4,1,1,45,0,0
87997,-100,4,1,1,40,0,0
88247,-100,4,1,1,35,0,0
88497,-100,4,1,1,30,0,0
88747,-100,4,1,1,25,0,0

[HitObjects]
256,192,997,5,0,0:0:0:0:
256,192,1997,1,8,0:0:0:0:
256,192,2997,1,0,0:0:0:0:
256,192,4497,1,8,0:0:0:0:
256,192,4997,1,0,0:0:0:0:
256,192,5997,1,8,0:0:0:0:
256,192,6997,1,0,0:0:0:0:
256,192,7997,1,8,0:0:0:0:
256,192,8997,1,0,0:0:0:0:
256,192,9997,1,8,0:0:0:0:
256,192,10997,1,0,0:0:0:0:
256,192,11997,1,8,0:0:0:0:
256,192,12997,1,0,0:0:0:0:
256,192,13997,1,8,0:0:0:0:
256,192,14497,1,12,0:0:0:0:
256,192,14997,12,0,16747,0:0:0:0:
256,192,16997,5,0,0:0:0:0:
256,192,17997,1,8,0:0:0:0:
256,192,18997,1,0,0:0:0:0:
256,192,19497,1,8,0:0:0:0:
256,192,20497,1,8,0:0:0:0:
256,192,20997,1,0,0:0:0:0:
256,192,21997,1,0,0:0:0:0:
256,192,22997,1,8,0:0:0:0:
256,192,23497,1,4,0:0:0:0:
256,192,26997,1,0,0:0:0:0:
256,192,27997,1,8,0:0:0:0:
256,192,28497,1,8,0:0:0:0:
256,192,28997,1,0,0:0:0:0:
256,192,29997,1,8,0:0:0:0:
256,192,30497,1,0,0:0:0:0:
256,192,30997,1,8,0:0:0:0:
256,192,31247,1,0,0:0:0:0:
256,192,31497,1,8,0:0:0:0:
256,192,31997,1,8,0:0:0:0:
256,192,32997,1,0,0:0:0:0:
256,192,33247,1,0,0:0:0:0:
256,192,33497,1,8,0:0:0:0:
256,192,33997,1,8,0:0:0:0:
256,192,34997,1,8,0:0:0:0:
256,192,35247,1,0,0:0:0:0:
256,192,35747,1,0,0:0:0:0:
256,192,35997,1,8,0:0:0:0:
256,192,36497,1,8,0:0:0:0:
256,192,36997,1,0,0:0:0:0:
256,192,37997,1,8,0:0:0:0:
256,192,38247,1,0,0:0:0:0:
256,192,38497,1,8,0:0:0:0:
256,192,38997,1,0,0:0:0:0:
256,192,39997,1,8,0:0:0:0:
256,192,40247,1,0,0:0:0:0:
256,192,40497,1,8,0:0:0:0:
256,192,40997,1,0,0:0:0:0:
256,192,41497,1,0,0:0:0:0:
256,192,41997,1,8,0:0:0:0:
256,192,42997,1,0,0:0:0:0:
256,192,44997,1,8,0:0:0:0:
256,192,45997,1,8,0:0:0:0:
256,192,46247,1,8,0:0:0:0:
256,192,46497,1,8,0:0:0:0:
256,192,46997,1,8,0:0:0:0:
256,192,47997,1,8,0:0:0:0:
256,192,48247,1,8,0:0:0:0:
256,192,48497,1,0,0:0:0:0:
256,192,48997,1,8,0:0:0:0:
256,192,49997,1,8,0:0:0:0:
256,192,50247,1,8,0:0:0:0:
256,192,50497,1,8,0:0:0:0:
256,192,50997,1,8,0:0:0:0:
256,192,51997,1,8,0:0:0:0:
256,192,52247,1,8,0:0:0:0:
256,192,52497,1,8,0:0:0:0:
256,192,52997,1,4,0:0:0:0:
256,192,53997,1,8,0:0:0:0:
256,192,54997,1,0,0:0:0:0:
256,192,55997,1,8,0:0:0:0:
256,192,56997,1,0,0:0:0:0:
256,192,57997,1,0,0:0:0:0:
256,192,58497,1,8,0:0:0:0:
256,192,58997,1,4,0:0:0:0:
256,192,59497,1,4,0:0:0:0:
256,192,59997,1,4,0:0:0:0:
256,192,60997,1,4,0:0:0:0:
256,192,61497,1,8,0:0:0:0:
256,192,61997,1,0,0:0:0:0:
256,192,62997,1,8,0:0:0:0:
256,192,63247,1,0,0:0:0:0:
256,192,63497,1,8,0:0:0:0:
256,192,63997,1,0,0:0:0:0:
256,192,64997,1,8,0:0:0:0:
256,192,65997,1,8,0:0:0:0:
256,192,66997,1,0,0:0:0:0:
256,192,67997,1,0,0:0:0:0:
256,192,68997,1,4,0:0:0:0:
256,192,69497,1,8,0:0:0:0:
256,192,69997,1,0,0:0:0:0:
256,192,70247,1,0,0:0:0:0:
256,192,70497,1,8,0:0:0:0:
256,192,70997,1,0,0:0:0:0:
256,192,71247,1,0,0:0:0:0:
256,192,71497,1,8,0:0:0:0:
256,192,71997,1,0,0:0:0:0:
256,192,72997,1,12,0:0:0:0:
256,192,73497,1,4,0:0:0:0:
256,192,73997,1,12,0:0:0:0:
256,192,74997,1,12,0:0:0:0:
256,192,75497,1,4,0:0:0:0:
256,192,75997,1,12,0:0:0:0:
256,192,76997,1,8,0:0:0:0:
256,192,77497,1,0,0:0:0:0:
256,192,77997,1,8,0:0:0:0:
256,192,78997,1,0,0:0:0:0:
256,192,80997,1,0,0:0:0:0:
256,192,82997,1,0,0:0:0:0:
256,192,83997,12,0,88872,0:0:0:0:
