osu file format v14

[General]
AudioFilename: audio.ogg
AudioLeadIn: 0
PreviewTime: 23573
Countdown: 0
SampleSet: Soft
StackLeniency: 0.3
Mode: 0
LetterboxInBreaks: 0
WidescreenStoryboard: 1

[Editor]
Bookmarks: 346,22164,23618,33800,35255,45436,46891,58527,70164,75223,83950,98132,106859,111223
DistanceSpacing: 1.1
BeatDivisor: 4
GridSize: 32
TimelineZoom: 1.3

[Metadata]
Title:A Dramatic Irony
TitleUnicode:ドラマティック・アイロニー
Artist:HOYO-MiX
ArtistUnicode:HOYO-MiX
Creator:Nytrocide_
Version:Midnight Tumult: Easy
Source:Honkai: Star Rail
Tags:nytro ganyumymommy nyarvis heyimjarvis jarvis angela merkel angela_merkel -envy- envy nv kafka trailer hsr カフカ キャラクターpv 伊藤静 崩壊:スターレイル 卡芙卡 戲劇性反諷 崩坏星穹铁道 카프카 드라마틱 아이러니 붕괴: 스타레일 mihoyo hoyoverse antonio vivaldi four seasons winter summer instrumental video game vgm electronic classical hoyomix alice
BeatmapID:4386011
BeatmapSetID:2092342

[Difficulty]
HPDrainRate:3
CircleSize:3.4
OverallDifficulty:2.4
ApproachRate:3
SliderMultiplier:1
SliderTickRate:1

[Events]
//Background and Video events
Video,-1635,"video.avi"
0,0,"the pogging.jpg",0,0
//Break Periods
2,70364,73783
2,94495,96692
//Storyboard Layer 0 (Background)
//Storyboard Layer 1 (Fail)
//Storyboard Layer 2 (Pass)
//Storyboard Layer 3 (Foreground)
//Storyboard Layer 4 (Overlay)
//Storyboard Sound Samples

[TimingPoints]
346,363.636364,4,2,1,40,1,0
346,-111.111111111111,4,2,1,40,0,0
22164,-111.111111111111,4,2,1,60,0,0
23618,-111.111111111111,4,2,1,65,0,0
23755,-111.111111111111,4,2,1,5,0,0
23800,-111.111111111111,4,2,1,65,0,0
24118,-111.111111111111,4,2,1,5,0,0
24163,-111.111111111111,4,2,1,65,0,0
24482,-111.111111111111,4,2,1,5,0,0
24527,-111.111111111111,4,2,1,65,0,0
24846,-111.111111111111,4,2,1,5,0,0
24891,-111.111111111111,4,2,1,65,0,0
26664,-111.111111111111,4,2,1,5,0,0
26709,-111.111111111111,4,2,1,65,0,0
27027,-111.111111111111,4,2,1,5,0,0
27072,-111.111111111111,4,2,1,65,0,0
27391,-111.111111111111,4,2,1,5,0,0
27436,-111.111111111111,4,2,1,65,0,0
27755,-111.111111111111,4,2,1,5,0,0
27800,-111.111111111111,4,2,1,65,0,0
29573,-111.111111111111,4,2,1,5,0,0
29618,-111.111111111111,4,2,1,65,0,0
29936,-111.111111111111,4,2,1,5,0,0
29981,-111.111111111111,4,2,1,65,0,0
30300,-111.111111111111,4,2,1,5,0,0
30345,-111.111111111111,4,2,1,65,0,0
30664,-111.111111111111,4,2,1,5,0,0
30709,-111.111111111111,4,2,1,65,0,0
33800,-111.111111111111,4,2,1,65,0,0
35255,-111.111111111111,4,2,1,70,0,0
41073,-111.111111111111,4,2,1,75,0,0
43982,-111.111111111111,4,2,1,80,0,0
45436,-111.111111111111,4,2,1,80,0,0
46891,-111.111111111111,4,2,1,90,0,0
47209,-111.111111111111,4,2,1,5,0,0
47255,-111.111111111111,4,2,1,90,0,0
49027,-111.111111111111,4,2,1,5,0,0
49073,-111.111111111111,4,2,1,90,0,0
50664,-111.111111111111,4,2,1,5,0,0
50709,-111.111111111111,4,2,1,90,0,0
52846,-111.111111111111,4,2,1,5,0,0
52891,-111.111111111111,4,2,1,90,0,0
55936,-111.111111111111,4,2,1,5,0,0
55982,-111.111111111111,4,2,1,90,0,0
58527,-111.111111111111,4,2,1,90,0,0
58846,-111.111111111111,4,2,1,5,0,0
58891,-111.111111111111,4,2,1,90,0,0
59209,-111.111111111111,4,2,1,5,0,0
59255,-111.111111111111,4,2,1,90,0,0
61027,-111.111111111111,4,2,1,5,0,0
61073,-111.111111111111,4,2,1,90,0,0
61755,-111.111111111111,4,2,1,5,0,0
61800,-111.111111111111,4,2,1,90,0,0
63209,-111.111111111111,4,2,1,5,0,0
63255,-111.111111111111,4,2,1,90,0,0
64346,-111.111111111111,4,2,2,80,0,0
67255,-111.111111111111,4,2,1,80,0,0
70164,374.957817,4,2,1,70,1,0
70164,-111.111111111111,4,2,1,70,0,0
70539,386.311689,4,2,1,68,1,8
70539,-111.111111111111,4,2,1,68,0,0
70925,387.624444,4,2,1,66,1,8
70925,-111.111111111111,4,2,1,66,0,0
71313,388.97893,4,2,1,64,1,8
71313,-111.111111111111,4,2,1,64,0,0
71702,427.624546,4,2,1,64,1,0
71702,-111.111111111111,4,2,1,64,0,0
72129,472.582347,4,2,1,62,1,8
72129,-111.111111111111,4,2,1,62,0,0
72366,584.624379,4,2,1,60,1,8
72366,-111.111111111111,4,2,1,60,0,0
72658,775.000549,4,2,1,58,1,8
72658,-111.111111111111,4,2,1,58,0,0
73062,783.913059,4,2,1,57,1,8
73062,-111.111111111111,4,2,1,57,0,0
73437,1102.916847,4,2,1,56,1,8
73437,-111.111111111111,4,2,1,56,0,8
73713,1105.583195,4,2,1,55,1,8
73713,-111.111111111111,4,2,1,55,0,8
73989,1837.83552,4,2,1,55,1,8
73989,-111.111111111111,4,2,1,55,0,8
74449,3097.077907,4,2,1,55,1,8
74449,-111.111111111111,4,2,1,55,0,8
75223,363.636364,3,2,1,70,1,0
75223,-111.111111111111,3,2,1,70,0,0
79586,-111.111111111111,3,2,1,75,0,0
81768,-111.111111111111,3,2,1,80,0,0
83950,-111.111111111111,3,2,1,90,0,0
84632,-111.111111111111,3,2,1,5,0,0
84677,-111.111111111111,3,2,1,90,0,0
86813,-111.111111111111,3,2,1,5,0,0
86859,-111.111111111111,3,2,1,90,0,0
88995,-111.111111111111,3,2,1,5,0,0
89041,-111.111111111111,3,2,1,90,0,0
94132,-111.111111111111,3,2,1,90,0,0
94495,-111.111111111111,3,2,1,70,0,0
95404,-111.111111111111,3,2,1,72,0,0
95495,-111.111111111111,3,2,1,75,0,0
95586,-111.111111111111,3,2,1,77,0,0
95677,-111.111111111111,3,2,1,80,0,0
95768,-111.111111111111,3,2,1,82,0,0
95859,-111.111111111111,3,2,1,85,0,0
95950,-111.111111111111,3,2,1,75,0,0
96677,-111.111111111111,3,2,1,72,0,0
97041,-111.111111111111,3,2,1,70,0,0
97404,-111.111111111111,3,2,1,67,0,0
97768,-111.111111111111,3,2,1,65,0,0
98132,-111.111111111111,3,2,1,80,0,0
102495,-111.111111111111,3,2,1,82,0,0
104677,-111.111111111111,3,2,1,85,0,0
106859,-111.111111111111,3,2,1,80,0,0
107950,-111.111111111111,3,2,1,82,0,0
109041,-111.111111111111,3,2,1,85,0,0
110132,-111.111111111111,3,2,1,87,0,0
111223,-1000,3,2,1,50,0,0

[Colours]
Combo1 : 98,79,123
Combo2 : 190,65,121
Combo3 : 168,159,181
Combo4 : 174,152,220

[HitObjects]
256,192,17800,12,2,22164,0:0:0:0:
88,52,23618,6,0,P|122:41|175:147,1,179.999994506836,4|2,1:2|0:0,0:0:0:0:
119,211,24709,1,2,0:0:0:0:
177,279,25073,1,2,0:0:0:0:
177,279,26527,6,0,L|148:371,2,89.9999972534181,4|2|2,1:2|0:0|0:0,0:0:0:0:
262,249,27618,1,2,0:0:0:0:
310,325,27982,1,2,0:0:0:0:
310,325,29436,5,4,1:2:0:0:
399,312,29800,2,0,P|446:361|439:396,2,89.9999972534181,8|0|2,0:3|3:0|0:0,0:0:0:0:
419,224,30891,1,0,3:2:0:0:
419,224,32346,6,0,P|342:207|317:197,1,89.9999972534181,2|2,0:0|0:0,0:0:0:0:
271,135,33073,1,2,0:0:0:0:
304,51,33436,1,2,0:0:0:0:
230,0,33800,1,2,0:0:0:0:
230,0,35255,6,0,P|183:12|123:19,1,89.9999972534181,4|8,1:0|0:3,0:0:0:0:
73,75,35982,2,0,L|24:61,2,44.999998626709,2|2|8,3:0|0:3|0:3,0:0:0:0:
126,147,36709,1,0,0:0:0:0:
68,216,37073,1,8,0:0:0:0:
118,290,37436,2,0,P|171:294|195:329,1,89.9999972534181,0|2,0:0|0:3,0:0:0:0:
263,376,38164,6,0,P|342:331|318:253,1,179.999994506836,4|2,1:0|0:0,0:0:0:0:
243,214,39255,1,8,0:0:0:0:
288,136,39618,2,0,L|269:30,2,89.9999972534181,2|8|2,0:0|0:3|0:0,0:0:0:0:
256,192,41073,12,2,45436,0:0:0:0:
456,42,46891,6,0,B|434:52|434:52|425:124,1,89.9999972534181,4|2,1:0|0:3,0:0:0:0:
492,178,47618,1,8,0:1:0:0:
492,178,47800,2,0,L|502:236,1,44.999998626709,2|4,0:3|1:2,0:0:0:0:
454,300,48346,2,0,P|402:307|376:385,2,134.999995880127,2|2|2,0:3|0:3|0:3,0:0:0:0:
499,222,49800,2,0,L|481:113,1,89.9999972534181,4|2,1:2|0:3,0:0:0:0:
512,47,50527,1,8,0:1:0:0:
431,5,50891,2,0,P|367:21|285:32,2,134.999995880127,4|0|8,1:2|3:3|0:1,0:0:0:0:
355,168,52709,5,4,1:0:0:0:
273,207,53073,2,0,L|264:251,2,44.999998626709,2|2|8,0:3|1:3|0:1,0:0:0:0:
209,142,53800,1,6,1:3:0:0:
122,115,54164,2,0,L|113:70,2,44.999998626709,2|2|4,0:3|0:3|1:3,0:0:0:0:
53,173,54891,1,8,0:1:0:0:
162,315,55618,6,0,P|151:352|100:372,2,89.9999972534181,4|4|8,1:3|1:3|0:1,0:0:0:0:
229,254,56709,1,6,1:3:0:0:
313,285,57073,2,0,L|323:331,2,44.999998626709,2|2|6,0:3|0:3|0:3,0:0:0:0:
375,220,57800,1,8,1:0:0:0:
271,73,58527,6,0,B|333:55|294:61|371:37,1,89.9999972534181,4|2,1:0|0:3,0:0:0:0:
437,0,59255,1,8,0:1:0:0:
437,0,59436,2,0,L|481:7,1,44.999998626709,2|2,0:3|0:3,0:0:0:0:
512,93,59982,2,0,P|505:162|440:172,2,134.999995880127,4|2|2,1:2|0:3|0:3,0:0:0:0:
480,6,61436,2,0,L|390:-8,1,89.9999972534181,4|2,1:2|1:3,0:0:0:0:
311,30,62164,1,8,0:1:0:0:
273,111,62527,2,0,L|285:161,2,44.999998626709,2|2|4,0:3|1:3|0:2,0:0:0:0:
189,75,63255,2,0,B|127:57|166:63|89:39,1,89.9999972534181,2|8,1:3|0:1,0:0:0:0:
18,69,63982,1,2,1:3:0:0:
35,158,64346,6,0,B|74:152|51:257|123:280|175:242,1,179.999994506836,4|10,1:0|0:0,0:0:0:0:
318,336,65800,6,0,B|353:340|404:359|404:380,2,89.9999972534181,2|2|10,0:3|0:3|0:0,0:0:0:0:
256,192,67255,12,0,70164,0:0:0:0:
33,372,75223,6,0,B|115:325|37:247|111:152|180:188,1,269.999991760254,4|2,1:0|1:3,0:0:0:0:
447,211,77404,6,0,B|364:164|442:86|368:-8|299:27,1,269.999991760254,2|2,1:3|1:3,0:0:0:0:
256,192,79586,12,4,82859,0:0:0:0:
292,290,83950,6,0,B|203:305|203:305|184:330|184:330|124:341,1,179.999994506836,4|2,1:2|0:0,0:0:0:0:
48,295,85041,2,0,P|39:272|78:225,1,89.9999972534181,2|8,0:0|0:0,0:0:0:0:
134,157,85768,1,10,0:0:0:0:
75,88,86132,2,0,B|58:42|58:42|117:-18|179:35,1,179.999994506836,4|2,1:2|0:0,0:0:0:0:
263,43,87223,2,0,L|278:-16,2,44.999998626709,2|2|8,0:0|0:0|0:0,0:0:0:0:
207,214,88313,6,0,P|184:270|284:330,1,179.999994506836,4|2,1:2|0:0,0:0:0:0:
338,284,89404,1,2,0:0:0:0:
412,335,89768,2,0,P|449:317|500:302,1,89.9999972534181,10|10,0:0|0:0,0:0:0:0:
512,214,90495,6,0,L|526:118,1,89.9999972534181,4|12,1:2|1:2,0:0:0:0:
365,42,91586,6,0,L|377:131,1,89.9999972534181,4|6,1:2|1:2,0:0:0:0:
202,169,92677,6,0,L|214:79,1,89.9999972534181,4|4,1:2|1:2,0:0:0:0:
51,4,93768,6,0,L|63:93,1,89.9999972534181,4|4,1:2|1:2,0:0:0:0:
412,286,98132,6,0,B|324:306|353:367|251:388,1,179.999994506836,4|2,1:2|0:0,0:0:0:0:
196,328,99223,1,4,0:2:0:0:
116,368,99587,2,0,P|78:351|18:337,1,89.9999972534181,2|2,0:0|0:0,0:0:0:0:
0,255,100313,2,0,B|-27:196|4:107|95:135|132:81|123:39,1,269.999991760254,4|4,0:2|0:2,0:0:0:0:
388,96,102495,6,0,P|432:103|475:116,2,89.9999972534181,4|4|2,0:2|0:2|0:0,0:0:0:0:
304,128,103586,1,4,0:2:0:0:
235,69,103950,2,0,L|227:24,2,44.999998626709,4|0|2,0:2|0:0|0:0,0:0:0:0:
167,128,104677,2,0,B|102:180|201:303|241:186|310:281|294:333,1,269.999991760254,4|4,0:2|0:2,0:0:0:0:
256,192,106859,12,0,111223,0:0:0:0:
