osu file format v14

[General]
AudioFilename: audio.ogg
AudioLeadIn: 0
PreviewTime: 23573
Countdown: 0
SampleSet: Soft
StackLeniency: 0.3
Mode: 0
LetterboxInBreaks: 0
WidescreenStoryboard: 1

[Editor]
Bookmarks: 346,22164,23618,33800,35255,45436,46891,58527,70164,75223,83950,98132,106859,111223
DistanceSpacing: 0.2
BeatDivisor: 4
GridSize: 32
TimelineZoom: 1.8

[Metadata]
Title:A Dramatic Irony
TitleUnicode:ドラマティック・アイロニー
Artist:HOYO-MiX
ArtistUnicode:HOYO-MiX
Creator:Nytrocide_
Version:Gentle but Cruel: nyarvis' Insane
Source:Honkai: Star Rail
Tags:nytro ganyumymommy nyarvis heyimjarvis jarvis angela merkel angela_merkel -envy- envy nv kafka trailer hsr カフカ キャラクターpv 伊藤静 崩壊:スターレイル 卡芙卡 戲劇性反諷 崩坏星穹铁道 카프카 드라마틱 아이러니 붕괴: 스타레일 mihoyo hoyoverse antonio vivaldi four seasons winter summer instrumental video game vgm electronic classical hoyomix alice
BeatmapID:4386009
BeatmapSetID:2092342

[Difficulty]
HPDrainRate:5
CircleSize:4
OverallDifficulty:8
ApproachRate:9
SliderMultiplier:1.8
SliderTickRate:1

[Events]
//Background and Video events
Video,-1635,"video.avi"
0,0,"the pogging.jpg",0,0
//Break Periods
//Storyboard Layer 0 (Background)
//Storyboard Layer 1 (Fail)
//Storyboard Layer 2 (Pass)
//Storyboard Layer 3 (Foreground)
//Storyboard Layer 4 (Overlay)
//Storyboard Sound Samples

[TimingPoints]
346,363.636364,4,2,1,40,1,0
346,-1000,4,2,1,40,0,0
22164,-1000,4,2,1,60,0,0
22346,-111.111111111111,4,2,1,60,0,0
23618,-66.6666666666666,4,2,1,65,0,0
23755,-66.6666666666666,4,2,1,5,0,0
23800,-66.6666666666666,4,2,1,65,0,0
23982,-100,4,2,1,65,0,0
24118,-100,4,2,1,5,0,0
24163,-100,4,2,1,65,0,0
24346,-125,4,2,1,65,0,0
24482,-125,4,2,1,5,0,0
24527,-125,4,2,1,65,0,0
24846,-125,4,2,1,5,0,0
24891,-125,4,2,1,65,0,0
26527,-66.6666666666667,4,2,1,65,0,0
26664,-66.6666666666667,4,2,1,5,0,0
26709,-66.6666666666667,4,2,1,65,0,0
26891,-100,4,2,1,65,0,0
27027,-100,4,2,1,5,0,0
27072,-100,4,2,1,65,0,0
27255,-125,4,2,1,65,0,0
27391,-125,4,2,1,5,0,0
27436,-125,4,2,1,65,0,0
27755,-125,4,2,1,5,0,0
27800,-125,4,2,1,65,0,0
29436,-66.6666666666667,4,2,1,65,0,0
29573,-66.6666666666667,4,2,1,5,0,0
29618,-66.6666666666667,4,2,1,65,0,0
29800,-100,4,2,1,65,0,0
29936,-100,4,2,1,5,0,0
29981,-100,4,2,1,65,0,0
30300,-100,4,2,1,5,0,0
30345,-100,4,2,1,65,0,0
30527,-125,4,2,1,65,0,0
30664,-125,4,2,1,5,0,0
30709,-125,4,2,1,65,0,0
32346,-100,4,2,1,65,0,0
33800,-125,4,2,1,65,0,0
35255,-125,4,2,1,70,0,0
41073,-125,4,2,1,75,0,0
43982,-83.3333333333333,4,2,1,80,0,0
44164,-125,4,2,1,80,0,0
44346,-83.3333333333333,4,2,1,80,0,0
44527,-125,4,2,1,80,0,0
44709,-83.3333333333333,4,2,1,80,0,0
44891,-125,4,2,1,80,0,0
45436,-125,4,2,1,80,0,0
46891,-66.6666666666667,4,2,1,90,0,0
47209,-66.6666666666667,4,2,1,5,0,0
47255,-142.857142857143,4,2,1,90,0,0
47800,-100,4,2,1,90,0,0
49027,-100,4,2,1,5,0,0
49073,-100,4,2,1,90,0,0
50527,-83.3333333333333,4,2,1,90,0,0
50664,-83.3333333333333,4,2,1,5,0,0
50709,-83.3333333333333,4,2,1,90,0,0
50891,-166.666666666667,4,2,1,90,0,0
51982,-100,4,2,1,90,0,0
52846,-100,4,2,1,5,0,0
52891,-100,4,2,1,90,0,0
55936,-100,4,2,1,5,0,0
55982,-100,4,2,1,90,0,0
57800,-333.333333333333,4,2,1,90,0,0
58527,-142.857142857143,4,2,1,90,0,0
58846,-142.857142857143,4,2,1,5,0,0
58891,-333.333333333334,4,2,1,90,0,0
59209,-333.333333333334,4,2,1,5,0,0
59255,-66.6666666666667,4,2,1,90,0,0
59436,-100,4,2,1,90,0,0
61027,-100,4,2,1,5,0,0
61073,-100,4,2,1,90,0,0
61618,-83.3333333333333,4,2,1,90,0,0
61755,-83.3333333333333,4,2,1,5,0,0
61800,-83.3333333333333,4,2,1,90,0,0
62164,-66.6666666666667,4,2,1,90,0,0
63209,-66.6666666666667,4,2,1,5,0,0
63255,-66.6666666666667,4,2,1,90,0,0
63800,-100,4,2,1,90,0,0
64346,-100,4,2,2,80,0,0
66164,-142.857142857143,4,2,2,80,0,0
67255,-111.111111111111,4,2,1,80,0,0
70164,374.957817,4,2,1,70,1,0
70164,-133.333333333333,4,2,1,70,0,0
70539,386.311689,4,2,1,68,1,8
70539,-133.333333333333,4,2,1,68,0,0
70925,387.624444,4,2,1,66,1,8
70925,-133.333333333333,4,2,1,66,0,0
71313,388.97893,4,2,1,64,1,8
71313,-133.333333333333,4,2,1,64,0,0
71702,427.624546,4,2,1,64,1,0
71702,-133.333333333333,4,2,1,64,0,0
72129,472.582347,4,2,1,62,1,8
72129,-133.333333333333,4,2,1,62,0,0
72366,584.624379,4,2,1,60,1,8
72366,-133.333333333333,4,2,1,60,0,0
72658,775.000549,4,2,1,58,1,8
72658,-133.333333333333,4,2,1,58,0,0
73062,783.913059,4,2,1,57,1,8
73062,-133.333333333333,4,2,1,57,0,0
73437,1102.916847,4,2,1,56,1,8
73437,-133.333333333333,4,2,1,56,0,0
73713,1105.583195,4,2,1,55,1,8
73713,-133.333333333333,4,2,1,55,0,0
73989,1837.83552,4,2,1,55,1,8
73989,-133.333333333333,4,2,1,55,0,0
74449,3097.077907,4,2,1,55,1,8
74449,-133.333333333333,4,2,1,55,0,0
75223,363.636364,3,2,1,70,1,0
75223,-100,3,2,1,70,0,0
76313,-66.6666666666667,3,2,1,70,0,0
76495,-100,3,2,1,70,0,0
79586,-83.3333333333333,3,2,1,75,0,0
81768,-83.3333333333333,3,2,1,80,0,0
82132,-71.4285714285714,3,2,1,80,0,0
83950,-55.5555555555556,3,2,1,90,0,0
84632,-55.5555555555556,3,2,1,5,0,0
84677,-83.3333333333333,3,2,1,90,0,0
86813,-83.3333333333333,3,2,1,5,0,0
86859,-83.3333333333333,3,2,1,90,0,0
88995,-83.3333333333333,3,2,1,5,0,0
89041,-83.3333333333333,3,2,1,90,0,0
90495,-66.6666666666667,3,2,1,90,0,0
90859,-142.857142857143,3,2,1,90,0,0
91586,-66.6666666666667,3,2,1,90,0,0
91950,-285.714285714286,3,2,1,90,0,0
92677,-55.5555555555556,3,2,1,90,0,0
93041,-333.333333333333,3,2,1,90,0,0
93768,-55.5555555555556,3,2,1,90,0,0
94132,-100,3,2,1,90,0,0
94495,-100,3,2,1,70,0,0
95404,-100,3,2,1,72,0,0
95495,-100,3,2,1,75,0,0
95586,-100,3,2,1,77,0,0
95677,-100,3,2,1,80,0,0
95768,-100,3,2,1,82,0,0
95859,-100,3,2,1,85,0,0
95950,-100,3,2,1,75,0,0
96677,-100,3,2,1,72,0,0
97041,-100,3,2,1,70,0,0
97404,-100,3,2,1,67,0,0
97768,-100,3,2,1,65,0,0
98132,-66.6666666666667,3,2,1,80,0,0
98495,-125,3,2,1,80,0,0
100677,-166.666666666667,3,2,1,80,0,0
101768,-250.000000000001,3,2,1,80,0,0
102495,-100,3,2,1,82,0,0
103950,-83.3333333333333,3,2,1,82,0,0
104677,-83.3333333333333,3,2,1,85,0,0
105041,-66.6666666666667,3,2,1,85,0,0
106132,-55.5555555555556,3,2,1,85,0,0
106859,-83.3333333333333,3,2,1,80,0,0
107041,-166.666666666667,3,2,1,80,0,0
107950,-66.6666666666667,3,2,1,82,0,0
108132,-166.666666666667,3,2,1,82,0,0
109041,-55.5555555555556,3,2,1,85,0,0
109223,-166.666666666667,3,2,1,85,0,0
110132,-50,3,2,1,87,0,0
110313,-166.666666666667,3,2,1,87,0,0
111223,-1000,3,2,1,50,0,0

[Colours]
Combo1 : 98,79,123
Combo2 : 190,65,121
Combo3 : 168,159,181
Combo4 : 174,152,220

[HitObjects]
256,192,17800,12,2,22164,0:0:0:0:
180,129,22346,6,0,L|191:173,1,40.4999987640381,2|2,0:0|0:0,0:0:0:0:
256,252,22527,5,2,0:0:0:0:
283,244,22618,1,2,0:0:0:0:
327,247,22709,1,2,0:0:0:0:
354,239,22800,1,2,0:0:0:0:
401,251,22891,6,0,L|386:298,1,40.4999987640381,2|0,0:0|0:0,0:0:0:0:
413,259,23073,6,0,L|398:306,1,40.4999987640381,2|0,0:0|0:0,0:0:0:0:
425,267,23255,6,0,L|410:314,1,40.4999987640381,2|0,0:0|0:0,0:0:0:0:
502,236,23436,6,0,L|489:197,1,40.4999987640381,2|0,0:0|0:0,0:0:0:0:
430,142,23618,6,0,B|454:113|454:113|499:114|499:114|467:113|433:95,1,135.000005149842,4|2,1:2|0:2,0:0:0:0:
343,34,23982,2,0,L|256:60,1,90,2|2,0:0|0:0,0:0:0:0:
190,186,24346,2,0,L|121:164,1,72,2|2,0:0|0:0,0:0:0:0:
46,67,24709,5,2,0:0:0:0:
43,60,24891,1,2,0:0:0:0:
121,164,25073,1,2,0:0:0:0:
46,233,25255,6,0,L|36:267,1,36,2|2,0:0|0:0,0:0:0:0:
89,353,25436,5,2,0:0:0:0:
98,348,25527,1,2,0:0:0:0:
107,343,25618,1,2,0:0:0:0:
116,338,25709,1,2,0:0:0:0:
125,333,25800,5,2,0:0:0:0:
166,259,25982,1,2,0:0:0:0:
245,293,26164,1,2,0:0:0:0:
204,367,26346,1,2,0:0:0:0:
134,187,26527,6,0,B|104:120|170:123|146:55,1,135.000005149842,4|2,1:2|0:2,0:0:0:0:
247,175,26891,2,0,P|290:187|332:203,1,90,2|2,0:0|0:0,0:0:0:0:
453,144,27255,2,0,P|478:124|471:78,1,72,2|2,0:0|0:0,0:0:0:0:
389,7,27618,5,2,0:0:0:0:
393,0,27800,1,2,0:0:0:0:
477,86,27982,1,2,0:0:0:0:
394,271,28164,5,2,0:0:0:0:
406,264,28255,1,2,0:0:0:0:
418,256,28346,2,0,L|431:210,3,36,2|2|2|2,0:0|0:0|0:0|0:0,0:0:0:0:
486,304,28709,5,2,0:0:0:0:
512,320,28891,1,2,0:0:0:0:
395,368,29073,5,2,0:0:0:0:
369,384,29255,1,2,0:0:0:0:
254,315,29436,6,0,B|250:294|234:288|234:288|227:250|259:221|300:235,1,135.000005149842,4|0,1:2|3:2,0:0:0:0:
176,352,29800,2,0,L|87:335,1,90,8|2,0:3|0:0,0:0:0:0:
44,234,30164,2,0,L|0:242,2,45,0|0|2,3:0|0:0|3:0,0:0:0:0:
160,163,30527,6,0,B|180:137|180:137|169:99,1,72,2|10,0:0|0:3,0:0:0:0:
56,27,30891,1,0,3:2:0:0:
164,87,31073,6,0,L|198:77,1,36,0|0,3:0|3:0,0:0:0:0:
308,15,31255,5,0,3:2:0:0:
306,25,31346,1,2,0:0:0:0:
304,35,31436,1,2,0:3:0:0:
302,45,31527,1,0,0:0:0:0:
300,55,31618,5,2,2:0:0:0:
356,128,31800,1,10,0:3:0:0:
404,36,31982,1,2,2:0:0:0:
460,109,32164,1,10,0:3:0:0:
300,55,32346,6,0,B|271:51|250:65|250:65|261:39|295:48,1,90,2|2,0:0|3:2,0:0:0:0:
362,160,32709,2,0,B|362:140|362:140|357:130|357:130|376:139|376:139|373:182,1,90,2|2,0:0|0:0,0:0:0:0:
313,273,33073,5,2,0:0:0:0:
318,265,33255,1,2,0:0:0:0:
232,330,33436,5,2,0:0:0:0:
241,330,33618,1,10,0:3:0:0:
134,267,33800,6,0,L|122:230,3,36,2|2|2|2,0:0|0:0|0:0|0:0,0:0:0:0:
190,175,34164,6,0,L|202:138,3,36,2|2|2|2,0:0|0:0|0:0|0:0,0:0:0:0:
78,84,34527,6,0,L|66:47,3,36,2|2|2|2,0:0|0:0|3:0|3:0,0:0:0:0:
190,175,34891,5,2,3:0:0:0:
210,186,34982,1,2,3:0:0:0:
256,182,35073,1,2,3:0:0:0:
287,138,35164,1,2,3:0:0:0:
253,74,35255,6,0,B|268:176|275:112|292:211,1,144,4|8,1:0|0:3,0:0:0:0:
366,298,35800,1,2,0:3:0:0:
440,161,35982,5,2,3:0:0:0:
435,175,36164,1,2,0:3:0:0:
366,298,36346,5,8,0:3:0:0:
400,378,36527,1,2,3:0:0:0:
364,216,36709,6,0,B|327:194|327:194|266:216,1,108,0|8,0:0|0:0,0:0:0:0:
261,229,37073,2,0,L|248:272,3,36,8|8|8|0,0:0|0:0|0:0|0:0,0:0:0:0:
136,181,37436,5,0,0:0:0:0:
153,174,37618,1,2,0:3:0:0:
248,84,37800,5,2,0:3:0:0:
145,48,37982,1,0,0:0:0:0:
54,161,38164,6,0,B|45:223|45:223|47:232|47:232|34:316,1,144,4|2,1:0|3:0,0:0:0:0:
128,363,38709,1,2,0:0:0:0:
196,288,38891,5,2,0:0:0:0:
218,280,39073,1,2,0:3:0:0:
285,353,39255,5,8,0:0:0:0:
375,375,39436,1,0,3:0:0:0:
440,297,39618,6,0,B|453:260|453:260|436:231,1,72,2|0,0:0|3:0,0:0:0:0:
312,171,39982,2,0,B|299:208|299:208|315:236,1,72,8|0,0:3|0:0,0:0:0:0:
411,132,40346,5,2,0:0:0:0:
419,117,40527,1,2,0:0:0:0:
299,29,40709,2,0,L|310:70,3,36,0|0|0|0,3:0|3:0|3:0|3:0,0:0:0:0:
303,77,41073,6,0,L|229:59,1,72,4|0,1:2|0:0,0:0:0:0:
148,113,41436,1,0,0:0:0:0:
162,110,41618,1,0,0:0:0:0:
177,241,41800,6,0,L|103:259,1,72,0|0,1:0|0:0,0:0:0:0:
70,342,42164,1,0,0:0:0:0:
84,345,42346,1,0,0:0:0:0:
251,280,42527,6,0,B|267:261|267:261|259:213,1,72,4|0,1:2|0:0,0:0:0:0:
147,117,42891,1,0,0:0:0:0:
162,110,43073,1,0,0:0:0:0:
308,51,43255,5,0,1:0:0:0:
187,11,43436,1,0,0:0:0:0:
275,126,43618,1,0,0:0:0:0:
390,52,43800,1,0,0:0:0:0:
162,110,43982,6,0,L|184:167,1,53.9999983520508,4|8,1:2|0:0,0:0:0:0:
191,166,44164,2,0,L|176:207,1,36,8|8,0:0|0:0,0:0:0:0:
43,252,44346,6,0,L|103:261,1,53.9999983520508,6|8,1:2|0:0,0:0:0:0:
106,255,44528,2,0,L|134:288,1,36,8|8,0:0|0:0,0:0:0:0:
328,334,44709,6,0,L|267:343,1,53.9999983520508,6|8,1:2|0:0,0:0:0:0:
265,337,44891,2,0,L|236:370,1,36,8|8,0:0|0:0,0:0:0:0:
155,384,45073,5,6,1:2:0:0:
159,373,45164,1,8,0:0:0:0:
163,362,45255,1,8,0:0:0:0:
167,352,45346,1,8,0:0:0:0:
171,342,45436,5,2,0:0:0:0:
442,116,46527,5,8,0:3:0:0:
359,139,46648,5,8,0:3:0:0:
309,210,46770,5,8,0:3:0:0:
320,202,46891,6,0,P|229:156|130:142,1,202.500007724762,4|0,1:0|0:0,0:0:0:0:
262,149,47255,6,0,P|231:154|203:168,1,62.9999980773926,2|0,0:3|1:0,0:0:0:0:
139,278,47618,1,8,0:1:0:0:
256,365,47800,6,0,P|288:336|281:294,1,90,2|4,0:3|1:2,0:0:0:0:
269,287,48164,1,2,0:3:0:0:
131,267,48346,6,0,P|98:238|105:196,1,90,2|2,0:3|0:3,0:0:0:0:
189,151,48709,1,0,1:0:0:0:
224,26,48891,5,2,0:3:0:0:
315,120,49073,2,0,P|359:124|401:139,1,90,8|2,0:1|0:3,0:0:0:0:
501,96,49436,5,2,0:3:0:0:
432,5,49618,1,2,0:3:0:0:
401,139,49800,6,0,P|373:174|357:216,1,90,4|2,1:2|0:3,0:0:0:0:
426,356,50164,1,2,0:3:0:0:
292,265,50346,5,2,1:3:0:0:
285,259,50436,1,0,0:0:0:0:
281,250,50527,2,0,B|273:229|279:206|279:206|269:162|216:153|188:190,1,161.999995056153,8|0,0:1|0:0,0:0:0:0:
133,239,50891,6,0,P|144:277|146:316,1,53.9999983520508,4|2,1:2|0:3,0:0:0:0:
194,353,51164,1,2,0:3:0:0:
163,330,51255,1,2,3:3:0:0:
125,322,51346,1,2,3:3:0:0:
87,326,51436,1,0,3:3:0:0:
67,188,51618,6,0,P|31:177|17:145,1,53.9999983520508,2|0,0:3|1:2,0:0:0:0:
26,88,51891,5,0,0:0:0:0:
35,83,51982,2,0,P|57:75|79:70,1,45,8|0,0:1|0:0,0:0:0:0:
307,10,52164,5,4,1:2:0:0:
300,4,52255,1,4,1:2:0:0:
291,0,52346,2,0,P|269:7|247:12,1,45,10|0,0:1|0:0,0:0:0:0:
209,195,52527,2,0,P|230:187|252:182,1,45,2|0,1:0|0:0,0:0:0:0:
436,103,52709,5,4,1:0:0:0:
355,163,52891,1,2,0:3:0:0:
203,94,53073,1,2,0:3:0:0:
243,304,53255,5,2,1:3:0:0:
316,257,53436,1,8,0:1:0:0:
451,316,53618,1,2,0:3:0:0:
355,163,53800,5,6,1:3:0:0:
243,304,53982,1,2,0:3:0:0:
374,163,54164,1,2,0:3:0:0:
126,203,54346,5,2,0:3:0:0:
230,312,54527,2,0,L|216:359,2,45,4|0|2,1:3|0:0|0:3,0:0:0:0:
196,159,54891,5,8,0:1:0:0:
48,209,55073,1,6,1:3:0:0:
120,341,55255,5,2,0:3:0:0:
15,293,55436,1,2,0:3:0:0:
48,209,55618,6,0,L|35:161,1,45,4|0,1:3|0:0,0:0:0:0:
100,122,55800,2,0,L|111:78,1,45,2|0,0:3|0:0,0:0:0:0:
107,66,55982,1,4,1:3:0:0:
201,196,56164,6,0,L|246:207,1,45,2|0,0:3|0:0,0:0:0:0:
284,139,56346,2,0,L|327:128,1,45,8|0,0:1|0:0,0:0:0:0:
337,138,56527,1,2,0:3:0:0:
399,236,56709,6,0,L|379:281,1,45,6|0,1:3|0:0,0:0:0:0:
438,329,56891,2,0,L|456:371,1,45,2|0,0:3|0:0,0:0:0:0:
455,384,57073,1,2,0:3:0:0:
500,228,57255,5,2,0:3:0:0:
463,159,57436,1,6,0:3:0:0:
321,231,57618,5,4,1:3:0:0:
318,239,57709,1,4,1:3:0:0:
315,247,57800,2,0,L|222:267,1,94.4999971160889,8|2,1:0|0:0,0:0:0:0:
174,322,58527,6,0,L|113:306,1,62.9999980773926,4|0,1:0|0:0,0:0:0:0:
248,147,58891,2,0,L|199:160,1,40.4999987640381,2|0,0:3|0:0,0:0:0:0:
151,204,59255,6,0,L|170:139,1,67.5000025749208,8|0,0:1|0:0,0:0:0:0:
205,18,59436,2,0,L|218:61,1,45,2|0,0:3|0:0,0:0:0:0:
229,68,59618,1,2,0:3:0:0:
381,107,59800,1,2,0:3:0:0:
151,204,59982,5,4,1:2:0:0:
35,52,60164,2,0,L|12:156,1,90,2|2,0:3|1:3,0:0:0:0:
109,346,60527,5,2,0:3:0:0:
137,311,60618,1,0,0:0:0:0:
114,271,60709,2,0,B|82:275|82:275|65:292|65:292|24:310,1,90,8|0,0:1|0:0,0:0:0:0:
258,145,61073,6,0,L|244:195,1,45,2|2,0:3|0:3,0:0:0:0:
294,244,61255,2,0,L|264:143,1,90,2|4,0:3|1:2,0:0:0:0:
393,89,61618,6,0,L|415:36,1,53.9999983520508
385,26,61800,2,0,L|421:148,1,107.999996704102,2|2,1:3|0:3,0:0:0:0:
381,360,62164,6,0,B|360:339|360:339|380:331|380:331|379:362,1,67.5000025749208,8|0,0:1|0:0,0:0:0:0:
509,337,62346,2,0,B|456:323|456:323|446:274|446:274|412:264,1,135.000005149842,2|2,0:3|0:3,0:0:0:0:
102,210,62709,6,0,B|127:200|128:177|128:177|118:194|100:198,1,67.5000025749208,2|2,1:3|0:3,0:0:0:0:
0,46,62891,2,0,P|59:67|56:130,1,135.000005149842,4|0,0:2|0:0,0:0:0:0:
424,34,63255,6,0,B|385:45|405:50|360:63,1,67.5000025749208,2|0,1:3|0:0,0:0:0:0:
295,0,63436,2,0,B|283:4|262:-9|262:-9|211:22|241:76,1,135.000005149842,2|8,0:3|0:1,0:0:0:0:
322,258,63800,5,2,0:3:0:0:
325,249,63891,1,0,0:0:0:0:
321,240,63982,2,0,B|278:226|256:269|272:264|253:314|197:295,1,135,2|2,1:3|0:3,0:0:0:0:
198,298,64346,5,4,1:0:0:0:
164,369,64528,1,2,0:0:0:0:
57,280,64709,5,2,0:0:0:0:
51,269,64891,1,2,0:0:0:0:
129,192,65073,5,10,0:0:0:0:
163,121,65255,1,2,0:0:0:0:
23,58,65436,5,2,0:0:0:0:
28,70,65618,1,2,0:0:0:0:
142,14,65800,5,2,0:3:0:0:
136,27,65982,1,2,0:0:0:0:
239,146,66164,2,0,B|270:139|270:139|275:135|275:135|305:127,1,62.9999980773926,2|0,0:3|0:0,0:0:0:0:
396,35,66527,5,10,0:0:0:0:
402,48,66709,1,2,0:0:0:0:
298,163,66891,2,0,B|276:159|276:159|262:151|262:151|237:145,1,62.9999980773926,2|2,0:0|0:0,0:0:0:0:
364,283,67255,5,6,0:0:0:0:
372,278,67346,1,2,0:0:0:0:
380,274,67436,1,2,0:0:0:0:
389,270,67527,1,2,0:0:0:0:
397,266,67618,2,0,L|408:227,3,40.4999987640381,2|2|2|2,0:0|0:0|0:0|0:0,0:0:0:0:
479,133,67982,6,0,L|467:94,3,40.4999987640381,2|2|2|2,0:0|0:0|0:0|0:0,0:0:0:0:
323,29,68346,6,0,L|361:40,3,40.4999987640381,2|2|2|2,3:0|3:0|3:0|3:0,3:0:0:0:
261,167,68709,5,2,0:0:0:0:
268,165,68800,1,2,0:0:0:0:
275,162,68891,2,0,B|279:143|279:143|265:126,1,40.4999987640381,2|2,0:0|0:0,0:0:0:0:
175,68,69073,5,2,0:0:0:0:
176,60,69164,1,2,0:0:0:0:
177,53,69255,2,0,B|162:40|162:40|141:43,1,40.4999987640381,2|2,0:0|0:0,0:0:0:0:
69,24,69436,5,2,0:0:0:0:
61,23,69527,1,2,0:0:0:0:
54,22,69618,2,0,B|41:36|41:36|44:57,1,40.4999987640381,2|2,0:0|0:0,0:0:0:0:
5,122,69800,5,2,0:0:0:0:
8,129,69891,1,2,0:0:0:0:
11,136,69982,1,2,0:0:0:0:
14,143,70073,1,2,0:0:0:0:
17,150,70164,1,6,0:0:0:0:
256,192,70351,12,0,74448,0:0:0:0:
313,230,75223,6,0,L|262:216,1,45,4|0,1:0|0:0,0:0:0:0:
231,150,75404,2,0,L|187:161,1,45,10|0,0:0|0:0,0:0:0:0:
178,177,75586,1,8,0:0:0:0:
319,145,75768,5,8,0:0:0:0:
325,133,75859,1,8,0:0:0:0:
331,121,75950,1,8,0:0:0:0:
365,51,76132,1,8,0:0:0:0:
178,177,76313,6,0,B|201:189|201:189|215:249,1,67.5000025749208,2|0,1:3|0:0,0:0:0:0:
274,283,76495,2,0,L|261:334,1,45,10|0,0:0|0:0,0:0:0:0:
267,341,76677,1,8,0:0:0:0:
178,177,76859,5,8,0:0:0:0:
165,182,76950,1,8,0:0:0:0:
152,187,77041,1,8,0:0:0:0:
111,267,77223,1,8,0:0:0:0:
2,94,77404,6,0,P|23:98|43:110,1,45,2|0,1:3|0:0,0:0:0:0:
102,28,77586,2,0,P|123:23|143:11,1,45,10|0,0:0|0:0,0:0:0:0:
157,19,77768,1,8,0:0:0:0:
272,91,77950,5,8,0:0:0:0:
275,103,78041,1,8,0:0:0:0:
278,115,78132,1,8,0:0:0:0:
264,139,78223,5,2,0:0:0:0:
260,151,78313,1,8,0:0:0:0:
380,57,78495,6,0,P|358:51|337:42,1,45,2|0,1:3|0:0,0:0:0:0:
260,151,78677,2,0,P|239:159|217:165,1,45,10|0,0:0|0:0,0:0:0:0:
162,113,78859,1,8,0:0:0:0:
366,227,79041,1,8,0:0:0:0:
349,219,79132,1,8,0:0:0:0:
331,214,79223,1,8,0:0:0:0:
435,149,79404,1,8,0:0:0:0:
261,255,79586,6,0,P|269:281|275:308,1,53.9999983520508,2|0,1:3|0:0,0:0:0:0:
397,384,79768,5,10,0:0:0:0:
473,276,79950,1,0,1:3:0:0:
365,304,80132,1,8,0:0:0:0:
500,357,80313,1,0,1:3:0:0:
500,357,80495,1,8,0:0:0:0:
327,135,80677,6,0,B|308:140|308:140|301:145|301:145|269:152,1,53.9999983520508,0|2,1:3|0:0,0:0:0:0:
217,205,80859,5,10,0:0:0:0:
120,168,81041,1,0,1:3:0:0:
89,85,81223,5,8,0:0:0:0:
17,114,81404,1,0,1:3:0:0:
186,111,81586,1,8,0:0:0:0:
72,33,81768,6,0,L|89:85,1,53.9999983520508,0|8,1:3|0:0,0:0:0:0:
202,162,81950,6,0,L|185:110,1,53.9999983520508,0|8,1:3|0:0,0:0:0:0:
284,0,82132,6,0,L|303:59,1,62.9999980773926,0|8,1:3|0:0,0:0:0:0:
465,146,82313,6,0,L|445:86,1,62.9999980773926,0|8,1:3|0:0,0:0:0:0:
258,267,82495,6,0,B|273:258|273:258|336:283,1,62.9999980773926,0|8,1:3|0:0,0:0:0:0:
479,230,82677,6,0,B|464:239|464:239|401:214,1,62.9999980773926,0|8,1:3|0:0,0:0:0:0:
410,228,82859,5,4,0:0:0:0:
410,228,83950,6,0,B|392:177|392:177|386:173|386:173|369:117|369:117|397:140|397:140|389:166,1,161.999995056153,4|0,1:2|0:0,0:0:0:0:
407,238,84313,1,0,0:0:0:0:
281,157,84495,1,2,0:0:0:0:
189,238,84677,6,0,L|137:221,1,53.9999983520508,2|0,0:0|0:0,0:0:0:0:
98,155,84859,2,0,L|46:171,1,53.9999983520508,2|0,0:0|0:0,0:0:0:0:
43,183,85041,5,2,0:0:0:0:
174,116,85223,1,2,0:0:0:0:
232,35,85404,5,8,0:0:0:0:
298,71,85586,1,2,0:0:0:0:
320,280,85768,6,0,P|300:262|292:236,1,53.9999983520508,10|0,0:0|0:0,0:0:0:0:
360,171,85950,2,0,P|379:188|387:214,1,53.9999983520508,2|0,0:0|0:0,0:0:0:0:
271,356,86132,5,4,1:2:0:0:
177,220,86313,1,0,0:0:0:0:
184,205,86495,1,0,0:0:0:0:
198,308,86677,5,2,0:0:0:0:
307,157,86859,2,0,L|359:170,1,53.9999983520508,2|0,0:0|0:0,0:0:0:0:
400,239,87041,2,0,L|452:225,1,53.9999983520508,2|0,0:0|0:0,0:0:0:0:
457,214,87223,1,2,0:0:0:0:
379,68,87404,1,2,0:0:0:0:
396,74,87586,1,8,0:0:0:0:
383,84,87768,1,2,0:0:0:0:
280,9,87950,6,0,P|258:24|249:49,1,53.9999983520508,2|0,0:0|0:0,0:0:0:0:
156,84,88132,2,0,P|158:110|175:131,1,53.9999983520508,2|0,0:0|0:0,0:0:0:0:
168,211,88313,6,0,B|232:226|201:244|272:260,1,107.999996704102,4|2,1:2|0:0,0:0:0:0:
380,219,88677,1,2,0:0:0:0:
264,258,88859,1,2,0:0:0:0:
168,348,89041,6,0,P|163:321|157:295,1,53.9999983520508,2|0,0:0|0:0,0:0:0:0:
63,190,89223,2,0,P|58:216|52:242,1,53.9999983520508,2|0,0:0|0:0,0:0:0:0:
59,256,89404,1,2,0:0:0:0:
190,98,89586,1,2,0:0:0:0:
115,60,89768,1,10,0:0:0:0:
203,94,89950,1,2,0:0:0:0:
154,203,90132,5,10,0:0:0:0:
287,158,90313,1,2,0:0:0:0:
391,20,90495,6,0,P|381:52|374:85,1,67.5000025749208,4|0,1:2|0:0,0:0:0:0:
269,223,90677,2,0,P|279:190|286:157,1,67.5000025749208,2|0,0:0|0:0,0:0:0:0:
267,27,90859,6,0,B|247:3|201:11|201:11|241:11|258:34,1,125.999996154785,12|2,1:2|0:0,0:0:0:0:
267,27,91586,6,0,P|277:59|285:91,1,67.5000025749208,4|0,1:2|0:0,0:0:0:0:
427,186,91768,2,0,P|434:218|445:250,1,67.5000025749208,2|0,0:0|0:0,0:0:0:0:
285,91,91950,6,0,P|277:121|267:151,1,62.9999980773926,6|2,1:2|0:0,0:0:0:0:
266,150,92677,6,0,P|228:160|207:193,1,80.9999975280763,4|0,1:2|0:0,0:0:0:0:
211,364,92859,2,0,P|249:354|270:321,1,80.9999975280763,2|0,0:0|0:0,0:0:0:0:
76,280,93041,6,0,P|57:274|74:291,1,53.9999983520508,4|2,1:2|0:0,0:0:0:0:
76,280,93768,6,0,B|130:266|96:265|159:250,1,80.9999975280763,4|0,1:2|0:0,0:0:0:0:
229,53,93950,2,0,B|175:67|209:68|146:83,1,80.9999975280763,2|0,0:0|0:0,0:0:0:0:
297,197,94132,6,0,P|326:205|354:216,1,45,4|0,1:2|0:0,0:0:0:0:
397,162,94313,6,0,P|412:157|426:156,26,22.5,2|0|2|0|2|0|0|0|2|0|0|0|2|0|0|0|2|0|0|0|2|0|0|0|2|0|0,0:0|0:0|0:0|0:0|0:0|0:0|0:0|0:0|0:0|0:0|0:0|0:0|0:0|0:0|0:0|0:0|0:0|0:0|0:0|0:0|0:0|0:0|0:0|0:0|0:0|0:0|0:0,0:0:0:0:
451,123,95586,6,0,P|461:127|471:131,6,22.5,2|0|2|0|2|2|0,0:0|0:0|0:0|0:0|0:0|0:0|0:0,0:0:0:0:
443,107,95950,5,2,0:0:0:0:
306,124,96132,1,2,0:0:0:0:
375,167,96313,5,2,0:0:0:0:
220,68,96495,1,2,0:0:0:0:
150,101,96677,5,2,0:0:0:0:
233,82,96859,1,2,0:0:0:0:
32,35,97041,5,2,0:0:0:0:
59,118,97223,1,2,0:0:0:0:
126,181,97404,5,2,0:0:0:0:
88,255,97586,1,2,0:0:0:0:
7,286,97768,5,2,0:0:0:0:
16,298,97950,1,2,0:0:0:0:
128,370,98132,6,0,B|167:376|167:376|162:350|162:350|105:362,1,67.5000025749208,4|0,1:2|0:0,0:0:0:0:
115,366,98313,1,2,0:0:0:0:
289,238,98495,2,0,L|268:313,3,72,2|0|2|0,0:0|0:0|0:0|0:0,0:0:0:0:
191,175,99223,5,4,0:2:0:0:
289,238,99404,1,2,0:0:0:0:
357,152,99586,2,0,L|376:221,3,72,2|0|2|0,0:0|0:0|0:0|0:0,0:0:0:0:
187,71,100313,6,0,B|201:90|201:90|264:106,1,72,4|2,0:2|0:0,0:0:0:0:
119,27,100677,2,0,B|90:37|90:37|89:65,3,53.9999983520508,2|0|2|0,0:0|0:0|0:0|0:0,0:0:0:0:
166,188,101404,6,0,L|180:248,1,53.9999983520508,4|2,0:2|0:0,0:0:0:0:
106,308,101768,2,0,L|93:354,3,36,2|0|2|0,0:0|0:0|0:0|0:0,0:0:0:0:
1,148,102495,6,0,P|41:167|85:177,1,90,4|2,0:2|0:0,0:0:0:0:
260,230,102859,2,0,P|302:218|325:181,3,90,4|0|2|0,0:2|0:0|0:0|0:0,0:0:0:0:
149,0,103586,6,0,P|168:40|179:83,1,90,4|2,0:2|0:0,0:0:0:0:
260,230,103950,2,0,P|248:282|229:333,3,107.999996704102,4|0|2|0,0:2|0:0|0:0|0:0,0:0:0:0:
422,100,104677,6,0,P|392:57|340:56,1,107.999996704102,4|2,0:2|0:0,0:0:0:0:
146,216,105041,2,0,P|76:238|6:237,3,135.000005149842,4|0|2|0,0:2|0:0|0:0|0:0,0:0:0:0:
159,72,105768,6,0,P|224:75|263:128,1,135.000005149842,4|2,0:2|0:0,0:0:0:0:
453,242,106132,2,0,P|377:256|355:330,3,161.999995056153,4|0|2|0,0:2|0:0|0:0|0:0,0:0:0:0:
499,147,106859,6,0,L|484:91,1,53.9999983520508,4|2,1:2|0:0,0:0:0:0:
429,46,107041,2,0,L|435:19,9,26.9999991760254,2|2|2|2|2|2|2|2|2|2,0:0|0:0|0:0|0:0|0:0|0:0|0:0|0:0|0:0|0:0,0:0:0:0:
324,195,107950,6,0,L|306:129,1,67.5000025749208,4|2,1:2|0:0,0:0:0:0:
353,41,108132,2,0,L|359:14,9,26.9999991760254,2|2|2|2|2|2|2|2|2|2,0:0|0:0|0:0|0:0|0:0|0:0|0:0|0:0|0:0|0:0,0:0:0:0:
242,220,109041,6,0,L|221:141,1,80.9999975280763,4|2,1:2|0:0,0:0:0:0:
263,54,109223,2,0,L|269:27,9,26.9999991760254,2|2|2|2|2|2|2|2|2|2,0:0|0:0|0:0|0:0|0:0|0:0|0:0|0:0|0:0|0:0,0:0:0:0:
156,248,110132,6,0,L|132:161,1,90,4|2,1:2|0:0,0:0:0:0:
177,50,110313,2,0,L|183:23,10,26.9999991760254,2|2|2|2|2|2|2|2|2|2|2,0:0|0:0|0:0|0:0|0:0|0:0|0:0|0:0|0:0|0:0|0:0,0:0:0:0:
