osu file format v14

[General]
AudioFilename: audio.ogg
AudioLeadIn: 0
PreviewTime: 23573
Countdown: 0
SampleSet: Soft
StackLeniency: 0.3
Mode: 0
LetterboxInBreaks: 0
WidescreenStoryboard: 1

[Editor]
Bookmarks: 346,22164,23618,33800,35255,45436,46891,58527,70164,75223,83950,98132,106859,111223
DistanceSpacing: 0.9
BeatDivisor: 4
GridSize: 32
TimelineZoom: 1.7

[Metadata]
Title:A Dramatic Irony
TitleUnicode:ドラマティック・アイロニー
Artist:HOYO-MiX
ArtistUnicode:HOYO-MiX
Creator:Nytrocide_
Version:Caressing Moonlight: Normal
Source:Honkai: Star Rail
Tags:nytro ganyumymommy nyarvis heyimjarvis jarvis angela merkel angela_merkel -envy- envy nv kafka trailer hsr カフカ キャラクターpv 伊藤静 崩壊:スターレイル 卡芙卡 戲劇性反諷 崩坏星穹铁道 카프카 드라마틱 아이러니 붕괴: 스타레일 mihoyo hoyoverse antonio vivaldi four seasons winter summer instrumental video game vgm electronic classical hoyomix alice
BeatmapID:4386008
BeatmapSetID:2092342

[Difficulty]
HPDrainRate:4
CircleSize:3.6
OverallDifficulty:5
ApproachRate:5.4
SliderMultiplier:1.3
SliderTickRate:1

[Events]
//Background and Video events
Video,-1635,"video.avi"
0,0,"the pogging.jpg",0,0
//Break Periods
2,70364,74084
2,94495,96993
//Storyboard Layer 0 (Background)
//Storyboard Layer 1 (Fail)
//Storyboard Layer 2 (Pass)
//Storyboard Layer 3 (Foreground)
//Storyboard Layer 4 (Overlay)
//Storyboard Sound Samples

[TimingPoints]
346,363.636364,4,2,1,40,1,0
346,-111.111111111111,4,2,1,40,0,0
22164,-111.111111111111,4,2,1,60,0,0
23618,-111.111111111111,4,2,1,65,0,0
23755,-111.111111111111,4,2,1,5,0,0
23800,-111.111111111111,4,2,1,65,0,0
24118,-111.111111111111,4,2,1,5,0,0
24163,-111.111111111111,4,2,1,65,0,0
24482,-111.111111111111,4,2,1,5,0,0
24527,-111.111111111111,4,2,1,65,0,0
24846,-111.111111111111,4,2,1,5,0,0
24891,-111.111111111111,4,2,1,65,0,0
26664,-111.111111111111,4,2,1,5,0,0
26709,-111.111111111111,4,2,1,65,0,0
27027,-111.111111111111,4,2,1,5,0,0
27072,-111.111111111111,4,2,1,65,0,0
27391,-111.111111111111,4,2,1,5,0,0
27436,-111.111111111111,4,2,1,65,0,0
27755,-111.111111111111,4,2,1,5,0,0
27800,-111.111111111111,4,2,1,65,0,0
29573,-111.111111111111,4,2,1,5,0,0
29618,-111.111111111111,4,2,1,65,0,0
29936,-111.111111111111,4,2,1,5,0,0
29981,-111.111111111111,4,2,1,65,0,0
30300,-111.111111111111,4,2,1,5,0,0
30345,-111.111111111111,4,2,1,65,0,0
30664,-111.111111111111,4,2,1,5,0,0
30709,-111.111111111111,4,2,1,65,0,0
33800,-111.111111111111,4,2,1,65,0,0
35255,-105.263157894737,4,2,1,70,0,0
41073,-105.263157894737,4,2,1,75,0,0
43982,-105.263157894737,4,2,1,80,0,0
45436,-105.263157894737,4,2,1,80,0,0
46891,-100,4,2,1,90,0,0
47209,-100,4,2,1,5,0,0
47255,-100,4,2,1,90,0,0
49027,-100,4,2,1,5,0,0
49073,-100,4,2,1,90,0,0
50664,-100,4,2,1,5,0,0
50709,-100,4,2,1,90,0,0
52846,-100,4,2,1,5,0,0
52891,-100,4,2,1,90,0,0
55936,-100,4,2,1,5,0,0
55982,-100,4,2,1,90,0,0
58527,-100,4,2,1,90,0,0
58846,-100,4,2,1,5,0,0
58891,-100,4,2,1,90,0,0
59209,-100,4,2,1,5,0,0
59255,-100,4,2,1,90,0,0
61027,-100,4,2,1,5,0,0
61073,-100,4,2,1,90,0,0
61755,-100,4,2,1,5,0,0
61800,-100,4,2,1,90,0,0
63209,-100,4,2,1,5,0,0
63255,-100,4,2,1,90,0,0
64346,-100,4,2,2,80,0,0
64709,-100,4,2,2,80,0,0
65073,-100,4,2,2,80,0,0
67255,-100,4,2,1,80,0,0
70164,374.957817,4,2,1,70,1,0
70164,-133.333333333333,4,2,1,70,0,0
70539,386.311689,4,2,1,68,1,8
70539,-133.333333333333,4,2,1,68,0,0
70925,387.624444,4,2,1,66,1,8
70925,-133.333333333333,4,2,1,66,0,0
71313,388.97893,4,2,1,64,1,8
71313,-133.333333333333,4,2,1,64,0,0
71702,427.624546,4,2,1,64,1,0
71702,-133.333333333333,4,2,1,64,0,0
72129,472.582347,4,2,1,62,1,8
72129,-133.333333333333,4,2,1,62,0,0
72366,584.624379,4,2,1,60,1,8
72366,-133.333333333333,4,2,1,60,0,0
72658,775.000549,4,2,1,58,1,8
72658,-133.333333333333,4,2,1,58,0,0
73062,783.913059,4,2,1,57,1,8
73062,-133.333333333333,4,2,1,57,0,0
73437,1102.916847,4,2,1,56,1,8
73437,-133.333333333333,4,2,1,56,0,8
73713,1105.583195,4,2,1,55,1,8
73713,-133.333333333333,4,2,1,55,0,8
73989,1837.83552,4,2,1,55,1,8
73989,-133.333333333333,4,2,1,55,0,8
74449,3097.077907,4,2,1,55,1,8
74449,-133.333333333333,4,2,1,55,0,8
75223,363.636364,3,2,1,70,1,0
75223,-105.263157894737,3,2,1,70,0,0
79586,-105.263157894737,3,2,1,75,0,0
81768,-105.263157894737,3,2,1,80,0,0
83950,-100,3,2,1,90,0,0
84632,-100,3,2,1,5,0,0
84677,-100,3,2,1,90,0,0
86813,-100,3,2,1,5,0,0
86859,-100,3,2,1,90,0,0
88995,-100,3,2,1,5,0,0
89041,-100,3,2,1,90,0,0
94132,-100,3,2,1,90,0,0
94495,-100,3,2,1,70,0,0
95404,-100,3,2,1,72,0,0
95495,-100,3,2,1,75,0,0
95586,-100,3,2,1,77,0,0
95677,-100,3,2,1,80,0,0
95768,-100,3,2,1,82,0,0
95859,-100,3,2,1,85,0,0
95950,-100,3,2,1,75,0,0
96677,-100,3,2,1,72,0,0
97041,-100,3,2,1,70,0,0
97404,-100,3,2,1,67,0,0
97768,-100,3,2,1,65,0,0
98132,-111.111111111111,3,2,1,80,0,0
102495,-111.111111111111,3,2,1,82,0,0
104677,-111.111111111111,3,2,1,85,0,0
106859,-105.263157894737,3,2,1,80,0,0
107950,-105.263157894737,3,2,1,82,0,0
109041,-105.263157894737,3,2,1,85,0,0
110132,-105.263157894737,3,2,1,87,0,0
111223,-1000,3,2,1,50,0,0

[Colours]
Combo1 : 98,79,123
Combo2 : 190,65,121
Combo3 : 168,159,181
Combo4 : 174,152,220

[HitObjects]
256,192,17800,12,2,22164,0:0:0:0:
168,275,23618,6,0,B|232:291|204:317|276:334,1,116.999996429443,4|2,1:2|0:0,0:0:0:0:
317,315,24164,1,2,0:0:0:0:
317,315,24346,2,0,L|341:196,1,116.999996429443,2|2,0:0|0:0,0:0:0:0:
265,125,25073,1,2,0:0:0:0:
265,125,26527,6,0,P|209:110|216:47,1,116.999996429443,4|2,1:2|0:0,0:0:0:0:
243,21,27073,1,2,0:0:0:0:
243,21,27255,2,0,B|296:12|296:12|301:15|301:15|357:6,1,116.999996429443,2|2,0:0|0:0,0:0:0:0:
448,61,27982,1,2,0:0:0:0:
448,61,29436,6,0,P|431:100|412:176,1,116.999996429443,4|8,1:2|0:3,0:0:0:0:
436,225,29982,1,2,0:0:0:0:
436,225,30164,2,0,P|469:231|487:270,2,58.4999982147217,0|2|2,3:0|3:0|0:0,0:0:0:0:
357,295,30891,1,0,3:2:0:0:
357,295,32346,6,0,L|287:309,1,58.4999982147217,2|2,0:0|3:2,0:0:0:0:
250,286,32709,1,2,0:0:0:0:
193,375,33073,2,0,L|123:361,1,58.4999982147217,2|2,0:0|0:0,0:0:0:0:
86,384,33436,1,2,0:0:0:0:
0,324,33800,1,2,0:0:0:0:
0,324,35255,6,0,P|-12:294|50:240,1,123.499996702194,4|8,1:0|0:3,0:0:0:0:
88,203,35800,1,2,0:3:0:0:
88,203,35982,2,0,L|157:223,2,61.7499983510972,2|2|8,3:0|0:3|0:3,0:0:0:0:
17,117,36709,2,0,P|-1:34|-14:-4,2,123.499996702194,0|8|0,0:0|0:0|0:0,0:0:0:0:
88,203,37800,1,2,0:3:0:0:
186,150,38164,6,0,B|252:163|252:163|254:167|254:167|323:181,1,123.499996702194,4|2,1:0|3:0,0:0:0:0:
357,153,38709,1,2,0:0:0:0:
357,153,38891,2,0,P|373:111|315:64,1,123.499996702194,2|8,0:0|0:0,0:0:0:0:
290,24,39436,1,0,3:0:0:0:
290,24,39618,2,0,P|256:14|247:-19,2,61.7499983510972,2|0|8,0:0|3:0|0:3,0:0:0:0:
229,117,40346,2,0,P|199:122|185:149,2,61.7499983510972,2|2|0,0:0|0:0|3:0,0:0:0:0:
270,225,41073,5,4,1:2:0:0:
270,225,41255,1,0,0:0:0:0:
233,267,41436,2,0,L|248:348,1,61.7499983510972
289,361,41800,2,0,L|410:383,1,123.499996702194,0|0,1:0|0:0,0:0:0:0:
491,306,42527,6,0,B|472:236|439:279|422:201,1,123.499996702194,4|0,1:2|0:0,0:0:0:0:
450,160,43073,1,0,0:0:0:0:
450,160,43255,2,0,P|486:137|492:105,1,61.7499983510972,0|0,1:0|0:0,0:0:0:0:
469,69,43618,2,0,L|397:52,1,61.7499983510972
373,11,43982,5,4,1:2:0:0:
288,83,44346,1,6,1:2:0:0:
180,53,44709,1,6,1:2:0:0:
131,152,45073,2,0,B|127:157|127:157|152:225,2,61.7499983510972,6|8|2,1:2|0:0|0:0,0:0:0:0:
131,152,46891,6,0,P|177:158|182:240,1,130,4|2,1:0|0:3,0:0:0:0:
148,270,47436,1,0,1:0:0:0:
148,270,47618,2,0,L|77:254,2,65,8|2|4,0:1|0:3|1:2,0:0:0:0:
222,361,48346,2,0,B|285:344|285:344|287:336|287:336|351:318,1,130,2|0,0:3|1:0,0:0:0:0:
398,352,48891,1,2,0:3:0:0:
398,352,49073,2,0,P|428:357|446:385,2,65,8|2|2,0:1|0:3|0:3,0:0:0:0:
425,238,49800,6,0,B|435:167|437:208|452:107,1,130,4|2,1:2|0:3,0:0:0:0:
497,73,50346,1,2,1:3:0:0:
497,73,50527,2,0,P|497:39|410:22,1,130,8|4,0:1|1:2,0:0:0:0:
308,47,51255,1,2,3:3:0:0:
308,47,51436,2,0,P|247:47|229:105,1,130,0|0,3:3|1:2,0:0:0:0:
270,147,51982,2,0,P|300:164|309:197,2,65,8|4|10,0:1|1:2|0:1,0:0:0:0:
193,236,52709,5,4,1:0:0:0:
193,236,52891,2,0,B|160:265|160:265|65:253,1,130,2|2,0:3|1:3,0:0:0:0:
35,211,53436,1,8,0:1:0:0:
108,118,53800,2,0,P|131:96|127:61,1,65,6|2,1:3|0:3,0:0:0:0:
83,28,54164,2,0,L|17:45,2,65,2|2|4,0:3|0:3|1:3,0:0:0:0:
199,0,54891,5,8,0:1:0:0:
199,0,55073,1,6,1:3:0:0:
233,48,55255,2,0,L|299:65,1,65,2|2,0:3|0:3,0:0:0:0:
343,30,55618,2,0,B|429:10|429:10|466:41,1,130,4|4,1:3|1:3,0:0:0:0:
473,99,56164,1,2,0:3:0:0:
473,99,56346,1,8,0:1:0:0:
397,187,56709,6,0,P|366:187|337:218,2,65,6|2|2,1:3|0:3|0:3,0:0:0:0:
436,224,57255,1,2,0:3:0:0:
436,224,57436,2,0,L|447:300,1,65,6|4,0:3|1:3,0:0:0:0:
414,338,57800,1,8,1:0:0:0:
414,338,58527,6,0,B|335:357|369:356|289:375,1,130,4|2,1:0|0:3,0:0:0:0:
186,318,59255,2,0,B|146:327|163:327|123:336,2,65,8|2|2,0:1|0:3|0:3,0:0:0:0:
216,269,59800,1,2,0:3:0:0:
216,269,59982,2,0,P|195:227|249:164,2,130,4|2|8,1:2|1:3|0:1,0:0:0:0:
333,274,61073,2,0,L|347:193,1,65,2|2,0:3|0:3,0:0:0:0:
386,169,61436,6,0,B|369:101|369:101|365:100|365:100|349:34,1,130,4|2,1:2|1:3,0:0:0:0:
311,11,61982,1,2,0:3:0:0:
311,11,62164,2,0,B|277:19|277:19|276:21|276:21|243:29,1,65,8|2,0:1|0:3,0:0:0:0:
208,70,62527,2,0,B|180:63|180:63|180:61|180:61|146:52,1,65,2|2,0:3|1:3,0:0:0:0:
115,3,62891,1,4,0:2:0:0:
22,74,63255,2,0,P|10:121|73:159,2,130,2|8|2,1:3|0:1|1:3,0:0:0:0:
115,3,64346,6,0,L|251:37,2,130,4|2|10,1:0|0:0|0:0,0:0:0:0:
280,167,65800,6,0,L|144:201,2,130,2|2|10,0:3|0:3|0:0,0:0:0:0:
115,331,67255,5,6,0:0:0:0:
256,192,67436,12,0,70164,0:0:0:0:
115,331,75223,5,4,1:0:0:0:
364,110,76313,5,2,1:3:0:0:
49,5,77404,5,2,1:3:0:0:
115,331,78494,5,2,1:3:0:0:
256,192,79586,12,4,82859,0:0:0:0:
309,384,83950,6,0,B|295:319|269:353|256:264,1,130,4|0,1:2|0:0,0:0:0:0:
298,226,84495,1,2,0:0:0:0:
298,226,84677,2,0,L|365:241,1,65,2|2,0:0|0:0,0:0:0:0:
415,217,85041,2,0,B|429:152|455:186|468:97,1,130,2|8,0:0|0:0,0:0:0:0:
366,41,85768,6,0,P|358:21|299:17,1,65,10|2,0:0|0:0,0:0:0:0:
267,29,86132,1,4,1:2:0:0:
267,29,86313,1,0,0:0:0:0:
158,0,86677,5,2,0:0:0:0:
158,0,86859,2,0,L|142:73,1,65,2|2,0:0|0:0,0:0:0:0:
93,94,87223,2,0,P|52:99|32:179,1,130,2|8,0:0|0:0,0:0:0:0:
72,222,87768,1,2,0:0:0:0:
72,222,87950,1,2,0:0:0:0:
184,188,88313,6,0,B|241:202|241:202|250:193|250:193|316:212,1,130,4|2,1:2|0:0,0:0:0:0:
345,259,88859,1,2,0:0:0:0:
345,259,89041,2,0,L|323:325,1,65,2|2,0:0|0:0,0:0:0:0:
357,369,89404,2,0,B|414:355|414:355|423:364|423:364|489:345,1,130,2|10,0:0|0:0,0:0:0:0:
512,238,90132,5,10,0:0:0:0:
512,238,90313,1,2,0:0:0:0:
469,198,90495,2,0,P|466:174|502:136,2,65,4|2|12,1:2|0:0|1:2,0:0:0:0:
264,83,91586,6,0,P|249:63|261:12,2,65,4|2|6,1:2|0:0|1:2,0:0:0:0:
75,172,92677,6,0,P|52:162|37:112,2,65,4|2|4,1:2|0:0|1:2,0:0:0:0:
41,351,93768,6,0,P|17:354|-20:318,2,65,4|2|4,1:2|0:0|1:2,0:0:0:0:
41,351,98132,6,0,B|110:334|80:332|168:313,1,116.999996429443,4|2,1:2|0:0,0:0:0:0:
186,277,98677,1,0,0:0:0:0:
186,277,98859,2,0,L|171:212,1,58.4999982147217,2|0,0:0|0:0,0:0:0:0:
131,186,99223,2,0,L|149:64,1,116.999996429443,4|2,0:2|0:0,0:0:0:0:
186,34,99768,1,0,0:0:0:0:
186,34,99950,1,2,0:0:0:0:
280,80,100313,6,0,B|352:64|322:62|391:45,1,116.999996429443,4|2,0:2|0:0,0:0:0:0:
430,9,100859,1,0,0:0:0:0:
430,9,101041,2,0,L|495:27,1,58.4999982147217,2|0,0:0|0:0,0:0:0:0:
512,70,101404,2,0,P|531:114|465:160,1,116.999996429443,4|2,0:2|0:0,0:0:0:0:
384,145,102132,1,2,0:0:0:0:
322,230,102495,6,0,P|348:275|367:346,1,116.999996429443,4|4,0:2|0:2,0:0:0:0:
339,384,103041,1,0,0:0:0:0:
339,384,103223,2,0,L|273:371,1,58.4999982147217,2|0,0:0|0:0,0:0:0:0:
244,335,103586,2,0,B|192:325|192:325|190:321|190:321|114:305,1,116.999996429443,4|4,0:2|0:2,0:0:0:0:
86,333,104132,1,0,0:0:0:0:
86,333,104313,1,2,0:0:0:0:
28,244,104677,6,0,P|54:199|73:128,1,116.999996429443,4|4,0:2|0:2,0:0:0:0:
42,98,105223,1,0,0:0:0:0:
42,98,105405,2,0,L|22:21,1,58.4999982147217,2|0,0:0|0:0,0:0:0:0:
60,0,105768,2,0,B|64:-3|64:-3|185:25,1,116.999996429443,4|4,0:2|0:2,0:0:0:0:
230,110,106495,1,2,0:0:0:0:
335,75,106859,5,4,1:2:0:0:
256,192,107041,12,0,111223,0:0:0:0:
