osu file format v14

[General]
AudioFilename: audio.mp3
AudioLeadIn: 0
PreviewTime: 70448
Countdown: 0
SampleSet: None
StackLeniency: 0.7
Mode: 3
LetterboxInBreaks: 0
SpecialStyle: 0
WidescreenStoryboard: 1

[Editor]
DistanceSpacing: 1
BeatDivisor: 4
GridSize: 4
TimelineZoom: 1.900001

[Metadata]
Title:Monodrama
TitleUnicode:Monodrama
Artist:HOYO-MIX
ArtistUnicode:HOYO-MIX
Creator:Starpage
Version:I am Elation
Source:Honkai: Star Rail
Tags:trailer mihoyo hoyoverse hsr psy psychadelic schizo tech aknazar
BeatmapID:4584383
BeatmapSetID:2143994

[Difficulty]
HPDrainRate:8
CircleSize:4
OverallDifficulty:9
ApproachRate:5
SliderMultiplier:1.4
SliderTickRate:1

[Events]
//Background and Video events
0,0,"__sparkle_honkai_and_1_more_drawn_by_sanshoku_dango_ahxf3842__dd4f390f49c9a44d9452ca0315ed3d17.jpg",0,0
//Break Periods
//Storyboard Layer 0 (Background)
//Storyboard Layer 1 (Fail)
//Storyboard Layer 2 (Pass)
//Storyboard Layer 3 (Foreground)
//Storyboard Layer 4 (Overlay)
//Storyboard Sound Samples

[TimingPoints]
614,324.324324324324,4,2,0,30,1,0
7750,324.324324324324,4,2,0,30,1,0
64831,324.324324324324,4,2,0,30,1,0
65479,693.64161849711,4,2,0,30,1,0
65479,-46.9483568075117,4,2,0,30,0,0
65825,727.272727272727,4,2,0,30,1,0
65825,-44.6428571428571,4,2,0,30,0,0
66006,745.341614906832,4,2,0,30,1,0
66006,-43.6681222707424,4,2,0,30,0,0
66099,727.272727272727,4,2,0,30,1,0
66099,-44.6428571428571,4,2,0,30,0,0
66280,710.059171597633,4,2,0,30,1,0
66280,-45.8715596330275,4,2,0,30,0,0
66990,727.272727272727,4,2,0,30,1,0
66990,-44.6428571428571,4,2,0,30,0,0
67171,784.313725490196,4,2,0,30,1,0
67171,-41.49377593361,4,2,0,30,0,0
67367,710.059171597633,4,2,0,30,1,0
67367,-45.8715596330275,4,2,0,30,0,0
67455,745.341614906832,4,2,0,30,1,0
67455,-43.6681222707424,4,2,0,30,0,0
67579,727.272727272727,4,2,0,30,1,0
67579,-44.6428571428571,4,2,0,30,0,0
67942,745.341614906832,4,2,0,30,1,0
67942,-43.6681222707424,4,2,0,30,0,0
68128,745.341614906832,4,2,0,30,1,0
68128,-43.6681222707424,4,2,0,30,0,0
68252,710.059171597633,4,2,0,30,1,0
68252,-45.8715596330275,4,2,0,30,0,0
68370,662.983425414364,4,2,0,30,1,0
68370,-49.0196078431373,4,2,0,30,0,0
68480,693.641618497109,4,2,0,30,1,0
68480,-46.9483568075117,4,2,0,30,0,0
68711,621.761658031088,4,2,0,30,1,0
68711,-52.3560209424084,4,2,0,30,0,0
68814,574.162679425837,4,2,0,30,1,0
68814,-56.4971751412429,4,2,0,30,0,0
68909,489.795918367346,4,2,0,30,1,0
68909,-66.2251655629139,4,2,0,30,0,0
68990,452.830188679244,4,2,0,30,1,0
68990,-71.9424460431655,4,2,0,30,0,0
69291,364.741641337385,4,2,0,30,1,0
69291,-89.2857142857143,4,2,0,30,0,0
69655,305.343511450381,4,2,0,30,1,0
69655,-106.382978723404,4,2,0,30,0,0
69960,816.326530612245,4,2,0,30,1,0
69960,-39.8406374501992,4,2,0,30,0,0
70368,816.326530612245,4,2,0,30,1,0
70368,-39.8406374501992,4,2,0,30,0,0
70572,727.272727272727,4,2,0,30,1,0
70572,-44.6428571428571,4,2,0,30,0,0
70753,387.096774193548,4,2,0,30,1,0
70753,-84.0336134453781,4,2,0,30,0,0
97075,774.193548387096,4,2,0,30,1,0
97075,-42.0168067226891,4,2,0,30,0,0
98913,670.391061452513,4,2,0,30,1,0
98913,-48.5436893203883,4,2,0,30,0,0
99080,670.391061452513,4,2,0,30,1,0
99080,-48.5436893203883,4,2,0,30,0,0
99191,324.324324324324,4,2,0,30,1,0
99353,745.341614906831,4,2,0,30,1,0
99353,-43.6681222707424,4,2,0,30,0,0
99632,805.369127516777,4,2,0,30,1,0
99632,-40.3225806451613,4,2,0,30,0,0
99934,710.059171597632,4,2,0,30,1,0
99934,-45.8715596330275,4,2,0,30,0,0
100644,609.137055837562,4,2,0,30,1,0
100644,-53.475935828877,4,2,0,30,0,0
100796,621.761658031087,4,2,0,30,1,0
100796,-52.3560209424084,4,2,0,30,0,0
101521,774.193548387096,4,2,0,30,1,0
101521,-42.0168067226891,4,2,0,30,0,0
101714,774.193548387096,4,2,0,30,1,0
101714,-42.0168067226891,4,2,0,30,0,0

[HitObjects]
448,192,7100,5,0,0:0:0:0:
64,192,7100,1,0,0:0:0:0:
192,192,7424,1,0,0:0:0:0:
320,192,7424,1,0,0:0:0:0:
64,192,7750,1,0,0:0:0:0:
192,192,7750,1,0,0:0:0:0:
320,192,7750,1,0,0:0:0:0:
448,192,7750,1,0,0:0:0:0:
64,192,8074,1,0,0:0:0:0:
192,192,8128,1,0,0:0:0:0:
320,192,8182,1,0,0:0:0:0:
192,192,8398,1,0,0:0:0:0:
320,192,8452,1,0,0:0:0:0:
448,192,8506,1,0,0:0:0:0:
64,192,8560,1,0,0:0:0:0:
192,192,8614,1,0,0:0:0:0:
320,192,8668,1,0,0:0:0:0:
448,192,8722,1,0,0:0:0:0:
64,192,8777,1,0,0:0:0:0:
192,192,8831,1,0,0:0:0:0:
320,192,8885,1,0,0:0:0:0:
64,192,8939,1,0,0:0:0:0:
192,192,8993,1,0,0:0:0:0:
448,192,9047,1,0,0:0:0:0:
320,192,9101,1,0,0:0:0:0:
192,192,9155,1,0,0:0:0:0:
64,192,9209,1,0,0:0:0:0:
64,192,9371,1,0,0:0:0:0:
192,192,9425,1,0,0:0:0:0:
320,192,9479,1,0,0:0:0:0:
64,192,9695,1,0,0:0:0:0:
448,192,9695,1,0,0:0:0:0:
448,192,10020,1,0,0:0:0:0:
448,192,10344,1,0,0:0:0:0:
64,192,10344,1,0,0:0:0:0:
192,192,10668,1,0,0:0:0:0:
320,192,10722,1,0,0:0:0:0:
448,192,10777,1,0,0:0:0:0:
320,192,10993,1,0,0:0:0:0:
192,192,11047,1,0,0:0:0:0:
64,192,11101,1,0,0:0:0:0:
448,192,11155,1,0,0:0:0:0:
320,192,11209,1,0,0:0:0:0:
192,192,11263,1,0,0:0:0:0:
64,192,11317,1,0,0:0:0:0:
448,192,11371,1,0,0:0:0:0:
320,192,11425,1,0,0:0:0:0:
192,192,11479,1,0,0:0:0:0:
448,192,11533,1,0,0:0:0:0:
320,192,11587,1,0,0:0:0:0:
64,192,11641,1,0,0:0:0:0:
192,192,11695,1,0,0:0:0:0:
320,192,11749,1,0,0:0:0:0:
448,192,11804,1,0,0:0:0:0:
320,192,11966,1,0,0:0:0:0:
192,192,12020,1,0,0:0:0:0:
64,192,12074,1,0,0:0:0:0:
448,192,12290,1,0,0:0:0:0:
64,192,12290,1,0,0:0:0:0:
320,192,12344,1,0,0:0:0:0:
192,192,12398,1,0,0:0:0:0:
448,192,12452,1,0,0:0:0:0:
320,192,12452,1,0,0:0:0:0:
64,192,12452,1,0,0:0:0:0:
320,192,12614,1,0,0:0:0:0:
448,192,12614,1,0,0:0:0:0:
64,192,12614,1,0,0:0:0:0:
320,192,12777,1,0,0:0:0:0:
448,192,12777,1,0,0:0:0:0:
64,192,12777,1,0,0:0:0:0:
64,192,12939,1,0,0:0:0:0:
192,192,12939,1,0,0:0:0:0:
320,192,12939,1,0,0:0:0:0:
448,192,12939,1,0,0:0:0:0:
64,192,13263,1,0,0:0:0:0:
448,192,13263,1,0,0:0:0:0:
192,192,13317,1,0,0:0:0:0:
320,192,13371,1,0,0:0:0:0:
448,192,13587,1,0,0:0:0:0:
320,192,13587,1,0,0:0:0:0:
192,192,13641,1,0,0:0:0:0:
64,192,13695,1,0,0:0:0:0:
448,192,13749,1,0,0:0:0:0:
320,192,13804,1,0,0:0:0:0:
192,192,13858,1,0,0:0:0:0:
64,192,13912,1,0,0:0:0:0:
448,192,13912,1,0,0:0:0:0:
320,192,13966,1,0,0:0:0:0:
192,192,14020,1,0,0:0:0:0:
448,192,14074,1,0,0:0:0:0:
320,192,14128,1,0,0:0:0:0:
192,192,14182,1,0,0:0:0:0:
64,192,14236,1,0,0:0:0:0:
448,192,14236,1,0,0:0:0:0:
192,192,14290,1,0,0:0:0:0:
320,192,14344,1,0,0:0:0:0:
448,192,14398,1,0,0:0:0:0:
64,192,14560,1,0,0:0:0:0:
448,192,14560,1,0,0:0:0:0:
320,192,14614,1,0,0:0:0:0:
192,192,14668,1,0,0:0:0:0:
448,192,14885,1,0,0:0:0:0:
320,192,14925,1,0,0:0:0:0:
64,192,14966,1,0,0:0:0:0:
192,192,15006,1,0,0:0:0:0:
448,192,15047,1,0,0:0:0:0:
320,192,15087,1,0,0:0:0:0:
448,192,15209,128,0,15290:0:0:0:0:
320,192,15209,128,0,15331:0:0:0:0:
64,192,15209,128,0,15317:0:0:0:0:
64,192,15371,128,0,15452:0:0:0:0:
448,192,15371,1,0,0:0:0:0:
320,192,15412,1,0,0:0:0:0:
192,192,15452,1,0,0:0:0:0:
64,192,15493,1,0,0:0:0:0:
448,192,15533,128,0,15695:0:0:0:0:
320,192,15533,128,0,15655:0:0:0:0:
64,192,15858,128,0,16020:0:0:0:0:
320,192,15858,128,0,15939:0:0:0:0:
448,192,15858,128,0,15979:0:0:0:0:
448,192,16182,128,0,16263:0:0:0:0:
320,192,16222,128,0,16304:0:0:0:0:
64,192,16263,128,0,16344:0:0:0:0:
192,192,16304,128,0,16385:0:0:0:0:
64,192,16506,128,0,16628:0:0:0:0:
448,192,16506,128,0,16668:0:0:0:0:
320,192,16506,128,0,16587:0:0:0:0:
192,192,16831,128,0,16912:0:0:0:0:
320,192,16831,128,0,16952:0:0:0:0:
64,192,16831,128,0,16993:0:0:0:0:
320,192,17155,128,0,17236:0:0:0:0:
448,192,17155,128,0,17317:0:0:0:0:
192,192,17155,128,0,17277:0:0:0:0:
64,192,17479,128,0,17601:0:0:0:0:
192,192,17479,128,0,17601:0:0:0:0:
448,192,17479,128,0,17601:0:0:0:0:
448,192,17641,128,0,17763:0:0:0:0:
64,192,17641,128,0,17763:0:0:0:0:
448,192,17804,128,0,17925:0:0:0:0:
64,192,17804,128,0,17925:0:0:0:0:
448,192,17966,128,0,18087:0:0:0:0:
64,192,17966,128,0,18087:0:0:0:0:
64,192,18128,1,0,0:0:0:0:
320,192,18128,1,0,0:0:0:0:
448,192,18128,1,0,0:0:0:0:
192,192,18128,1,0,0:0:0:0:
320,192,18452,1,0,0:0:0:0:
448,192,18452,1,0,0:0:0:0:
192,192,18506,1,0,0:0:0:0:
64,192,18560,1,0,0:0:0:0:
64,192,18777,1,0,0:0:0:0:
192,192,18777,1,0,0:0:0:0:
320,192,18831,1,0,0:0:0:0:
448,192,18885,1,0,0:0:0:0:
192,192,18939,1,0,0:0:0:0:
320,192,18993,1,0,0:0:0:0:
64,192,19047,1,0,0:0:0:0:
192,192,19101,1,0,0:0:0:0:
320,192,19155,1,0,0:0:0:0:
448,192,19209,1,0,0:0:0:0:
192,192,19263,1,0,0:0:0:0:
64,192,19317,1,0,0:0:0:0:
320,192,19371,1,0,0:0:0:0:
192,192,19425,1,0,0:0:0:0:
448,192,19479,1,0,0:0:0:0:
320,192,19533,1,0,0:0:0:0:
192,192,19587,1,0,0:0:0:0:
64,192,19641,1,0,0:0:0:0:
320,192,19695,1,0,0:0:0:0:
448,192,19749,1,0,0:0:0:0:
192,192,19804,1,0,0:0:0:0:
320,192,19858,1,0,0:0:0:0:
64,192,19912,1,0,0:0:0:0:
192,192,19966,1,0,0:0:0:0:
320,192,20020,1,0,0:0:0:0:
448,192,20074,1,0,0:0:0:0:
192,192,20114,1,0,0:0:0:0:
64,192,20155,1,0,0:0:0:0:
320,192,20195,1,0,0:0:0:0:
192,192,20236,1,0,0:0:0:0:
448,192,20277,1,0,0:0:0:0:
320,192,20317,1,0,0:0:0:0:
192,192,20358,1,0,0:0:0:0:
64,192,20398,1,0,0:0:0:0:
320,192,20439,1,0,0:0:0:0:
192,192,20479,1,0,0:0:0:0:
448,192,20520,1,0,0:0:0:0:
320,192,20560,1,0,0:0:0:0:
448,192,20722,1,0,0:0:0:0:
64,192,20722,1,0,0:0:0:0:
64,192,21047,1,0,0:0:0:0:
192,192,21047,1,0,0:0:0:0:
320,192,21101,1,0,0:0:0:0:
448,192,21155,1,0,0:0:0:0:
448,192,21371,1,0,0:0:0:0:
320,192,21371,1,0,0:0:0:0:
192,192,21425,1,0,0:0:0:0:
64,192,21479,1,0,0:0:0:0:
320,192,21533,1,0,0:0:0:0:
192,192,21587,1,0,0:0:0:0:
448,192,21641,1,0,0:0:0:0:
320,192,21695,1,0,0:0:0:0:
192,192,21749,1,0,0:0:0:0:
64,192,21804,1,0,0:0:0:0:
320,192,21858,1,0,0:0:0:0:
448,192,21912,1,0,0:0:0:0:
192,192,21966,1,0,0:0:0:0:
320,192,22020,1,0,0:0:0:0:
64,192,22074,1,0,0:0:0:0:
192,192,22128,1,0,0:0:0:0:
320,192,22182,1,0,0:0:0:0:
448,192,22236,1,0,0:0:0:0:
192,192,22290,1,0,0:0:0:0:
64,192,22344,1,0,0:0:0:0:
320,192,22398,1,0,0:0:0:0:
192,192,22452,1,0,0:0:0:0:
448,192,22506,1,0,0:0:0:0:
320,192,22560,1,0,0:0:0:0:
192,192,22614,1,0,0:0:0:0:
64,192,22668,1,0,0:0:0:0:
320,192,22709,1,0,0:0:0:0:
448,192,22749,1,0,0:0:0:0:
192,192,22790,1,0,0:0:0:0:
320,192,22831,1,0,0:0:0:0:
64,192,22871,1,0,0:0:0:0:
192,192,22912,1,0,0:0:0:0:
320,192,22952,1,0,0:0:0:0:
448,192,22993,1,0,0:0:0:0:
192,192,23033,1,0,0:0:0:0:
64,192,23074,1,0,0:0:0:0:
320,192,23114,1,0,0:0:0:0:
192,192,23155,1,0,0:0:0:0:
448,192,23195,1,0,0:0:0:0:
320,192,23236,1,0,0:0:0:0:
192,192,23277,1,0,0:0:0:0:
64,192,23317,1,0,0:0:0:0:
448,192,23317,1,0,0:0:0:0:
64,192,23641,1,0,0:0:0:0:
448,192,23641,1,0,0:0:0:0:
320,192,23695,1,0,0:0:0:0:
192,192,23749,1,0,0:0:0:0:
448,192,23966,1,0,0:0:0:0:
64,192,23966,1,0,0:0:0:0:
320,192,24020,1,0,0:0:0:0:
192,192,24074,1,0,0:0:0:0:
64,192,24128,1,0,0:0:0:0:
320,192,24182,1,0,0:0:0:0:
448,192,24236,1,0,0:0:0:0:
192,192,24290,1,0,0:0:0:0:
320,192,24344,1,0,0:0:0:0:
64,192,24398,1,0,0:0:0:0:
192,192,24452,1,0,0:0:0:0:
448,192,24506,1,0,0:0:0:0:
320,192,24560,1,0,0:0:0:0:
192,192,24614,1,0,0:0:0:0:
64,192,24668,1,0,0:0:0:0:
320,192,24722,1,0,0:0:0:0:
192,192,24777,1,0,0:0:0:0:
448,192,24831,1,0,0:0:0:0:
320,192,24885,1,0,0:0:0:0:
64,192,24939,1,0,0:0:0:0:
192,192,24993,1,0,0:0:0:0:
320,192,25047,1,0,0:0:0:0:
448,192,25101,1,0,0:0:0:0:
192,192,25155,1,0,0:0:0:0:
320,192,25209,1,0,0:0:0:0:
64,192,25263,1,0,0:0:0:0:
192,192,25304,1,0,0:0:0:0:
320,192,25344,1,0,0:0:0:0:
448,192,25385,1,0,0:0:0:0:
192,192,25425,1,0,0:0:0:0:
64,192,25466,1,0,0:0:0:0:
320,192,25506,1,0,0:0:0:0:
192,192,25547,1,0,0:0:0:0:
448,192,25587,1,0,0:0:0:0:
320,192,25628,1,0,0:0:0:0:
64,192,25668,1,0,0:0:0:0:
192,192,25709,1,0,0:0:0:0:
320,192,25749,1,0,0:0:0:0:
448,192,25790,1,0,0:0:0:0:
64,192,25831,1,0,0:0:0:0:
192,192,25871,1,0,0:0:0:0:
320,192,25912,1,0,0:0:0:0:
448,192,25912,1,0,0:0:0:0:
64,192,26236,128,0,26398:0:0:0:0:
192,192,26277,128,0,26398:0:0:0:0:
448,192,26398,128,0,26560:0:0:0:0:
320,192,26439,128,0,26560:0:0:0:0:
64,192,26560,128,0,26722:0:0:0:0:
192,192,26601,128,0,26722:0:0:0:0:
448,192,26885,128,0,27047:0:0:0:0:
64,192,26925,128,0,27047:0:0:0:0:
64,192,27209,128,0,27371:0:0:0:0:
448,192,27249,128,0,27371:0:0:0:0:
192,192,27371,128,0,27533:0:0:0:0:
320,192,27412,128,0,27533:0:0:0:0:
448,192,27533,128,0,27695:0:0:0:0:
64,192,27574,128,0,27695:0:0:0:0:
192,192,27858,1,0,0:0:0:0:
320,192,27858,1,0,0:0:0:0:
448,192,27858,1,0,0:0:0:0:
192,192,28020,1,0,0:0:0:0:
320,192,28020,1,0,0:0:0:0:
448,192,28020,1,0,0:0:0:0:
192,192,28182,1,0,0:0:0:0:
320,192,28182,1,0,0:0:0:0:
448,192,28182,1,0,0:0:0:0:
192,192,28344,1,0,0:0:0:0:
320,192,28344,1,0,0:0:0:0:
448,192,28344,1,0,0:0:0:0:
448,192,28506,1,0,0:0:0:0:
64,192,28506,1,0,0:0:0:0:
320,192,28506,1,0,0:0:0:0:
192,192,28560,1,0,0:0:0:0:
64,192,28614,1,0,0:0:0:0:
192,192,28668,1,0,0:0:0:0:
448,192,28722,1,0,0:0:0:0:
320,192,28777,1,0,0:0:0:0:
192,192,28831,1,0,0:0:0:0:
64,192,28831,1,0,0:0:0:0:
448,192,28831,1,0,0:0:0:0:
192,192,28993,1,0,0:0:0:0:
320,192,28993,1,0,0:0:0:0:
192,192,29155,1,0,0:0:0:0:
320,192,29155,1,0,0:0:0:0:
448,192,29317,1,0,0:0:0:0:
64,192,29317,1,0,0:0:0:0:
192,192,29371,1,0,0:0:0:0:
320,192,29425,1,0,0:0:0:0:
64,192,29479,1,0,0:0:0:0:
448,192,29533,1,0,0:0:0:0:
320,192,29587,1,0,0:0:0:0:
64,192,29641,1,0,0:0:0:0:
192,192,29641,1,0,0:0:0:0:
448,192,29804,1,0,0:0:0:0:
192,192,29804,1,0,0:0:0:0:
64,192,29804,1,0,0:0:0:0:
320,192,29858,1,0,0:0:0:0:
448,192,29912,1,0,0:0:0:0:
320,192,29966,1,0,0:0:0:0:
64,192,30020,1,0,0:0:0:0:
192,192,30074,1,0,0:0:0:0:
64,192,30128,1,0,0:0:0:0:
320,192,30128,1,0,0:0:0:0:
448,192,30128,1,0,0:0:0:0:
320,192,30290,1,0,0:0:0:0:
448,192,30290,1,0,0:0:0:0:
320,192,30452,1,0,0:0:0:0:
448,192,30452,1,0,0:0:0:0:
192,192,30506,1,0,0:0:0:0:
64,192,30560,1,0,0:0:0:0:
320,192,30614,1,0,0:0:0:0:
192,192,30614,1,0,0:0:0:0:
64,192,30777,1,0,0:0:0:0:
192,192,30817,1,0,0:0:0:0:
448,192,30858,1,0,0:0:0:0:
320,192,30898,1,0,0:0:0:0:
64,192,30939,1,0,0:0:0:0:
192,192,30979,1,0,0:0:0:0:
448,192,31020,1,0,0:0:0:0:
320,192,31060,1,0,0:0:0:0:
192,192,31101,1,0,0:0:0:0:
64,192,31101,1,0,0:0:0:0:
320,192,31263,1,0,0:0:0:0:
448,192,31263,1,0,0:0:0:0:
64,192,31425,1,0,0:0:0:0:
192,192,31425,1,0,0:0:0:0:
320,192,31506,1,0,0:0:0:0:
192,192,31506,1,0,0:0:0:0:
448,192,31587,1,0,0:0:0:0:
320,192,31587,1,0,0:0:0:0:
448,192,31749,1,0,0:0:0:0:
320,192,31749,1,0,0:0:0:0:
192,192,31790,1,0,0:0:0:0:
64,192,31790,1,0,0:0:0:0:
320,192,31831,1,0,0:0:0:0:
448,192,31831,1,0,0:0:0:0:
192,192,31871,1,0,0:0:0:0:
64,192,31871,1,0,0:0:0:0:
448,192,31912,1,0,0:0:0:0:
320,192,31912,1,0,0:0:0:0:
64,192,32074,1,0,0:0:0:0:
192,192,32101,1,0,0:0:0:0:
320,192,32128,1,0,0:0:0:0:
448,192,32155,1,0,0:0:0:0:
64,192,32182,1,0,0:0:0:0:
192,192,32209,1,0,0:0:0:0:
320,192,32236,1,0,0:0:0:0:
448,192,32263,1,0,0:0:0:0:
64,192,32290,1,0,0:0:0:0:
192,192,32317,1,0,0:0:0:0:
320,192,32344,1,0,0:0:0:0:
448,192,32371,1,0,0:0:0:0:
320,192,32722,1,0,0:0:0:0:
448,192,32722,1,0,0:0:0:0:
448,192,33695,1,0,0:0:0:0:
64,192,33736,1,0,0:0:0:0:
192,192,33777,1,0,0:0:0:0:
320,192,33817,1,0,0:0:0:0:
448,192,33858,1,0,0:0:0:0:
64,192,33898,1,0,0:0:0:0:
320,192,34020,1,0,0:0:0:0:
448,192,34020,1,0,0:0:0:0:
192,192,34074,1,0,0:0:0:0:
64,192,34128,1,0,0:0:0:0:
64,192,34344,1,0,0:0:0:0:
192,192,34344,1,0,0:0:0:0:
320,192,34398,1,0,0:0:0:0:
448,192,34452,1,0,0:0:0:0:
192,192,34506,1,0,0:0:0:0:
64,192,34560,1,0,0:0:0:0:
320,192,34614,1,0,0:0:0:0:
448,192,34668,1,0,0:0:0:0:
192,192,34722,1,0,0:0:0:0:
64,192,34777,1,0,0:0:0:0:
320,192,34831,1,0,0:0:0:0:
448,192,34885,1,0,0:0:0:0:
192,192,34939,1,0,0:0:0:0:
64,192,34993,1,0,0:0:0:0:
448,192,35047,1,0,0:0:0:0:
320,192,35101,1,0,0:0:0:0:
64,192,35155,1,0,0:0:0:0:
192,192,35209,1,0,0:0:0:0:
448,192,35263,1,0,0:0:0:0:
320,192,35317,1,0,0:0:0:0:
64,192,35371,1,0,0:0:0:0:
192,192,35425,1,0,0:0:0:0:
448,192,35479,1,0,0:0:0:0:
320,192,35533,1,0,0:0:0:0:
192,192,35587,1,0,0:0:0:0:
64,192,35641,1,0,0:0:0:0:
448,192,35641,1,0,0:0:0:0:
192,192,35966,1,0,0:0:0:0:
320,192,35966,1,0,0:0:0:0:
448,192,36290,1,0,0:0:0:0:
64,192,36290,1,0,0:0:0:0:
320,192,36614,1,0,0:0:0:0:
448,192,36614,1,0,0:0:0:0:
192,192,36668,1,0,0:0:0:0:
64,192,36722,1,0,0:0:0:0:
448,192,36939,1,0,0:0:0:0:
320,192,36939,1,0,0:0:0:0:
64,192,36993,1,0,0:0:0:0:
192,192,37047,1,0,0:0:0:0:
448,192,37101,1,0,0:0:0:0:
320,192,37155,1,0,0:0:0:0:
64,192,37209,1,0,0:0:0:0:
192,192,37263,1,0,0:0:0:0:
448,192,37317,1,0,0:0:0:0:
320,192,37371,1,0,0:0:0:0:
64,192,37425,1,0,0:0:0:0:
192,192,37479,1,0,0:0:0:0:
448,192,37533,1,0,0:0:0:0:
320,192,37587,1,0,0:0:0:0:
192,192,37641,1,0,0:0:0:0:
64,192,37695,1,0,0:0:0:0:
320,192,37749,1,0,0:0:0:0:
448,192,37804,1,0,0:0:0:0:
192,192,37858,1,0,0:0:0:0:
448,192,37912,1,0,0:0:0:0:
320,192,37912,1,0,0:0:0:0:
64,192,37912,1,0,0:0:0:0:
192,192,37966,1,0,0:0:0:0:
320,192,38020,1,0,0:0:0:0:
448,192,38074,1,0,0:0:0:0:
192,192,38128,1,0,0:0:0:0:
64,192,38182,1,0,0:0:0:0:
448,192,38236,1,0,0:0:0:0:
320,192,38236,1,0,0:0:0:0:
192,192,38236,1,0,0:0:0:0:
64,192,38290,1,0,0:0:0:0:
448,192,38344,1,0,0:0:0:0:
320,192,38398,1,0,0:0:0:0:
64,192,38452,1,0,0:0:0:0:
192,192,38506,1,0,0:0:0:0:
320,192,38560,1,0,0:0:0:0:
448,192,38560,1,0,0:0:0:0:
64,192,38560,1,0,0:0:0:0:
192,192,38614,1,0,0:0:0:0:
320,192,38668,1,0,0:0:0:0:
448,192,38722,1,0,0:0:0:0:
192,192,38777,1,0,0:0:0:0:
64,192,38831,1,0,0:0:0:0:
320,192,38885,1,0,0:0:0:0:
448,192,38885,1,0,0:0:0:0:
192,192,38885,1,0,0:0:0:0:
64,192,38939,1,0,0:0:0:0:
448,192,38993,1,0,0:0:0:0:
320,192,39047,1,0,0:0:0:0:
64,192,39209,1,0,0:0:0:0:
192,192,39209,1,0,0:0:0:0:
320,192,39263,1,0,0:0:0:0:
448,192,39317,1,0,0:0:0:0:
192,192,39533,1,0,0:0:0:0:
64,192,39533,1,0,0:0:0:0:
448,192,39587,1,0,0:0:0:0:
320,192,39641,1,0,0:0:0:0:
64,192,39695,1,0,0:0:0:0:
192,192,39749,1,0,0:0:0:0:
448,192,39804,1,0,0:0:0:0:
320,192,39858,1,0,0:0:0:0:
64,192,39912,1,0,0:0:0:0:
192,192,39966,1,0,0:0:0:0:
448,192,40020,1,0,0:0:0:0:
320,192,40074,1,0,0:0:0:0:
64,192,40128,1,0,0:0:0:0:
192,192,40182,1,0,0:0:0:0:
320,192,40236,1,0,0:0:0:0:
448,192,40290,1,0,0:0:0:0:
192,192,40344,1,0,0:0:0:0:
64,192,40398,1,0,0:0:0:0:
320,192,40452,1,0,0:0:0:0:
448,192,40506,1,0,0:0:0:0:
64,192,40560,1,0,0:0:0:0:
192,192,40614,1,0,0:0:0:0:
448,192,40668,1,0,0:0:0:0:
320,192,40722,1,0,0:0:0:0:
64,192,40777,1,0,0:0:0:0:
192,192,40831,1,0,0:0:0:0:
448,192,40831,1,0,0:0:0:0:
320,192,40912,1,0,0:0:0:0:
64,192,40993,1,0,0:0:0:0:
448,192,41074,1,0,0:0:0:0:
64,192,41155,1,0,0:0:0:0:
192,192,41155,1,0,0:0:0:0:
448,192,41317,1,0,0:0:0:0:
320,192,41317,1,0,0:0:0:0:
192,192,41398,1,0,0:0:0:0:
448,192,41479,1,0,0:0:0:0:
64,192,41479,1,0,0:0:0:0:
320,192,41560,1,0,0:0:0:0:
192,192,41641,1,0,0:0:0:0:
64,192,41641,1,0,0:0:0:0:
320,192,41722,1,0,0:0:0:0:
448,192,41804,1,0,0:0:0:0:
64,192,41804,1,0,0:0:0:0:
192,192,41885,1,0,0:0:0:0:
448,192,41966,1,0,0:0:0:0:
320,192,41966,1,0,0:0:0:0:
192,192,42047,1,0,0:0:0:0:
448,192,42128,1,0,0:0:0:0:
64,192,42128,1,0,0:0:0:0:
192,192,42182,1,0,0:0:0:0:
320,192,42236,1,0,0:0:0:0:
448,192,42290,1,0,0:0:0:0:
64,192,42344,1,0,0:0:0:0:
192,192,42398,1,0,0:0:0:0:
448,192,42452,1,0,0:0:0:0:
320,192,42506,1,0,0:0:0:0:
64,192,42560,1,0,0:0:0:0:
192,192,42614,1,0,0:0:0:0:
320,192,42668,1,0,0:0:0:0:
448,192,42722,1,0,0:0:0:0:
64,192,42777,1,0,0:0:0:0:
192,192,42777,1,0,0:0:0:0:
320,192,42817,1,0,0:0:0:0:
448,192,42858,1,0,0:0:0:0:
192,192,42898,1,0,0:0:0:0:
320,192,42939,1,0,0:0:0:0:
64,192,42939,1,0,0:0:0:0:
448,192,42979,1,0,0:0:0:0:
192,192,43020,1,0,0:0:0:0:
64,192,43060,1,0,0:0:0:0:
320,192,43101,1,0,0:0:0:0:
448,192,43101,1,0,0:0:0:0:
192,192,43141,1,0,0:0:0:0:
64,192,43182,1,0,0:0:0:0:
320,192,43222,1,0,0:0:0:0:
192,192,43263,1,0,0:0:0:0:
448,192,43263,1,0,0:0:0:0:
64,192,43304,1,0,0:0:0:0:
320,192,43344,1,0,0:0:0:0:
448,192,43385,1,0,0:0:0:0:
192,192,43425,1,0,0:0:0:0:
64,192,43425,1,0,0:0:0:0:
64,192,44074,1,0,0:0:0:0:
448,192,44074,1,0,0:0:0:0:
192,192,44114,1,0,0:0:0:0:
320,192,44155,1,0,0:0:0:0:
448,192,44195,1,0,0:0:0:0:
64,192,44236,1,0,0:0:0:0:
192,192,44290,1,0,0:0:0:0:
320,192,44344,1,0,0:0:0:0:
448,192,44398,1,0,0:0:0:0:
64,192,44479,1,0,0:0:0:0:
192,192,44560,1,0,0:0:0:0:
320,192,44641,1,0,0:0:0:0:
192,192,44722,1,0,0:0:0:0:
64,192,44722,1,0,0:0:0:0:
448,192,44722,1,0,0:0:0:0:
64,192,45047,1,0,0:0:0:0:
192,192,45047,1,0,0:0:0:0:
320,192,45087,1,0,0:0:0:0:
64,192,45128,1,0,0:0:0:0:
320,192,45209,1,0,0:0:0:0:
448,192,45209,1,0,0:0:0:0:
192,192,45249,1,0,0:0:0:0:
448,192,45290,1,0,0:0:0:0:
64,192,45371,1,0,0:0:0:0:
320,192,45371,1,0,0:0:0:0:
192,192,45371,1,0,0:0:0:0:
64,192,45533,1,0,0:0:0:0:
192,192,45533,1,0,0:0:0:0:
320,192,45574,1,0,0:0:0:0:
64,192,45614,1,0,0:0:0:0:
448,192,45695,1,0,0:0:0:0:
320,192,45695,1,0,0:0:0:0:
192,192,45736,1,0,0:0:0:0:
448,192,45777,1,0,0:0:0:0:
320,192,45858,1,0,0:0:0:0:
192,192,45912,1,0,0:0:0:0:
64,192,45966,1,0,0:0:0:0:
320,192,46020,1,0,0:0:0:0:
448,192,46020,1,0,0:0:0:0:
64,192,46101,1,0,0:0:0:0:
192,192,46141,1,0,0:0:0:0:
320,192,46182,1,0,0:0:0:0:
448,192,46222,1,0,0:0:0:0:
448,192,46344,1,0,0:0:0:0:
320,192,46385,1,0,0:0:0:0:
192,192,46425,1,0,0:0:0:0:
64,192,46466,1,0,0:0:0:0:
64,192,46668,1,0,0:0:0:0:
192,192,46709,1,0,0:0:0:0:
448,192,46749,1,0,0:0:0:0:
320,192,46790,1,0,0:0:0:0:
64,192,46831,1,0,0:0:0:0:
192,192,46871,1,0,0:0:0:0:
320,192,46993,1,0,0:0:0:0:
448,192,47033,1,0,0:0:0:0:
192,192,47074,1,0,0:0:0:0:
64,192,47114,1,0,0:0:0:0:
320,192,47155,1,0,0:0:0:0:
448,192,47195,1,0,0:0:0:0:
64,192,47317,1,0,0:0:0:0:
320,192,47358,1,0,0:0:0:0:
192,192,47398,1,0,0:0:0:0:
448,192,47439,1,0,0:0:0:0:
64,192,47641,1,0,0:0:0:0:
192,192,47641,1,0,0:0:0:0:
448,192,47682,1,0,0:0:0:0:
192,192,47722,1,0,0:0:0:0:
320,192,47804,1,0,0:0:0:0:
448,192,47804,1,0,0:0:0:0:
64,192,47844,1,0,0:0:0:0:
320,192,47885,1,0,0:0:0:0:
64,192,47966,1,0,0:0:0:0:
448,192,47966,1,0,0:0:0:0:
192,192,47966,1,0,0:0:0:0:
64,192,48128,1,0,0:0:0:0:
192,192,48128,1,0,0:0:0:0:
448,192,48168,1,0,0:0:0:0:
192,192,48209,1,0,0:0:0:0:
448,192,48290,1,0,0:0:0:0:
320,192,48290,1,0,0:0:0:0:
64,192,48331,1,0,0:0:0:0:
320,192,48371,1,0,0:0:0:0:
64,192,48452,1,0,0:0:0:0:
448,192,48452,1,0,0:0:0:0:
192,192,48533,1,0,0:0:0:0:
448,192,48614,1,0,0:0:0:0:
64,192,48614,1,0,0:0:0:0:
320,192,48614,1,0,0:0:0:0:
192,192,48668,1,0,0:0:0:0:
64,192,48722,1,0,0:0:0:0:
448,192,48777,1,0,0:0:0:0:
320,192,48831,1,0,0:0:0:0:
192,192,48885,1,0,0:0:0:0:
64,192,48939,1,0,0:0:0:0:
192,192,49020,1,0,0:0:0:0:
320,192,49101,1,0,0:0:0:0:
448,192,49182,1,0,0:0:0:0:
64,192,49263,1,0,0:0:0:0:
192,192,49263,1,0,0:0:0:0:
448,192,49304,1,0,0:0:0:0:
320,192,49344,1,0,0:0:0:0:
64,192,49385,1,0,0:0:0:0:
192,192,49425,1,0,0:0:0:0:
448,192,49466,1,0,0:0:0:0:
320,192,49506,1,0,0:0:0:0:
64,192,49547,1,0,0:0:0:0:
192,192,49587,1,0,0:0:0:0:
448,192,49641,1,0,0:0:0:0:
320,192,49695,1,0,0:0:0:0:
64,192,49749,1,0,0:0:0:0:
192,192,49804,1,0,0:0:0:0:
320,192,49858,1,0,0:0:0:0:
64,192,49912,1,0,0:0:0:0:
448,192,49912,1,0,0:0:0:0:
192,192,49912,1,0,0:0:0:0:
192,192,50236,1,0,0:0:0:0:
64,192,50236,1,0,0:0:0:0:
448,192,50277,1,0,0:0:0:0:
192,192,50317,1,0,0:0:0:0:
448,192,50398,1,0,0:0:0:0:
320,192,50398,1,0,0:0:0:0:
64,192,50439,1,0,0:0:0:0:
320,192,50479,1,0,0:0:0:0:
192,192,50560,1,0,0:0:0:0:
448,192,50560,1,0,0:0:0:0:
64,192,50560,1,0,0:0:0:0:
192,192,50722,1,0,0:0:0:0:
64,192,50722,1,0,0:0:0:0:
448,192,50763,1,0,0:0:0:0:
192,192,50804,1,0,0:0:0:0:
320,192,50885,1,0,0:0:0:0:
448,192,50885,1,0,0:0:0:0:
64,192,50925,1,0,0:0:0:0:
320,192,50966,1,0,0:0:0:0:
448,192,51047,1,0,0:0:0:0:
64,192,51047,1,0,0:0:0:0:
192,192,51128,1,0,0:0:0:0:
320,192,51209,1,0,0:0:0:0:
64,192,51209,1,0,0:0:0:0:
448,192,51209,1,0,0:0:0:0:
192,192,51290,1,0,0:0:0:0:
192,192,51371,1,0,0:0:0:0:
448,192,51452,1,0,0:0:0:0:
448,192,51533,1,0,0:0:0:0:
64,192,51533,1,0,0:0:0:0:
64,192,51614,1,0,0:0:0:0:
320,192,51695,1,0,0:0:0:0:
320,192,51777,1,0,0:0:0:0:
192,192,51858,1,0,0:0:0:0:
64,192,51858,1,0,0:0:0:0:
448,192,51898,1,0,0:0:0:0:
320,192,51939,1,0,0:0:0:0:
192,192,51966,1,0,0:0:0:0:
64,192,51999,1,0,0:0:0:0:
448,192,52040,1,0,0:0:0:0:
320,192,52074,1,0,0:0:0:0:
192,192,52101,1,0,0:0:0:0:
64,192,52141,1,0,0:0:0:0:
448,192,52182,1,0,0:0:0:0:
320,192,52182,1,0,0:0:0:0:
64,192,52344,1,0,0:0:0:0:
448,192,52344,1,0,0:0:0:0:
192,192,52506,1,0,0:0:0:0:
64,192,52506,1,0,0:0:0:0:
320,192,52560,1,0,0:0:0:0:
448,192,52614,1,0,0:0:0:0:
64,192,52668,1,0,0:0:0:0:
192,192,52722,1,0,0:0:0:0:
320,192,52831,1,0,0:0:0:0:
448,192,52831,1,0,0:0:0:0:
64,192,52871,1,0,0:0:0:0:
320,192,52912,1,0,0:0:0:0:
64,192,52993,1,0,0:0:0:0:
192,192,52993,1,0,0:0:0:0:
448,192,53033,1,0,0:0:0:0:
192,192,53074,1,0,0:0:0:0:
320,192,53155,1,0,0:0:0:0:
448,192,53155,1,0,0:0:0:0:
64,192,53209,1,0,0:0:0:0:
192,192,53263,1,0,0:0:0:0:
448,192,53317,1,0,0:0:0:0:
320,192,53317,1,0,0:0:0:0:
64,192,53358,1,0,0:0:0:0:
448,192,53398,1,0,0:0:0:0:
192,192,53479,1,0,0:0:0:0:
64,192,53479,1,0,0:0:0:0:
448,192,53520,1,0,0:0:0:0:
192,192,53560,1,0,0:0:0:0:
448,192,53641,1,0,0:0:0:0:
320,192,53641,1,0,0:0:0:0:
320,192,53722,1,0,0:0:0:0:
64,192,53804,1,0,0:0:0:0:
192,192,53804,1,0,0:0:0:0:
448,192,53966,1,0,0:0:0:0:
64,192,53966,1,0,0:0:0:0:
448,192,54128,1,0,0:0:0:0:
64,192,54128,1,0,0:0:0:0:
64,192,54290,1,0,0:0:0:0:
448,192,54290,1,0,0:0:0:0:
448,192,54452,1,0,0:0:0:0:
64,192,54452,1,0,0:0:0:0:
320,192,54506,1,0,0:0:0:0:
192,192,54560,1,0,0:0:0:0:
320,192,54614,1,0,0:0:0:0:
192,192,54668,1,0,0:0:0:0:
320,192,54722,1,0,0:0:0:0:
192,192,54777,1,0,0:0:0:0:
320,192,54831,1,0,0:0:0:0:
192,192,54885,1,0,0:0:0:0:
320,192,54939,1,0,0:0:0:0:
192,192,54993,1,0,0:0:0:0:
320,192,55047,1,0,0:0:0:0:
192,192,55101,1,0,0:0:0:0:
320,192,55162,1,0,0:0:0:0:
192,192,55236,1,0,0:0:0:0:
320,192,55290,1,0,0:0:0:0:
192,192,55364,1,0,0:0:0:0:
320,192,55425,1,0,0:0:0:0:
192,192,55506,1,0,0:0:0:0:
320,192,55587,1,0,0:0:0:0:
192,192,55668,1,0,0:0:0:0:
320,192,55749,1,0,0:0:0:0:
192,192,55912,1,0,0:0:0:0:
320,192,56074,1,0,0:0:0:0:
64,192,56236,1,0,0:0:0:0:
192,192,56277,1,0,0:0:0:0:
448,192,56317,1,0,0:0:0:0:
320,192,56358,1,0,0:0:0:0:
64,192,56398,1,0,0:0:0:0:
192,192,56425,1,0,0:0:0:0:
320,192,56452,1,0,0:0:0:0:
448,192,56479,1,0,0:0:0:0:
448,192,56560,1,0,0:0:0:0:
320,192,56587,1,0,0:0:0:0:
192,192,56614,1,0,0:0:0:0:
64,192,56641,1,0,0:0:0:0:
64,192,56722,1,0,0:0:0:0:
192,192,56749,1,0,0:0:0:0:
320,192,56777,1,0,0:0:0:0:
448,192,56804,1,0,0:0:0:0:
448,192,56885,1,0,0:0:0:0:
320,192,56912,1,0,0:0:0:0:
192,192,56939,1,0,0:0:0:0:
64,192,56966,1,0,0:0:0:0:
320,192,57047,1,0,0:0:0:0:
448,192,57047,1,0,0:0:0:0:
64,192,57209,1,0,0:0:0:0:
320,192,57371,1,0,0:0:0:0:
448,192,57371,1,0,0:0:0:0:
192,192,57425,1,0,0:0:0:0:
64,192,57479,1,0,0:0:0:0:
448,192,57533,1,0,0:0:0:0:
320,192,57533,1,0,0:0:0:0:
64,192,57695,1,0,0:0:0:0:
192,192,57695,1,0,0:0:0:0:
320,192,57749,1,0,0:0:0:0:
448,192,57804,1,0,0:0:0:0:
64,192,57858,1,0,0:0:0:0:
192,192,57912,1,0,0:0:0:0:
448,192,57966,1,0,0:0:0:0:
320,192,58020,1,0,0:0:0:0:
64,192,58020,1,0,0:0:0:0:
192,192,58074,1,0,0:0:0:0:
448,192,58128,1,0,0:0:0:0:
320,192,58182,1,0,0:0:0:0:
64,192,58236,1,0,0:0:0:0:
192,192,58290,1,0,0:0:0:0:
320,192,58344,1,0,0:0:0:0:
448,192,58398,1,0,0:0:0:0:
192,192,58452,1,0,0:0:0:0:
64,192,58506,1,0,0:0:0:0:
320,192,58560,1,0,0:0:0:0:
448,192,58614,1,0,0:0:0:0:
64,192,58668,1,0,0:0:0:0:
192,192,58668,1,0,0:0:0:0:
320,192,58722,1,0,0:0:0:0:
448,192,58777,1,0,0:0:0:0:
192,192,58831,1,0,0:0:0:0:
64,192,58831,1,0,0:0:0:0:
448,192,58885,1,0,0:0:0:0:
320,192,58939,1,0,0:0:0:0:
192,192,58993,1,0,0:0:0:0:
64,192,58993,1,0,0:0:0:0:
448,192,59074,1,0,0:0:0:0:
320,192,59155,1,0,0:0:0:0:
448,192,59236,1,0,0:0:0:0:
64,192,59317,1,0,0:0:0:0:
192,192,59317,1,0,0:0:0:0:
192,192,59479,1,0,0:0:0:0:
64,192,59520,1,0,0:0:0:0:
320,192,59560,1,0,0:0:0:0:
448,192,59601,1,0,0:0:0:0:
192,192,59641,1,0,0:0:0:0:
64,192,59641,1,0,0:0:0:0:
448,192,59804,1,0,0:0:0:0:
64,192,59966,1,0,0:0:0:0:
192,192,59966,1,0,0:0:0:0:
320,192,60020,1,0,0:0:0:0:
448,192,60074,1,0,0:0:0:0:
192,192,60128,1,0,0:0:0:0:
64,192,60128,1,0,0:0:0:0:
320,192,60290,1,0,0:0:0:0:
448,192,60290,1,0,0:0:0:0:
192,192,60344,1,0,0:0:0:0:
64,192,60398,1,0,0:0:0:0:
448,192,60452,1,0,0:0:0:0:
320,192,60506,1,0,0:0:0:0:
64,192,60560,1,0,0:0:0:0:
448,192,60614,1,0,0:0:0:0:
192,192,60614,1,0,0:0:0:0:
320,192,60668,1,0,0:0:0:0:
64,192,60722,1,0,0:0:0:0:
192,192,60777,1,0,0:0:0:0:
448,192,60831,1,0,0:0:0:0:
320,192,60885,1,0,0:0:0:0:
192,192,60939,1,0,0:0:0:0:
64,192,60993,1,0,0:0:0:0:
320,192,61047,1,0,0:0:0:0:
448,192,61101,1,0,0:0:0:0:
192,192,61155,1,0,0:0:0:0:
64,192,61209,1,0,0:0:0:0:
320,192,61263,1,0,0:0:0:0:
448,192,61263,1,0,0:0:0:0:
192,192,61317,1,0,0:0:0:0:
64,192,61371,1,0,0:0:0:0:
448,192,61425,1,0,0:0:0:0:
320,192,61425,1,0,0:0:0:0:
64,192,61479,1,0,0:0:0:0:
192,192,61533,1,0,0:0:0:0:
448,192,61587,1,0,0:0:0:0:
320,192,61587,1,0,0:0:0:0:
64,192,61668,1,0,0:0:0:0:
192,192,61749,1,0,0:0:0:0:
64,192,61831,1,0,0:0:0:0:
320,192,61912,1,0,0:0:0:0:
448,192,61912,1,0,0:0:0:0:
320,192,62074,1,0,0:0:0:0:
64,192,62074,1,0,0:0:0:0:
448,192,62074,1,0,0:0:0:0:
192,192,62128,1,0,0:0:0:0:
320,192,62182,1,0,0:0:0:0:
64,192,62216,1,0,0:0:0:0:
448,192,62216,1,0,0:0:0:0:
64,192,62398,1,0,0:0:0:0:
320,192,62560,1,0,0:0:0:0:
448,192,62560,1,0,0:0:0:0:
192,192,62614,1,0,0:0:0:0:
64,192,62668,1,0,0:0:0:0:
64,192,62885,1,0,0:0:0:0:
192,192,62885,1,0,0:0:0:0:
320,192,62939,1,0,0:0:0:0:
448,192,62993,1,0,0:0:0:0:
192,192,63047,1,0,0:0:0:0:
64,192,63101,1,0,0:0:0:0:
320,192,63155,1,0,0:0:0:0:
448,192,63209,1,0,0:0:0:0:
192,192,63263,1,0,0:0:0:0:
64,192,63317,1,0,0:0:0:0:
320,192,63371,1,0,0:0:0:0:
448,192,63425,1,0,0:0:0:0:
192,192,63479,1,0,0:0:0:0:
64,192,63533,1,0,0:0:0:0:
448,192,63587,1,0,0:0:0:0:
320,192,63641,1,0,0:0:0:0:
64,192,63695,1,0,0:0:0:0:
192,192,63749,1,0,0:0:0:0:
320,192,63858,1,0,0:0:0:0:
448,192,63912,1,0,0:0:0:0:
192,192,63966,1,0,0:0:0:0:
64,192,64020,1,0,0:0:0:0:
320,192,64074,1,0,0:0:0:0:
448,192,64128,1,0,0:0:0:0:
64,192,64182,1,0,0:0:0:0:
192,192,64182,1,0,0:0:0:0:
64,192,64344,1,0,0:0:0:0:
192,192,64344,1,0,0:0:0:0:
64,192,64506,1,0,0:0:0:0:
192,192,64506,1,0,0:0:0:0:
64,192,64668,1,0,0:0:0:0:
192,192,64668,1,0,0:0:0:0:
448,192,64831,5,0,0:0:0:0:
192,192,64912,1,0,0:0:0:0:
320,192,64993,1,0,0:0:0:0:
64,192,65074,1,0,0:0:0:0:
448,192,65155,1,0,0:0:0:0:
192,192,65236,1,0,0:0:0:0:
320,192,65317,1,0,0:0:0:0:
64,192,65398,1,0,0:0:0:0:
448,192,65479,1,0,0:0:0:0:
192,192,65565,1,0,0:0:0:0:
320,192,65652,1,0,0:0:0:0:
64,192,65739,1,0,0:0:0:0:
448,192,65825,1,0,0:0:0:0:
192,192,65915,1,0,0:0:0:0:
320,192,66006,1,0,0:0:0:0:
64,192,66099,1,0,0:0:0:0:
320,192,66189,1,0,0:0:0:0:
192,192,66280,1,0,0:0:0:0:
448,192,66368,1,0,0:0:0:0:
64,192,66457,1,0,0:0:0:0:
320,192,66546,1,0,0:0:0:0:
192,192,66635,1,0,0:0:0:0:
448,192,66723,1,0,0:0:0:0:
64,192,66812,1,0,0:0:0:0:
320,192,66901,1,0,0:0:0:0:
192,192,66990,1,0,0:0:0:0:
448,192,67080,1,0,0:0:0:0:
64,192,67171,1,0,0:0:0:0:
320,192,67269,1,0,0:0:0:0:
192,192,67367,1,0,0:0:0:0:
448,192,67455,1,0,0:0:0:0:
320,192,67579,1,0,0:0:0:0:
192,192,67669,1,0,0:0:0:0:
64,192,67760,1,0,0:0:0:0:
448,192,67851,1,0,0:0:0:0:
320,192,67942,1,0,0:0:0:0:
192,192,68035,1,0,0:0:0:0:
64,192,68128,1,0,0:0:0:0:
448,192,68252,1,0,0:0:0:0:
320,192,68370,1,0,0:0:0:0:
192,192,68480,1,0,0:0:0:0:
64,192,68595,1,0,0:0:0:0:
448,192,68711,1,0,0:0:0:0:
320,192,68814,1,0,0:0:0:0:
192,192,68909,1,0,0:0:0:0:
64,192,68990,1,0,0:0:0:0:
448,192,69065,1,0,0:0:0:0:
320,192,69140,1,0,0:0:0:0:
192,192,69216,1,0,0:0:0:0:
64,192,69291,1,0,0:0:0:0:
448,192,69351,1,0,0:0:0:0:
320,192,69412,1,0,0:0:0:0:
192,192,69473,1,0,0:0:0:0:
448,192,69473,1,0,0:0:0:0:
64,192,69534,1,0,0:0:0:0:
448,192,69594,1,0,0:0:0:0:
64,192,69655,1,0,0:0:0:0:
320,192,69655,1,0,0:0:0:0:
192,192,69705,1,0,0:0:0:0:
64,192,69756,1,0,0:0:0:0:
448,192,69756,1,0,0:0:0:0:
320,192,69807,1,0,0:0:0:0:
192,192,69858,1,0,0:0:0:0:
64,192,69858,1,0,0:0:0:0:
320,192,69909,1,0,0:0:0:0:
448,192,69960,1,0,0:0:0:0:
192,192,69960,1,0,0:0:0:0:
64,192,69960,1,0,0:0:0:0:
448,192,70368,1,0,0:0:0:0:
64,192,70368,1,0,0:0:0:0:
320,192,70368,1,0,0:0:0:0:
192,192,70436,1,0,0:0:0:0:
320,192,70504,1,0,0:0:0:0:
64,192,70572,1,0,0:0:0:0:
448,192,70572,1,0,0:0:0:0:
192,192,70572,1,0,0:0:0:0:
64,192,70753,1,0,0:0:0:0:
448,192,70753,1,0,0:0:0:0:
320,192,70849,1,0,0:0:0:0:
192,192,70946,1,0,0:0:0:0:
64,192,70946,1,0,0:0:0:0:
64,192,71140,1,0,0:0:0:0:
448,192,71140,1,0,0:0:0:0:
192,192,71236,1,0,0:0:0:0:
320,192,71333,1,0,0:0:0:0:
448,192,71333,1,0,0:0:0:0:
64,192,71527,1,0,0:0:0:0:
320,192,71527,1,0,0:0:0:0:
192,192,71623,1,0,0:0:0:0:
64,192,71720,1,0,0:0:0:0:
448,192,71720,1,0,0:0:0:0:
192,192,71914,1,0,0:0:0:0:
448,192,71914,1,0,0:0:0:0:
320,192,72011,1,0,0:0:0:0:
64,192,72107,1,0,0:0:0:0:
448,192,72107,1,0,0:0:0:0:
320,192,72301,1,0,0:0:0:0:
448,192,72301,1,0,0:0:0:0:
192,192,72398,1,0,0:0:0:0:
64,192,72494,1,0,0:0:0:0:
448,192,72494,1,0,0:0:0:0:
64,192,72688,1,0,0:0:0:0:
192,192,72688,1,0,0:0:0:0:
320,192,72785,1,0,0:0:0:0:
448,192,72882,1,0,0:0:0:0:
64,192,72882,1,0,0:0:0:0:
448,192,73075,1,0,0:0:0:0:
320,192,73075,1,0,0:0:0:0:
192,192,73172,1,0,0:0:0:0:
448,192,73269,1,0,0:0:0:0:
64,192,73269,1,0,0:0:0:0:
320,192,73365,1,0,0:0:0:0:
192,192,73462,1,0,0:0:0:0:
64,192,73462,1,0,0:0:0:0:
320,192,73559,1,0,0:0:0:0:
448,192,73559,1,0,0:0:0:0:
320,192,73753,1,0,0:0:0:0:
192,192,73753,1,0,0:0:0:0:
64,192,73849,1,0,0:0:0:0:
448,192,73849,1,0,0:0:0:0:
320,192,73898,1,0,0:0:0:0:
192,192,73946,1,0,0:0:0:0:
448,192,73978,1,0,0:0:0:0:
64,192,74019,1,0,0:0:0:0:
192,192,74067,1,0,0:0:0:0:
320,192,74107,1,0,0:0:0:0:
448,192,74236,1,0,0:0:0:0:
64,192,74236,1,0,0:0:0:0:
320,192,74333,1,0,0:0:0:0:
64,192,74430,1,0,0:0:0:0:
192,192,74430,1,0,0:0:0:0:
64,192,74623,1,0,0:0:0:0:
192,192,74623,1,0,0:0:0:0:
320,192,74720,1,0,0:0:0:0:
448,192,74817,1,0,0:0:0:0:
64,192,74817,1,0,0:0:0:0:
448,192,75011,1,0,0:0:0:0:
192,192,75011,1,0,0:0:0:0:
320,192,75107,1,0,0:0:0:0:
64,192,75107,1,0,0:0:0:0:
320,192,75301,1,0,0:0:0:0:
64,192,75301,1,0,0:0:0:0:
448,192,75398,1,0,0:0:0:0:
192,192,75398,1,0,0:0:0:0:
320,192,75494,1,0,0:0:0:0:
448,192,75591,1,0,0:0:0:0:
64,192,75591,1,0,0:0:0:0:
320,192,75785,1,0,0:0:0:0:
64,192,75785,1,0,0:0:0:0:
192,192,75882,1,0,0:0:0:0:
64,192,75978,1,0,0:0:0:0:
448,192,75978,1,0,0:0:0:0:
320,192,76172,1,0,0:0:0:0:
448,192,76172,1,0,0:0:0:0:
192,192,76269,1,0,0:0:0:0:
448,192,76365,1,0,0:0:0:0:
64,192,76365,1,0,0:0:0:0:
320,192,76462,1,0,0:0:0:0:
64,192,76559,1,0,0:0:0:0:
192,192,76559,1,0,0:0:0:0:
448,192,76559,1,0,0:0:0:0:
320,192,76656,1,0,0:0:0:0:
192,192,76753,1,0,0:0:0:0:
320,192,76849,1,0,0:0:0:0:
448,192,76946,1,0,0:0:0:0:
64,192,76946,1,0,0:0:0:0:
192,192,76994,1,0,0:0:0:0:
320,192,77043,1,0,0:0:0:0:
64,192,77075,1,0,0:0:0:0:
448,192,77115,1,0,0:0:0:0:
320,192,77164,1,0,0:0:0:0:
192,192,77204,1,0,0:0:0:0:
64,192,77333,1,0,0:0:0:0:
192,192,77333,1,0,0:0:0:0:
448,192,77333,1,0,0:0:0:0:
320,192,77398,1,0,0:0:0:0:
448,192,77462,1,0,0:0:0:0:
192,192,77527,1,0,0:0:0:0:
320,192,77591,1,0,0:0:0:0:
64,192,77720,1,0,0:0:0:0:
192,192,77720,1,0,0:0:0:0:
320,192,77785,1,0,0:0:0:0:
448,192,77849,1,0,0:0:0:0:
192,192,77914,1,0,0:0:0:0:
64,192,77914,1,0,0:0:0:0:
320,192,77978,1,0,0:0:0:0:
448,192,78043,1,0,0:0:0:0:
320,192,78107,1,0,0:0:0:0:
64,192,78107,1,0,0:0:0:0:
192,192,78107,1,0,0:0:0:0:
448,192,78172,1,0,0:0:0:0:
64,192,78236,1,0,0:0:0:0:
192,192,78301,1,0,0:0:0:0:
320,192,78365,1,0,0:0:0:0:
448,192,78430,1,0,0:0:0:0:
192,192,78494,1,0,0:0:0:0:
64,192,78494,1,0,0:0:0:0:
320,192,78543,1,0,0:0:0:0:
448,192,78591,1,0,0:0:0:0:
64,192,78640,1,0,0:0:0:0:
192,192,78688,1,0,0:0:0:0:
320,192,78736,1,0,0:0:0:0:
448,192,78785,1,0,0:0:0:0:
320,192,78833,1,0,0:0:0:0:
64,192,78882,1,0,0:0:0:0:
448,192,78882,1,0,0:0:0:0:
192,192,78882,1,0,0:0:0:0:
192,192,79075,1,0,0:0:0:0:
320,192,79075,1,0,0:0:0:0:
64,192,79269,1,0,0:0:0:0:
448,192,79269,1,0,0:0:0:0:
448,192,79462,1,0,0:0:0:0:
320,192,79462,1,0,0:0:0:0:
64,192,79511,1,0,0:0:0:0:
192,192,79559,1,0,0:0:0:0:
320,192,79607,1,0,0:0:0:0:
448,192,79656,1,0,0:0:0:0:
64,192,79656,1,0,0:0:0:0:
192,192,79752,1,0,0:0:0:0:
320,192,79752,1,0,0:0:0:0:
448,192,79849,1,0,0:0:0:0:
192,192,79946,1,0,0:0:0:0:
64,192,79946,1,0,0:0:0:0:
448,192,80043,1,0,0:0:0:0:
320,192,80043,1,0,0:0:0:0:
64,192,80091,1,0,0:0:0:0:
192,192,80140,1,0,0:0:0:0:
320,192,80172,1,0,0:0:0:0:
448,192,80212,1,0,0:0:0:0:
320,192,80301,1,0,0:0:0:0:
192,192,80365,1,0,0:0:0:0:
448,192,80430,1,0,0:0:0:0:
320,192,80430,1,0,0:0:0:0:
64,192,80430,1,0,0:0:0:0:
192,192,80494,1,0,0:0:0:0:
64,192,80559,1,0,0:0:0:0:
320,192,80623,1,0,0:0:0:0:
192,192,80688,1,0,0:0:0:0:
448,192,80817,1,0,0:0:0:0:
320,192,80817,1,0,0:0:0:0:
192,192,80882,1,0,0:0:0:0:
64,192,80946,1,0,0:0:0:0:
320,192,81011,1,0,0:0:0:0:
448,192,81011,1,0,0:0:0:0:
192,192,81075,1,0,0:0:0:0:
64,192,81140,1,0,0:0:0:0:
192,192,81204,1,0,0:0:0:0:
448,192,81204,1,0,0:0:0:0:
320,192,81204,1,0,0:0:0:0:
64,192,81269,1,0,0:0:0:0:
448,192,81333,1,0,0:0:0:0:
320,192,81398,1,0,0:0:0:0:
192,192,81494,1,0,0:0:0:0:
64,192,81494,1,0,0:0:0:0:
448,192,81543,1,0,0:0:0:0:
320,192,81543,1,0,0:0:0:0:
192,192,81591,1,0,0:0:0:0:
64,192,81591,1,0,0:0:0:0:
448,192,81591,1,0,0:0:0:0:
64,192,81688,1,0,0:0:0:0:
192,192,81785,1,0,0:0:0:0:
320,192,81882,1,0,0:0:0:0:
320,192,81978,1,0,0:0:0:0:
64,192,81978,1,0,0:0:0:0:
448,192,81978,1,0,0:0:0:0:
192,192,81978,1,0,0:0:0:0:
448,192,82075,1,0,0:0:0:0:
320,192,82172,1,0,0:0:0:0:
192,192,82269,1,0,0:0:0:0:
64,192,82365,1,0,0:0:0:0:
192,192,82365,1,0,0:0:0:0:
448,192,82365,1,0,0:0:0:0:
320,192,82365,1,0,0:0:0:0:
64,192,82462,1,0,0:0:0:0:
192,192,82559,1,0,0:0:0:0:
320,192,82656,1,0,0:0:0:0:
64,192,82752,1,0,0:0:0:0:
448,192,82752,1,0,0:0:0:0:
192,192,82801,1,0,0:0:0:0:
320,192,82849,1,0,0:0:0:0:
448,192,82898,1,0,0:0:0:0:
192,192,82946,1,0,0:0:0:0:
64,192,82994,1,0,0:0:0:0:
448,192,83140,1,0,0:0:0:0:
320,192,83140,1,0,0:0:0:0:
64,192,83188,1,0,0:0:0:0:
192,192,83236,1,0,0:0:0:0:
448,192,83269,1,0,0:0:0:0:
320,192,83309,1,0,0:0:0:0:
192,192,83357,1,0,0:0:0:0:
64,192,83398,1,0,0:0:0:0:
64,192,83527,1,0,0:0:0:0:
192,192,83527,1,0,0:0:0:0:
448,192,83527,1,0,0:0:0:0:
320,192,83591,1,0,0:0:0:0:
448,192,83656,1,0,0:0:0:0:
192,192,83720,1,0,0:0:0:0:
320,192,83785,1,0,0:0:0:0:
448,192,83849,1,0,0:0:0:0:
64,192,83914,1,0,0:0:0:0:
192,192,83914,1,0,0:0:0:0:
320,192,83978,1,0,0:0:0:0:
448,192,84043,1,0,0:0:0:0:
192,192,84107,1,0,0:0:0:0:
64,192,84107,1,0,0:0:0:0:
448,192,84172,1,0,0:0:0:0:
320,192,84236,1,0,0:0:0:0:
64,192,84301,1,0,0:0:0:0:
192,192,84301,1,0,0:0:0:0:
448,192,84301,1,0,0:0:0:0:
320,192,84365,1,0,0:0:0:0:
192,192,84430,1,0,0:0:0:0:
64,192,84494,1,0,0:0:0:0:
320,192,84559,1,0,0:0:0:0:
448,192,84623,1,0,0:0:0:0:
192,192,84688,1,0,0:0:0:0:
64,192,84688,1,0,0:0:0:0:
320,192,84736,1,0,0:0:0:0:
448,192,84785,1,0,0:0:0:0:
64,192,84833,1,0,0:0:0:0:
192,192,84882,1,0,0:0:0:0:
448,192,84930,1,0,0:0:0:0:
320,192,84978,1,0,0:0:0:0:
192,192,85027,1,0,0:0:0:0:
64,192,85075,1,0,0:0:0:0:
448,192,85075,1,0,0:0:0:0:
320,192,85075,1,0,0:0:0:0:
192,192,85140,1,0,0:0:0:0:
448,192,85204,1,0,0:0:0:0:
64,192,85269,1,0,0:0:0:0:
320,192,85269,1,0,0:0:0:0:
192,192,85333,1,0,0:0:0:0:
320,192,85398,1,0,0:0:0:0:
64,192,85462,1,0,0:0:0:0:
448,192,85462,1,0,0:0:0:0:
320,192,85559,1,0,0:0:0:0:
64,192,85656,1,0,0:0:0:0:
448,192,85656,1,0,0:0:0:0:
320,192,85704,1,0,0:0:0:0:
192,192,85752,1,0,0:0:0:0:
64,192,85801,1,0,0:0:0:0:
448,192,85849,1,0,0:0:0:0:
192,192,85849,1,0,0:0:0:0:
320,192,85849,1,0,0:0:0:0:
64,192,85946,1,0,0:0:0:0:
448,192,85946,1,0,0:0:0:0:
192,192,86043,1,0,0:0:0:0:
320,192,86140,1,0,0:0:0:0:
448,192,86140,1,0,0:0:0:0:
448,192,86236,1,0,0:0:0:0:
64,192,86236,1,0,0:0:0:0:
192,192,86285,1,0,0:0:0:0:
320,192,86333,1,0,0:0:0:0:
64,192,86365,1,0,0:0:0:0:
448,192,86406,1,0,0:0:0:0:
320,192,86454,1,0,0:0:0:0:
192,192,86494,1,0,0:0:0:0:
448,192,86623,1,0,0:0:0:0:
320,192,86623,1,0,0:0:0:0:
64,192,86623,1,0,0:0:0:0:
192,192,86688,1,0,0:0:0:0:
64,192,86752,1,0,0:0:0:0:
320,192,86817,1,0,0:0:0:0:
192,192,86882,1,0,0:0:0:0:
64,192,86946,1,0,0:0:0:0:
448,192,87011,1,0,0:0:0:0:
320,192,87011,1,0,0:0:0:0:
192,192,87075,1,0,0:0:0:0:
64,192,87140,1,0,0:0:0:0:
320,192,87204,1,0,0:0:0:0:
448,192,87204,1,0,0:0:0:0:
64,192,87269,1,0,0:0:0:0:
192,192,87333,1,0,0:0:0:0:
448,192,87398,1,0,0:0:0:0:
320,192,87398,1,0,0:0:0:0:
64,192,87398,1,0,0:0:0:0:
192,192,87462,1,0,0:0:0:0:
320,192,87527,1,0,0:0:0:0:
448,192,87591,1,0,0:0:0:0:
192,192,87656,1,0,0:0:0:0:
64,192,87720,1,0,0:0:0:0:
320,192,87785,1,0,0:0:0:0:
448,192,87785,1,0,0:0:0:0:
192,192,87833,1,0,0:0:0:0:
64,192,87882,1,0,0:0:0:0:
448,192,87930,1,0,0:0:0:0:
320,192,87978,1,0,0:0:0:0:
64,192,88027,1,0,0:0:0:0:
192,192,88075,1,0,0:0:0:0:
320,192,88123,1,0,0:0:0:0:
448,192,88172,1,0,0:0:0:0:
192,192,88172,1,0,0:0:0:0:
64,192,88172,1,0,0:0:0:0:
320,192,88236,1,0,0:0:0:0:
64,192,88301,1,0,0:0:0:0:
192,192,88365,1,0,0:0:0:0:
320,192,88365,1,0,0:0:0:0:
448,192,88430,1,0,0:0:0:0:
64,192,88494,1,0,0:0:0:0:
192,192,88559,1,0,0:0:0:0:
448,192,88559,1,0,0:0:0:0:
320,192,88607,1,0,0:0:0:0:
448,192,88656,1,0,0:0:0:0:
64,192,88704,1,0,0:0:0:0:
192,192,88752,1,0,0:0:0:0:
448,192,88801,1,0,0:0:0:0:
320,192,88849,1,0,0:0:0:0:
192,192,88898,1,0,0:0:0:0:
64,192,88946,1,0,0:0:0:0:
448,192,88946,1,0,0:0:0:0:
320,192,88946,1,0,0:0:0:0:
192,192,89011,1,0,0:0:0:0:
64,192,89075,1,0,0:0:0:0:
448,192,89140,1,0,0:0:0:0:
320,192,89204,1,0,0:0:0:0:
192,192,89269,1,0,0:0:0:0:
64,192,89333,1,0,0:0:0:0:
448,192,89333,1,0,0:0:0:0:
192,192,89430,1,0,0:0:0:0:
320,192,89527,1,0,0:0:0:0:
64,192,89527,1,0,0:0:0:0:
192,192,89623,1,0,0:0:0:0:
320,192,89720,1,0,0:0:0:0:
64,192,89720,1,0,0:0:0:0:
192,192,89817,1,0,0:0:0:0:
320,192,89914,1,0,0:0:0:0:
64,192,89914,1,0,0:0:0:0:
192,192,90011,1,0,0:0:0:0:
64,192,90107,1,0,0:0:0:0:
320,192,90107,1,0,0:0:0:0:
448,192,90204,1,0,0:0:0:0:
192,192,90204,1,0,0:0:0:0:
320,192,90301,1,0,0:0:0:0:
192,192,90398,1,0,0:0:0:0:
448,192,90398,1,0,0:0:0:0:
320,192,90494,1,0,0:0:0:0:
192,192,90591,1,0,0:0:0:0:
448,192,90591,1,0,0:0:0:0:
320,192,90688,1,0,0:0:0:0:
448,192,90785,1,0,0:0:0:0:
192,192,90785,1,0,0:0:0:0:
320,192,90882,1,0,0:0:0:0:
192,192,90978,1,0,0:0:0:0:
64,192,90978,1,0,0:0:0:0:
320,192,91075,1,0,0:0:0:0:
192,192,91172,1,0,0:0:0:0:
64,192,91172,1,0,0:0:0:0:
320,192,91269,1,0,0:0:0:0:
192,192,91365,1,0,0:0:0:0:
64,192,91365,1,0,0:0:0:0:
320,192,91462,1,0,0:0:0:0:
192,192,91559,1,0,0:0:0:0:
64,192,91559,1,0,0:0:0:0:
448,192,91656,1,0,0:0:0:0:
320,192,91656,1,0,0:0:0:0:
192,192,91752,1,0,0:0:0:0:
320,192,91849,1,0,0:0:0:0:
448,192,91849,1,0,0:0:0:0:
192,192,91946,1,0,0:0:0:0:
320,192,92043,1,0,0:0:0:0:
448,192,92043,1,0,0:0:0:0:
192,192,92140,1,0,0:0:0:0:
448,192,92236,1,0,0:0:0:0:
64,192,92236,1,0,0:0:0:0:
320,192,92285,1,0,0:0:0:0:
192,192,92333,1,0,0:0:0:0:
64,192,92382,1,0,0:0:0:0:
320,192,92430,1,0,0:0:0:0:
448,192,92430,1,0,0:0:0:0:
192,192,92527,1,0,0:0:0:0:
64,192,92527,1,0,0:0:0:0:
320,192,92623,1,0,0:0:0:0:
448,192,92623,1,0,0:0:0:0:
192,192,92720,1,0,0:0:0:0:
64,192,92720,1,0,0:0:0:0:
448,192,92817,1,0,0:0:0:0:
64,192,92817,1,0,0:0:0:0:
192,192,92914,1,0,0:0:0:0:
320,192,92914,1,0,0:0:0:0:
448,192,93011,1,0,0:0:0:0:
64,192,93011,1,0,0:0:0:0:
192,192,93107,1,0,0:0:0:0:
320,192,93107,1,0,0:0:0:0:
448,192,93204,1,0,0:0:0:0:
192,192,93204,1,0,0:0:0:0:
320,192,93301,1,0,0:0:0:0:
64,192,93301,1,0,0:0:0:0:
192,192,93398,1,0,0:0:0:0:
448,192,93398,1,0,0:0:0:0:
320,192,93494,1,0,0:0:0:0:
64,192,93494,1,0,0:0:0:0:
448,192,93591,1,0,0:0:0:0:
320,192,93591,1,0,0:0:0:0:
192,192,93688,1,0,0:0:0:0:
64,192,93688,1,0,0:0:0:0:
320,192,93785,1,0,0:0:0:0:
448,192,93785,1,0,0:0:0:0:
192,192,93882,1,0,0:0:0:0:
64,192,93882,1,0,0:0:0:0:
448,192,93978,1,0,0:0:0:0:
320,192,93978,1,0,0:0:0:0:
192,192,94027,1,0,0:0:0:0:
64,192,94075,1,0,0:0:0:0:
320,192,94123,1,0,0:0:0:0:
448,192,94172,1,0,0:0:0:0:
192,192,94220,1,0,0:0:0:0:
320,192,94269,1,0,0:0:0:0:
64,192,94317,1,0,0:0:0:0:
192,192,94365,1,0,0:0:0:0:
448,192,94414,1,0,0:0:0:0:
320,192,94462,1,0,0:0:0:0:
192,192,94511,1,0,0:0:0:0:
64,192,94559,1,0,0:0:0:0:
320,192,94607,1,0,0:0:0:0:
192,192,94656,1,0,0:0:0:0:
448,192,94704,1,0,0:0:0:0:
320,192,94752,1,0,0:0:0:0:
64,192,94752,1,0,0:0:0:0:
192,192,94801,1,0,0:0:0:0:
448,192,94849,1,0,0:0:0:0:
320,192,94849,1,0,0:0:0:0:
64,192,94898,1,0,0:0:0:0:
192,192,94946,1,0,0:0:0:0:
448,192,94946,1,0,0:0:0:0:
320,192,94994,1,0,0:0:0:0:
64,192,95043,1,0,0:0:0:0:
192,192,95043,1,0,0:0:0:0:
448,192,95091,1,0,0:0:0:0:
320,192,95140,1,0,0:0:0:0:
64,192,95140,1,0,0:0:0:0:
192,192,95164,1,0,0:0:0:0:
448,192,95333,1,0,0:0:0:0:
192,192,95333,1,0,0:0:0:0:
320,192,95357,1,0,0:0:0:0:
320,192,95527,1,0,0:0:0:0:
64,192,95527,1,0,0:0:0:0:
448,192,95551,1,0,0:0:0:0:
192,192,95551,1,0,0:0:0:0:
