osu file format v14

[General]
AudioFilename: audio.mp3
AudioLeadIn: 0
PreviewTime: 44575
Countdown: 0
SampleSet: Soft
StackLeniency: 0.9
Mode: 0
LetterboxInBreaks: 0
WidescreenStoryboard: 1

[Editor]
DistanceSpacing: 1.3
BeatDivisor: 6
GridSize: 8
TimelineZoom: 1.3

[Metadata]
Title:Shimi
TitleUnicode:染み
Artist:HOWL BE QUIET
ArtistUnicode:HOWL BE QUIET
Creator:Yudragen
Version:Hard
Source:迷宮ブラックカンパニー
Tags:meikyuu black company labyrinth dungeon opening chaoticred anime jazz rock nymphe orkay japanese jrock Kang Sae-byeok Kiyoshi Guarden 歴代の仲間入り EP Rekidai No Nakamairi
BeatmapID:3247247
BeatmapSetID:1550638

[Difficulty]
HPDrainRate:4
CircleSize:3.5
OverallDifficulty:6
ApproachRate:8
SliderMultiplier:2.48
SliderTickRate:1

[Events]
//Background and Video events
0,0,"Meikyuu.Black.Company.full.3391638.jpg",0,0
//Break Periods
2,98875,105925
//Storyboard Layer 0 (Background)
//Storyboard Layer 1 (Fail)
//Storyboard Layer 2 (Pass)
//Storyboard Layer 3 (Foreground)
//Storyboard Layer 4 (Overlay)
//Storyboard Sound Samples

[TimingPoints]
675,500,4,2,1,100,1,0
675,-83.3333333333333,4,2,1,100,0,0
2675,-125,4,2,1,70,0,0
4175,-83.3333333333333,4,2,1,100,0,0
4675,-100,4,2,1,90,0,0
4800,-100,4,2,1,70,0,0
10675,-100,4,2,1,80,0,0
12675,-100,4,2,1,70,0,0
18675,-100,4,2,1,80,0,0
20175,-100,4,2,1,90,0,0
20675,-117.647058823529,4,2,1,90,0,0
20800,-117.647058823529,4,2,1,65,0,0
34675,-117.647058823529,4,2,1,75,0,0
36175,-117.647058823529,4,2,1,100,0,0
36675,-142.857142857143,4,2,1,90,0,0
36800,-142.857142857143,4,2,1,60,0,0
42675,-142.857142857143,4,2,1,70,0,0
43425,-142.857142857143,4,2,1,50,0,0
43925,-111.111111111111,4,2,1,60,0,0
44175,-111.111111111111,4,2,1,70,0,0
44675,-86.9565217391304,4,2,1,90,0,1
56175,-86.9565217391304,4,2,1,95,0,1
56675,-100,4,2,1,80,0,0
58675,-80,4,2,1,100,0,1
60675,-125,4,2,1,100,0,0
61925,-125,4,2,1,70,0,0
62175,-83.3333333333333,4,2,1,100,0,0
62675,-100,4,2,1,90,0,0
62800,-100,4,2,1,70,0,0
68675,-100,4,2,1,85,0,0
70675,-100,4,2,1,70,0,0
76675,-83.3333333333333,4,2,1,85,0,0
78675,-99.9999999999999,4,2,1,75,0,0
86675,-90.9090909090909,4,2,1,85,0,0
92675,-83.3333333333333,4,2,1,95,0,0
94675,-111.111111111111,4,2,1,70,0,0
96675,-200,4,2,1,50,0,0
96800,-200,4,2,1,5,0,0
98675,-142.857142857143,4,2,1,65,0,0
106675,-117.647058823529,4,2,1,75,0,0
108675,-100,4,2,1,80,0,0
112675,-80,4,2,1,85,0,0
114675,-86.9565217391304,4,2,1,90,0,1
126175,-86.9565217391304,4,2,1,95,0,1
126675,-100,4,2,1,80,0,0
128675,-80,4,2,1,100,0,1
130675,-125,4,2,1,75,0,0
131675,-100,4,2,1,75,0,0
132550,-86.9565217391304,4,2,1,100,0,1
146675,-117.647058823529,4,2,1,90,0,0
148550,-100,4,2,1,90,0,0
152175,-90.9090909090909,4,2,1,90,0,0
152550,-100,4,2,1,90,0,0
162550,-100,4,2,1,100,0,0
164675,-90.9090909090909,4,2,1,100,0,0
170675,-111.111111111111,4,2,1,100,0,0
170758,-111.111111111111,4,2,1,100,0,0
170800,-111.111111111111,4,2,1,5,0,0

[Colours]
Combo1 : 140,226,63
Combo2 : 67,83,197
Combo3 : 224,70,48
Combo4 : 239,160,54

[HitObjects]
110,350,675,5,8,1:3:0:0:
129,195,925,1,8,1:3:0:0:
194,335,1175,1,8,1:3:0:0:
213,181,1425,1,8,1:3:0:0:
277,322,1675,1,8,1:3:0:0:
296,167,1925,1,8,1:3:0:0:
363,307,2175,1,8,1:3:0:0:
382,153,2425,1,8,1:3:0:0:
440,238,2675,5,0,1:0:0:0:
389,97,3925,6,0,L|339:83,1,49.6,0|4,1:0|3:0,0:0:0:0:
289,23,4175,2,2,B|157:25|222:138|89:133,1,223.199993188477,6|0,1:1|0:1,0:1:0:0:
36,89,4675,5,4,1:2:0:0:
17,230,4925,2,0,L|105:209,1,62,2|0,0:0|3:0,0:0:0:0:
138,269,5175,2,0,L|116:349,2,62,8|2|2,1:2|0:0|3:2,0:0:0:0:
212,230,5550,1,2,0:0:0:0:
212,230,5675,2,0,P|287:247|298:324,1,124,2|2,1:2|0:0,0:0:0:0:
420,328,6175,2,0,L|406:257,2,62,8|4|2,1:2|3:3|3:2,0:0:0:0:
490,225,6675,5,0,1:0:0:0:
386,156,6925,2,0,P|349:140|314:118,1,62,2|0,0:2|3:0,0:0:0:0:
256,98,7175,2,0,P|245:38|247:21,2,62,8|2|2,1:2|0:0|3:0,0:0:0:0:
182,130,7550,1,2,0:0:0:0:
182,130,7675,2,0,P|158:229|165:290,1,124,2|2,1:2|0:0,0:0:0:0:
51,313,8175,2,0,P|47:251|27:192,1,124,8|2,1:2|3:0,0:0:0:0:
49,79,8675,5,0,1:0:0:0:
152,146,8925,2,0,P|189:151|237:173,1,62,2|0,3:2|0:0,0:0:0:0:
263,227,9175,2,0,P|211:254|165:265,2,62,8|2|2,1:2|0:0|3:2,0:0:0:0:
340,181,9550,1,2,0:0:0:0:
340,181,9675,2,0,P|357:86|363:29,1,124,2|2,1:2|3:2,0:0:0:0:
465,180,10175,2,0,P|484:253|492:274,1,62,8|0,1:2|0:0,0:0:0:0:
431,304,10425,2,0,P|417:354|413:392,1,62,2|2,0:0|3:0,0:0:0:0:
495,374,10675,5,8,1:2:0:0:
343,319,10925,1,4,1:3:0:0:
343,319,11050,2,0,L|192:288,1,124,8|4,1:2|1:3,0:0:0:0:
170,231,11425,2,0,L|22:277,1,124,8|4,1:2|1:3,0:0:0:0:
7,199,11800,2,0,P|5:127|79:121,1,124,8|0,1:2|1:2,0:0:0:0:
115,148,12175,1,12,1:2:0:0:
190,49,12425,2,0,L|209:132,1,62,0|2,1:0|1:3,0:0:0:0:
268,157,12675,5,4,1:2:0:0:
403,69,12925,2,0,P|374:80|356:104,1,62,2|0,3:2|0:0,0:0:0:0:
396,175,13175,2,0,L|478:203,2,62,10|2|2,1:2|0:0|3:2,0:0:0:0:
344,238,13550,1,2,0:0:0:0:
344,238,13675,2,0,L|365:375,1,124,2|2,1:2|3:2,0:0:0:0:
241,333,14175,2,0,L|259:253,2,62,10|4|0,1:2|3:0|3:0,0:0:0:0:
167,232,14675,5,0,1:0:0:0:
231,126,14925,2,0,P|276:148|306:156,1,62,2|0,3:2|0:0,0:0:0:0:
356,104,15175,2,0,P|347:54|345:27,2,62,10|2|2,1:2|0:0|3:2,0:0:0:0:
441,123,15550,1,2,0:0:0:0:
441,123,15675,2,0,P|452:211|446:286,1,124,0|2,1:0|3:2,0:0:0:0:
369,339,16175,2,0,P|358:251|364:176,1,124,10|2,1:2|3:0,0:0:0:0:
242,172,16675,5,0,1:0:0:0:
150,255,16925,2,0,P|136:201|123:176,1,62,2|0,3:2|0:0,0:0:0:0:
58,164,17175,2,0,P|52:194|40:223,2,62,10|2|2,1:2|0:0|3:2,0:0:0:0:
8,107,17550,1,2,0:0:0:0:
8,106,17675,2,0,P|53:87|145:67,1,124,2|2,1:2|3:2,0:0:0:0:
237,16,18175,2,0,P|249:65|269:96,2,62,8|2|2,1:2|3:0|0:0,0:0:0:0:
357,48,18675,6,0,P|373:107|439:114,1,124,8|0,1:2|1:0,0:0:0:0:
482,179,19050,2,0,P|463:258|448:313,1,124,8|0,1:2|1:0,0:0:0:0:
381,339,19425,2,0,L|349:248,1,62,8|0,1:2|1:0,0:0:0:0:
289,242,19675,1,8,1:2:0:0:
74,366,20175,2,2,L|112:130,1,186,12|0,1:2|0:1,0:1:0:0:
62,113,20675,5,4,1:2:0:0:
154,61,20925,1,2,0:0:0:0:
213,148,21175,1,8,1:2:0:0:
316,126,21425,1,2,3:2:0:0:
381,208,21675,2,0,P|391:278|309:323,1,158.100003015518,0|2,1:2|0:0,0:0:0:0:
251,358,22175,2,0,P|216:313|232:263,1,105.400002010345,8|0,1:2|0:0,0:0:0:0:
128,230,22675,6,0,L|48:258,2,52.7000010051727,0|2|2,1:2|0:0|3:2,0:0:0:0:
196,149,23175,1,10,1:2:0:0:
111,86,23425,1,2,3:2:0:0:
202,32,23675,2,0,L|368:87,1,158.100003015518,2|2,1:2|0:0,0:0:0:0:
430,50,24175,2,0,L|451:159,1,105.400002010345,8|0,1:2|0:0,0:0:0:0:
394,243,24675,6,0,P|327:234|288:365,1,210.800004020691,4|8,1:3|1:2,0:0:0:0:
276,347,25341,2,0,L|197:324,1,70.266668006897,2|2,0:0|0:0,0:0:0:0:
149,269,25675,2,0,L|81:288,2,70.266668006897,2|2|2,1:2|0:0|0:0,0:0:0:0:
189,199,26175,1,8,1:2:0:0:
60,106,26550,5,2,3:0:0:0:
60,106,26675,2,0,P|116:94|201:34,1,158.100003015518,2|2,1:2|0:2,0:0:0:0:
275,22,27175,2,0,P|311:31|367:77,1,105.400002010345,8|2,1:2|3:0,0:0:0:0:
278,204,27675,1,0,1:0:0:0:
278,204,27800,2,0,P|298:170|367:191,1,105.400002010345,4|0,1:3|0:0,0:0:0:0:
394,250,28175,2,0,L|176:180,1,210.800004020691,4|4,1:0|1:2,0:0:0:0:
79,295,29050,5,2,3:2:0:0:
79,295,29175,2,0,P|16:240|40:176,1,158.100003015518,10|2,1:2|0:0,0:0:0:0:
103,127,29675,2,0,P|109:96|39:51,1,105.400002010345,0|2,1:0|3:2,0:0:0:0:
212,93,30175,2,0,P|304:124|402:159,1,158.100003015518,10|0,1:2|3:0,0:0:0:0:
427,99,30675,5,4,1:3:0:0:
493,247,31050,1,2,0:0:0:0:
493,247,31175,2,0,P|411:269|336:294,1,158.100003015518,10|2,1:2|0:0,0:0:0:0:
266,272,31675,2,0,P|271:247|276:219,2,52.7000010051727,0|2|2,1:2|0:0|3:2,0:0:0:0:
176,328,32175,2,0,P|104:300|107:210,1,158.100003015518,10|0,1:2|0:0,0:0:0:0:
172,192,32675,5,4,1:3:0:0:
68,72,33050,1,2,3:2:0:0:
68,72,33175,2,0,P|139:59|223:109,1,158.100003015518,8|2,1:2|3:2,0:0:0:0:
298,95,33675,2,0,P|336:85|376:48,2,52.7000010051727,0|0|2,1:0|3:0|3:0,0:0:0:0:
275,178,34050,1,0,0:0:0:0:
275,178,34175,2,0,P|265:280|257:374,1,158.100003015518,8|2,1:2|3:0,0:0:0:0:
338,370,34675,6,0,P|396:344|383:279,1,105.400002010345,8|2,1:2|1:2,0:0:0:0:
484,303,35050,2,0,P|506:243|451:206,1,105.400002010345,8|2,1:2|1:2,0:0:0:0:
430,153,35425,2,0,L|360:183,1,52.7000010051727,0|0,1:0|1:0,0:0:0:0:
308,136,35675,1,12,1:2:0:0:
171,296,36175,2,2,L|-24:240,1,158.100003015518,6|0,1:1|0:1,0:1:0:0:
31,172,36675,6,0,L|15:82,2,86.7999973510743,4|2|0,1:2|3:0|1:2,0:0:0:0:
129,116,37425,1,2,0:0:0:0:
203,197,37675,2,0,L|187:282,2,86.7999973510743,0|2|0,1:0|3:0|1:0,0:0:0:0:
292,127,38425,1,2,0:0:0:0:
367,211,38675,6,0,P|449:208|462:158,1,130.199996026611,0|2,1:0|0:0,0:0:0:0:
508,99,39175,2,0,P|491:50|459:38,1,86.7999973510743,0|2,1:0|0:0,0:0:0:0:
352,9,39675,2,0,L|207:50,1,130.199996026611,0|2,1:0|0:0,0:0:0:0:
181,109,40175,1,0,1:0:0:0:
181,109,40300,2,0,L|117:87,2,43.3999986755371,0|2|0,1:0|0:0|0:0,0:0:0:0:
208,186,40675,6,0,L|225:283,2,86.7999973510743,0|0|0,1:0|3:2|1:0,0:0:0:0:
317,213,41425,1,2,0:0:0:0:
375,116,41675,2,0,L|389:30,2,86.7999973510743,2|0|0,1:2|3:0|1:0,0:0:0:0:
459,191,42425,2,0,L|478:272,1,43.3999986755371,12|12,1:3|1:3,0:0:0:0:
422,298,42675,5,8,1:0:0:0:
198,163,43425,6,0,L|184:96,2,43.3999986755371,0|0|2,3:0|3:0|3:0,0:0:0:0:
300,207,43925,1,0,1:0:0:0:
210,273,44175,1,4,1:2:0:0:
210,273,44300,2,0,L|82:238,1,111.599996594238,0|0,1:0|0:0,0:0:0:0:
27,276,44675,5,4,1:2:0:0:
14,133,44925,2,0,P|40:99|32:56,1,71.3000013599396,2|0,3:2|1:0,0:0:0:0:
103,25,45175,2,0,P|147:69|237:77,1,142.600002719879,8|2,1:2|3:2,0:0:0:0:
384,87,45675,1,0,1:2:0:0:
384,87,45800,2,0,P|377:149|284:165,1,142.600002719879,0|2,1:3|0:0,0:0:0:0:
255,233,46175,2,0,P|231:213|163:202,1,71.3000013599396,8|0,1:2|0:0,0:0:0:0:
160,271,46425,2,0,P|184:291|252:302,1,71.3000013599396,2|0,3:2|0:0,0:0:0:0:
300,308,46675,5,0,1:0:0:0:
420,208,46925,2,0,P|438:153|432:103,1,71.3000013599396,2|0,3:2|3:0,0:0:0:0:
380,86,47175,2,0,P|442:52|512:37,2,142.600002719879,8|2|2,1:2|3:0|1:2,0:0:0:0:
306,112,47800,2,0,P|230:93|164:31,1,142.600002719879,0|2,3:0|3:2,3:0:0:0:
108,83,48175,2,0,P|64:98|33:130,2,71.3000013599396,8|0|2,1:2|1:0|3:0,0:0:0:0:
23,216,48675,5,0,1:0:0:0:
111,345,48925,2,0,P|82:323|48:314,1,71.3000013599396,2|0,3:2|3:0,3:0:0:0:
110,245,49175,2,0,P|158:245|212:361,1,142.600002719879,8|2,1:2|3:2,0:0:0:0:
363,372,49675,1,0,1:0:0:0:
363,372,49800,2,0,P|448:343|459:257,1,142.600002719879,0|2,3:0|0:0,0:0:0:0:
506,232,50175,2,0,P|490:188|440:175,2,71.3000013599396,8|0|2,1:2|0:0|3:2,0:0:0:0:
350,210,50675,6,0,P|373:129|374:-6,1,213.900004079819,0|2,1:0|0:0,0:0:0:0:
298,16,51175,2,0,P|247:40|233:128,1,142.600002719879,8|2,1:2|3:0,0:0:0:0:
128,239,51675,1,0,1:0:0:0:
128,239,51800,2,0,P|57:194|63:125,1,142.600002719879,0|0,1:0|0:0,0:0:0:0:
121,99,52175,1,8,1:2:0:0:
121,99,52300,1,2,3:2:0:0:
217,313,52675,6,0,P|210:246|195:197,1,71.3000013599396,4|0,1:2|0:0,0:0:0:0:
287,230,52925,2,0,P|292:265|294:300,1,71.3000013599396,2|0,3:2|0:0,0:0:0:0:
351,356,53175,2,0,P|392:325|510:290,1,142.600002719879,8|2,1:2|0:0,0:0:0:0:
488,215,53550,2,0,P|467:181|418:166,1,71.3000013599396,2|0,3:0|1:0,0:0:0:0:
366,130,53800,1,0,1:0:0:0:
366,130,53925,2,0,P|383:100|414:83,1,71.3000013599396,2|0,3:2|0:0,0:0:0:0:
458,18,54175,1,8,1:2:0:0:
301,1,54425,2,0,L|290:85,1,71.3000013599396,2|2,0:0|0:0,0:0:0:0:
218,101,54675,6,0,B|159:98|109:135|146:164|99:210|27:194,1,213.900004079819,4|4,1:2|3:0,0:0:0:0:
67,277,55175,2,0,B|122:274|173:311|135:340|182:386|241:372,1,213.900004079819,4|2,1:2|0:0,0:0:0:0:
292,304,55675,2,0,L|276:220,2,71.3000013599396,6|2|2,1:2|3:2|3:2,0:0:0:0:
371,335,56050,5,2,3:2:0:0:
371,335,56175,2,0,L|486:303,1,71.3000013599396,12|0,1:2|0:0,0:0:0:0:
480,240,56425,2,0,L|365:208,1,71.3000013599396,2|0,0:0|0:0,0:0:0:0:
365,147,56675,5,4,1:3:0:0:
482,107,56925,1,4,1:3:0:0:
122,11,57675,5,4,1:3:0:0:
239,51,57925,1,4,1:3:0:0:
330,368,58675,5,8,1:3:0:0:
311,213,58925,1,8,1:3:0:0:
246,353,59175,1,8,1:3:0:0:
227,199,59425,1,8,1:3:0:0:
163,340,59675,1,8,1:3:0:0:
144,185,59925,1,8,1:3:0:0:
77,325,60175,1,8,1:3:0:0:
58,171,60425,1,8,1:3:0:0:
0,256,60675,5,0,1:0:0:0:
447,42,61925,6,0,L|373:72,1,49.6,0|4,1:0|3:0,0:0:0:0:
351,117,62175,2,2,L|122:62,1,223.199993188477,6|0,1:1|0:1,0:1:0:0:
67,117,62675,6,0,P|23:192|156:214,1,248,4|10,1:2|1:2,0:0:0:0:
388,250,63675,2,0,P|454:255|442:357,1,186,2|2,1:2|0:0,0:0:0:0:
365,370,64175,2,0,P|339:332|246:333,1,124,8|2,1:2|1:0,0:0:0:0:
155,377,64675,5,0,1:0:0:0:
66,290,64925,1,2,0:0:0:0:
168,219,65175,2,0,P|205:181|171:91,1,124,10|0,1:2|3:0,0:0:0:0:
86,58,65675,2,0,P|154:84|239:-4,1,186,2|2,1:2|1:2,0:0:0:0:
319,28,66175,2,0,P|364:43|387:51,3,62,10|2|2|2,1:2|0:0|3:0|0:0,0:0:0:0:
377,137,66675,5,2,1:2:0:0:
377,137,66800,2,0,P|365:225|357:281,1,124,2|2,0:0|0:0,0:0:0:0:
291,304,67175,2,0,L|305:373,2,62,8|2|2,1:2|0:0|0:0,0:0:0:0:
198,230,67675,1,2,1:2:0:0:
198,230,67800,2,0,P|128:252|108:313,1,124,2|2,0:0|0:0,0:0:0:0:
31,326,68175,2,0,L|17:257,2,62,8|2|2,1:2|0:0|3:2,0:0:0:0:
144,375,68675,6,0,L|273:333,1,124,8|4,1:2|1:3,0:0:0:0:
288,259,69050,2,0,L|417:301,1,124,8|4,1:2|1:3,0:0:0:0:
483,258,69425,1,8,1:2:0:0:
382,194,69675,1,4,1:3:0:0:
382,194,69800,2,0,B|338:149|338:149|365:81,1,124,8|4,1:2|1:3,0:0:0:0:
440,76,70175,1,6,1:0:0:0:
341,0,70425,2,0,L|278:27,1,62,0|4,1:0|1:3,0:0:0:0:
203,6,70675,5,6,1:2:0:0:
149,117,70925,1,2,3:2:0:0:
33,72,71175,2,0,P|2:122|39:181,1,124,10|0,1:2|3:0,0:0:0:0:
142,225,71675,1,2,1:2:0:0:
142,225,71800,2,0,P|206:233|207:316,1,124,0|2,1:2|0:0,0:0:0:0:
156,341,72175,2,0,L|79:317,2,62,8|0|2,1:2|0:0|3:0,0:0:0:0:
274,377,72675,5,2,1:2:0:0:
274,377,72800,2,0,L|338:356,1,62,2|2,0:0|3:2,0:0:0:0:
374,287,73050,2,0,L|444:309,1,62,2|8,3:0|3:2,3:0:0:0:
497,251,73300,2,0,L|470:120,1,124,2|2,0:0|0:0,0:0:0:0:
502,56,73675,1,0,1:0:0:0:
379,72,73925,2,0,L|395:9,1,62,2|2,3:2|0:0,0:0:0:0:
300,29,74175,2,0,L|219:49,1,62,10|2,1:2|0:2,0:0:0:0:
147,27,74425,2,0,L|162:87,1,62,2|2,3:2|0:2,0:0:0:0:
110,162,74675,6,0,P|53:191|79:303,1,186,2|2,1:2|0:0,0:0:0:0:
154,278,75175,1,8,1:2:0:0:
253,351,75425,1,2,3:2:0:0:
339,261,75675,2,0,B|339:149|282:212|293:72,1,186,2|2,1:2|0:0,0:0:0:0:
345,28,76175,1,8,1:2:0:0:
222,8,76425,1,2,3:2:0:0:
187,152,76675,6,0,P|156:158|140:65,1,148.799995458985,8|0,1:2|1:2,0:0:0:0:
67,6,77050,2,0,P|26:98|36:174,1,148.799995458985,10|0,1:2|1:0,0:0:0:0:
3,221,77425,2,0,P|23:261|48:288,1,74.3999977294923,2|2,1:2|1:2,0:0:0:0:
123,268,77675,1,6,1:2:0:0:
237,363,77925,6,0,P|266:340|302:339,1,74.3999977294923,2|2,3:0|3:0,0:0:0:0:
371,296,78175,2,0,L|417:312,4,49.5999984863282,0|0|0|0|0,1:0|1:0|1:0|1:0|1:0,0:0:0:0:
319,231,78675,6,0,L|298:130,1,62,4|0,1:2|0:0,0:0:0:0:
352,105,78925,2,0,L|360:31,1,62,4|0,1:3|0:0,0:0:0:0:
284,0,79175,2,0,L|137:56,1,124,8|2,1:0|1:2,0:0:0:0:
83,134,79675,1,8,1:2:0:0:
83,134,79800,2,0,P|146:147|150:215,1,124,0|4,1:0|1:3,0:0:0:0:
82,240,80175,1,8,1:0:0:0:
167,330,80425,2,0,P|194:318|233:307,1,62,4|0,1:3|0:0,0:0:0:0:
312,337,80675,6,0,P|298:237|288:186,2,124,4|4|8,1:3|1:3|1:0,0:0:0:0:
399,247,81425,1,4,1:3:0:0:
489,310,81675,1,8,1:2:0:0:
489,310,81800,2,0,P|500:249|508:188,1,124,0|0,1:2|1:0,0:0:0:0:
463,118,82175,1,8,1:0:0:0:
367,163,82425,1,4,1:3:0:0:
492,32,82675,6,0,P|434:-2|366:24,1,124,4|4,1:2|1:3,0:0:0:0:
293,97,83175,1,8,1:0:0:0:
180,45,83425,1,4,1:3:0:0:
134,160,83675,1,8,1:2:0:0:
134,160,83800,2,0,P|191:194|259:167,1,124,4|0,1:3|1:0,3:0:0:0:
330,181,84175,2,0,P|312:298|306:350,1,124,8|4,1:0|1:3,0:0:0:0:
199,356,84675,6,0,B|121:338|180:318|70:288,1,124,12|4,1:2|1:3,0:0:0:0:
37,233,85050,2,0,P|20:197|34:154,1,62,2|12,0:0|1:2,0:0:0:0:
138,132,85425,1,4,1:3:0:0:
58,36,85675,1,8,1:2:0:0:
58,36,85800,2,0,P|121:19|198:1,1,124,0|4,1:0|1:3,0:0:0:0:
254,39,86175,2,0,L|331:66,1,62,8|4,1:2|1:3,0:0:0:0:
342,133,86425,2,0,L|419:106,1,62,4|4,1:3|1:3,0:0:0:0:
465,54,86675,6,0,P|487:120|486:233,1,136.400004162598,4|4,1:2|1:3,0:0:0:0:
437,252,87050,2,0,P|418:309|404:337,1,68.2000020812989,4|0,1:2|0:0,0:0:0:0:
340,356,87300,1,4,1:3:0:0:
340,356,87425,1,4,1:2:0:0:
224,196,87675,2,0,L|295:215,1,68.2000020812989,2|4,1:2|1:3,0:0:0:0:
256,286,87925,2,0,L|190:268,1,68.2000020812989,2|4,1:2|1:3,0:0:0:0:
138,202,88175,1,0,1:0:0:0:
138,202,88300,2,0,B|113:135|113:135|206:52,1,136.400004162598,4|4,1:3|0:3,0:0:0:0:
203,17,88675,5,4,1:2:0:0:
311,108,88925,1,4,1:3:0:0:
311,108,89050,2,0,P|387:81|459:64,1,136.400004162598,4|4,1:2|1:3,0:0:0:0:
494,134,89425,2,0,P|476:181|470:227,1,68.2000020812989,4|0,1:2|0:0,0:0:0:0:
411,250,89675,1,8,1:2:0:0:
411,250,89800,2,0,P|387:184|389:154,2,68.2000020812989,4|2|4,3:3|1:2|3:3,0:0:0:0:
313,157,90175,1,0,1:2:0:0:
313,157,90300,2,0,P|289:223|291:253,2,68.2000020812989,2|2|2,3:2|0:0|0:0,0:0:0:0:
226,135,90675,6,0,P|152:168|147:249,1,136.400004162598,4|4,1:2|1:3,0:0:0:0:
55,221,91050,2,0,P|46:301|114:346,1,136.400004162598,4|4,1:2|1:3,0:0:0:0:
160,309,91425,1,4,1:2:0:0:
278,240,91675,2,0,P|301:280|301:320,1,68.2000020812989,8|2,1:2|1:2,0:0:0:0:
364,354,91925,2,0,P|387:314|387:274,1,68.2000020812989,2|2,1:2|1:2,0:0:0:0:
450,227,92175,1,4,3:0:0:0:
450,227,92300,2,0,L|370:195,2,68.2000020812989,0|4|0,0:0|3:0|0:0,0:0:0:0:
491,151,92675,5,2,1:2:0:0:
375,57,92925,2,0,L|262:102,1,74.3999977294923,4|0,1:2|0:0,0:0:0:0:
258,142,93175,2,0,L|145:97,1,74.3999977294923,4|0,1:2|0:0,0:0:0:0:
221,46,93425,2,0,L|108:1,1,74.3999977294923,4|0,1:2|0:0,0:0:0:0:
105,77,93675,2,0,L|-8:122,1,74.3999977294923,4|0,1:2|0:0,0:0:0:0:
68,173,93925,2,0,L|-45:218,1,74.3999977294923,4|0,1:2|0:0,0:0:0:0:
53,268,94175,2,0,L|208:318,1,148.799995458985,4|4,1:2|1:2,0:0:0:0:
284,247,94675,5,6,3:0:0:0:
284,247,94800,2,0,P|325:198|282:139,1,111.599996594238,4|4,1:2|1:3,0:0:0:0:
233,147,95175,1,4,1:2:0:0:
289,50,95425,1,4,1:2:0:0:
177,51,95675,2,0,L|126:28,4,31.8857133126395,4|4|0|0|0,3:0|3:0|0:0|0:0|3:0,0:0:0:0:
135,123,96175,1,4,1:0:0:0:
48,33,96675,6,0,P|39:104|276:229,1,372,2|0,0:2|0:0,0:1:0:0:
359,93,98675,1,4,1:2:0:0:
94,352,106675,6,0,P|33:315|56:267,1,105.400002010345,4|2,1:2|0:0,0:0:0:0:
111,197,107175,2,0,P|162:224|266:276,1,158.100003015518,2|2,1:2|0:0,0:0:0:0:
330,265,107675,2,0,B|354:218|354:218|324:160,1,105.400002010345,0|2,1:0|3:2,0:0:0:0:
230,133,108175,1,2,1:2:0:0:
310,64,108425,2,0,L|374:88,1,52.7000010051727,2|2,0:0|0:0,0:0:0:0:
437,51,108675,6,0,P|483:99|460:218,1,186,4|0,1:2|0:0,0:0:0:0:
432,291,109175,2,0,P|373:277|342:215,1,124,4|0,1:2|0:0,0:0:0:0:
273,122,109675,2,0,P|225:168|106:145,1,186,4|0,1:2|0:0,0:0:0:0:
33,117,110175,2,0,P|47:58|109:27,1,124,4|2,1:2|0:2,0:0:0:0:
220,4,110675,5,4,1:3:0:0:
337,44,110925,1,4,1:3:0:0:
43,272,111675,5,4,1:3:0:0:
160,232,111925,1,4,1:3:0:0:
444,348,112550,5,0,1:0:0:0:
444,348,112675,2,0,L|478:184,1,155,12|4,1:2|1:3,0:0:0:0:
425,135,113050,1,4,1:3:0:0:
425,135,113175,2,0,L|402:47,1,77.5,2|4,1:2|1:3,0:0:0:0:
323,73,113425,2,0,L|342:147,1,77.5,4|4,1:3|1:3,0:0:0:0:
296,225,113675,2,0,P|193:211|176:145,1,155,6|4,1:3|1:3,0:0:0:0:
190,85,114050,1,4,1:3:0:0:
190,85,114175,2,0,P|158:43|48:64,1,155,4|0,1:0|1:0,0:0:0:0:
5,112,114550,5,4,1:3:0:0:
5,112,114675,1,4,1:2:0:0:
26,252,114925,2,0,L|93:229,1,71.3000013599396,2|0,3:2|3:0,0:0:0:0:
170,181,115175,2,0,L|197:274,1,71.3000013599396,10|0,1:2|0:0,0:0:0:0:
148,324,115425,2,0,L|215:346,1,71.3000013599396,2|0,3:2|0:0,0:0:0:0:
290,308,115675,1,4,1:3:0:0:
290,308,115800,2,0,B|304:234|320:151,1,142.600002719879,0|2,1:0|0:0,0:0:0:0:
390,131,116175,2,0,P|395:64|333:39,1,142.600002719879,8|2,1:2|3:2,0:0:0:0:
229,136,116675,5,0,1:0:0:0:
133,30,116925,2,0,P|121:81|112:120,1,71.3000013599396,2|0,3:2|0:0,0:0:0:0:
37,134,117175,2,0,B|25:167|25:167|42:198,1,71.3000013599396,10|0,1:2|0:0,0:0:0:0:
124,203,117425,2,0,B|141:234|141:234|129:267,1,71.3000013599396,2|0,3:2|0:0,0:0:0:0:
73,336,117675,1,2,1:2:0:0:
73,336,117800,2,0,L|210:377,1,142.600002719879,2|4,1:2|1:3,0:0:0:0:
284,329,118175,1,8,1:2:0:0:
284,329,118300,2,0,L|263:255,2,71.3000013599396,0|2|0,1:2|0:0|3:0,0:0:0:0:
361,364,118675,5,0,1:0:0:0:
454,256,118925,2,0,P|486:229|475:158,1,71.3000013599396,2|0,3:2|3:0,0:0:0:0:
433,137,119175,2,0,P|342:161|278:179,2,142.600002719879,10|2|0,1:2|3:2|1:0,0:0:0:0:
481,71,119800,2,0,P|443:11|359:30,1,142.600002719879,4|2,1:3|3:2,0:0:0:0:
300,12,120175,1,8,1:2:0:0:
188,100,120425,2,0,P|157:118|124:130,1,71.3000013599396,2|2,3:2|0:0,0:0:0:0:
51,83,120675,6,0,P|40:168|37:230,1,142.600002719879,2|2,1:2|0:0,0:0:0:0:
94,283,121050,2,0,P|101:330|112:367,1,71.3000013599396,2|8,0:0|1:2,0:0:0:0:
195,345,121300,1,2,0:0:0:0:
195,345,121425,2,0,B|289:321|209:299|348:269,1,142.600002719879,2|0,0:0|1:2,0:0:0:0:
373,340,121800,2,0,P|439:310|424:207,1,142.600002719879,4|0,1:3|3:0,0:0:0:0:
509,177,122175,1,8,1:2:0:0:
509,177,122300,2,0,L|352:125,1,142.600002719879,2|0,0:0|1:0,0:0:0:0:
336,58,122675,5,4,1:0:0:0:
221,142,122925,1,2,3:2:0:0:
101,64,123175,2,0,P|34:104|52:192,1,142.600002719879,8|2,1:2|0:0,0:0:0:0:
91,219,123550,2,0,P|127:231|164:250,1,71.3000013599396,2|0,0:0|1:0,0:0:0:0:
198,321,123800,1,2,1:2:0:0:
198,321,123925,2,0,P|228:310|270:302,1,71.3000013599396,2|0,3:2|0:0,0:0:0:0:
335,354,124175,1,8,1:2:0:0:
445,245,124425,2,0,L|434:158,1,71.3000013599396,2|2,3:2|0:0,0:0:0:0:
486,110,124675,6,0,P|453:47|369:45,1,142.600002719879,4|4,1:2|1:3,0:0:0:0:
324,99,125050,1,4,3:0:0:0:
324,99,125175,2,0,P|252:96|209:167,1,142.600002719879,4|4,1:2|1:3,0:0:0:0:
241,234,125550,1,4,3:0:0:0:
241,234,125675,2,0,P|273:240|308:258,1,71.3000013599396,4|2,1:2|3:2,0:0:0:0:
279,333,125925,2,0,P|247:316|212:309,1,71.3000013599396,4|2,3:0|3:2,0:0:0:0:
136,370,126175,2,0,P|117:267|108:207,1,142.600002719879,10|2,1:2|3:2,0:0:0:0:
184,129,126675,5,4,1:3:0:0:
66,87,126925,1,4,1:3:0:0:
431,342,127675,5,4,1:3:0:0:
313,384,127925,1,4,1:3:0:0:
497,30,128675,5,4,1:2:0:0:
478,185,128925,1,4,1:2:0:0:
413,45,129175,1,4,1:2:0:0:
394,199,129425,1,4,1:2:0:0:
330,58,129675,1,4,1:2:0:0:
311,213,129925,1,4,1:2:0:0:
244,73,130175,1,4,1:2:0:0:
225,227,130425,1,4,1:2:0:0:
167,142,130675,5,0,1:2:0:0:
62,316,131675,6,0,L|43:229,1,62,4|0,1:3|0:0,0:0:0:0:
128,234,131925,2,0,L|141:294,1,62,4|0,1:3|0:0,0:0:0:0:
208,354,132175,1,2,1:2:0:0:
208,354,132300,2,0,L|278:331,1,62,4|0,1:3|0:0,0:0:0:0:
357,369,132550,6,0,B|377:270|315:335|346:178,1,142.600002719879,4|0,1:0|0:0,0:0:0:0:
403,185,132925,2,0,P|430:151|417:109,1,71.3000013599396,2|0,3:2|0:0,0:0:0:0:
358,73,133175,2,0,P|288:98|213:115,2,142.600002719879,10|2|2,1:2|3:2|1:2,0:0:0:0:
417,7,133800,2,0,P|466:5|500:90,1,142.600002719879,4|0,1:3|0:0,0:0:0:0:
509,169,134175,1,8,1:2:0:0:
509,169,134300,2,0,P|446:194|454:276,1,142.600002719879,2|2,3:2|1:2,0:0:0:0:
511,316,134675,5,0,1:2:0:0:
376,363,134925,1,2,3:2:0:0:
306,238,135175,2,0,P|318:176|325:139,1,71.3000013599396,8|0,1:2|0:0,0:0:0:0:
233,172,135425,2,0,P|226:207|219:242,1,71.3000013599396,2|0,3:2|0:0,0:0:0:0:
146,293,135675,1,0,1:0:0:0:
146,293,135800,2,0,B|76:282|76:282|54:188,1,142.600002719879,4|0,1:3|0:0,0:0:0:0:
120,151,136175,1,10,1:2:0:0:
120,151,136300,2,0,L|138:36,1,71.3000013599396,2|0,3:2|1:0,0:0:0:0:
116,0,136550,6,0,P|164:64|285:56,1,142.600002719879,4|0,1:2|0:0,0:0:0:0:
276,138,136925,2,0,P|337:118|359:76,1,71.3000013599396,2|0,3:2|0:0,0:0:0:0:
382,43,137175,1,8,1:2:0:0:
455,165,137425,2,0,L|437:246,1,71.3000013599396,2|0,3:2|0:0,0:0:0:0:
493,306,137675,1,2,1:2:0:0:
493,306,137800,2,0,B|441:318|441:318|427:339|427:339|360:353,1,142.600002719879,4|0,1:3|1:0,0:0:0:0:
279,370,138175,2,0,L|297:283,1,71.3000013599396,8|0,1:2|0:0,0:0:0:0:
244,232,138425,5,2,1:2:0:0:
244,232,138550,2,0,P|127:245|92:356,1,213.900004079819,4|4,1:0|1:3,0:0:0:0:
20,369,139050,2,0,P|3:282|13:264,1,71.3000013599396,4|2,1:2|3:0,0:0:0:0:
24,223,139300,1,0,1:0:0:0:
24,223,139425,2,0,P|73:150|93:143,1,71.3000013599396,4|0,1:2|0:0,0:0:0:0:
31,77,139675,1,0,1:0:0:0:
31,77,139800,2,0,P|100:37|191:63,1,142.600002719879,4|4,1:2|1:3,0:0:0:0:
248,38,140175,1,4,1:2:0:0:
248,38,140300,2,0,L|225:121,1,71.3000013599396,2|4,1:2|1:3,0:0:0:0:
167,170,140550,6,0,P|274:204|338:124,1,213.900004079819,4|2,1:0|3:2,0:0:0:0:
463,200,141175,2,0,P|471:267|418:309,1,142.600002719879,10|2,1:2|3:2,0:0:0:0:
287,361,141675,1,2,1:2:0:0:
287,361,141800,2,0,P|197:340|127:324,1,142.600002719879,4|0,1:3|0:0,0:0:0:0:
71,364,142175,2,0,B|53:329|53:329|64:287,1,71.3000013599396,8|2,1:2|0:0,0:0:0:0:
121,237,142425,2,0,B|139:202|139:202|128:160,1,71.3000013599396,2|2,3:2|1:2,0:0:0:0:
49,174,142675,5,0,1:0:0:0:
141,65,142925,2,0,P|185:56|216:45,1,71.3000013599396,2|0,3:2|0:0,0:0:0:0:
257,117,143175,2,0,P|301:125|332:136,1,71.3000013599396,10|0,1:2|0:0,0:0:0:0:
405,98,143425,2,0,P|400:52|397:5,1,71.3000013599396,2|0,3:2|0:0,0:0:0:0:
482,32,143675,1,2,1:2:0:0:
482,32,143800,2,0,P|488:96|497:198,1,142.600002719879,4|0,1:3|0:0,0:0:0:0:
444,242,144175,2,0,L|366:218,2,71.3000013599396,14|2|2,1:2|3:2|3:2,0:0:0:0:
475,321,144550,6,0,L|210:368,1,213.900004079819,4|2,1:2|3:2,0:0:0:0:
139,289,145175,1,8,1:2:0:0:
26,374,145425,1,2,3:2:0:0:
26,374,145550,2,0,P|50:299|54:246,1,71.3000013599396,2|0,0:0|1:0,0:0:0:0:
12,228,145800,1,4,1:3:0:0:
12,228,145925,2,0,P|-11:152|-12:135,1,71.3000013599396,2|0,3:2|0:0,0:0:0:0:
52,98,146175,1,8,1:2:0:0:
52,98,146300,2,0,P|119:99|178:200,1,142.600002719879,4|0,1:3|0:0,0:0:0:0:
241,199,146675,5,4,1:2:0:0:
275,99,146925,2,0,P|337:111|355:182,1,105.400002010345,4|0,3:0|0:0,0:0:0:0:
431,179,147300,2,0,P|409:289|395:356,1,158.100003015518,4|4,3:0|1:0,0:0:0:0:
193,378,148175,2,0,P|177:300|165:237,1,105.400002010345,4|0,1:2|0:0,0:0:0:0:
99,233,148550,6,0,P|116:142|131:68,1,124,4|4,1:2|3:0,0:0:0:0:
166,45,148925,2,0,P|206:66|218:107,1,62,4|4,3:0|3:0,0:0:0:0:
281,135,149175,1,4,1:2:0:0:
281,135,149300,2,0,P|234:182|222:185,2,62,2|2|0,0:0|3:0|0:0,0:0:0:0:
358,93,149675,1,0,1:0:0:0:
358,93,149800,2,0,P|425:101|452:173,1,124,4|0,1:3|0:0,0:0:0:0:
503,223,150175,2,0,L|486:295,1,62,8|0,1:2|0:0,0:0:0:0:
412,313,150425,2,0,L|397:252,1,62,2|2,3:2|3:2,0:0:0:0:
317,227,150675,5,0,1:0:0:0:
131,349,150925,2,0,P|84:309|87:264,1,62,2|0,3:2|0:0,0:0:0:0:
124,243,151175,1,10,1:2:0:0:
124,243,151300,2,0,P|152:215|197:209,2,62,2|2|2,3:2|3:2|3:2,0:0:0:0:
48,209,151675,1,2,1:2:0:0:
48,209,151800,2,0,P|15:132|60:82,1,124,4|0,1:3|0:0,0:0:0:0:
89,45,152175,2,0,L|236:104,1,136.400004162598,6|0,1:0|0:0,0:0:0:0:
283,145,152550,6,0,L|469:95,1,186,4|2,1:2|3:2,0:0:0:0:
414,213,153175,1,10,1:2:0:0:
414,213,153300,2,0,L|396:280,2,62,2|2|2,0:2|3:2|0:2,0:0:0:0:
498,240,153675,1,2,1:2:0:0:
498,240,153800,2,0,L|516:388,1,124,4|0,1:3|0:0,0:0:0:0:
425,371,154175,2,0,L|256:330,1,124,2|4,1:0|1:3,0:0:0:0:
259,271,154550,5,4,1:2:0:0:
90,349,154925,1,4,1:3:0:0:
90,349,155050,2,0,P|138:274|86:224,1,124,4|4,1:2|1:3,0:0:0:0:
121,162,155425,2,0,L|61:186,1,62,4|0,1:2|0:0,0:0:0:0:
37,107,155675,1,4,1:3:0:0:
37,107,155800,2,0,P|-11:32|41:-18,1,124,4|4,1:2|1:3,0:0:0:0:
84,8,156175,2,0,P|148:26|219:43,1,124,2|0,1:0|1:0,0:0:0:0:
282,1,156550,6,0,P|323:80|281:159,1,186,4|2,3:2|3:2,3:0:0:0:
198,252,157175,1,10,1:2:0:0:
198,252,157300,2,0,P|179:211|145:189,2,62,2|2|2,0:2|3:2|0:2,0:0:0:0:
165,331,157675,1,2,1:2:0:0:
165,331,157800,2,0,P|228:368|337:367,1,124,4|0,3:3|3:0,3:0:0:0:
319,302,158175,2,0,P|382:265|491:266,1,124,10|2,1:2|0:0,0:0:0:0:
497,311,158550,5,2,3:0:0:0:
497,311,158675,1,0,1:2:0:0:
502,187,158925,2,0,L|481:87,1,62,2|0,3:2|0:0,0:0:0:0:
429,71,159175,1,10,1:2:0:0:
429,71,159300,2,0,L|439:0,2,62,2|2|2,0:2|3:2|0:2,0:0:0:0:
353,109,159675,1,2,1:2:0:0:
353,109,159800,2,0,B|285:90|306:74|215:43,1,124,4|0,1:3|0:0,0:0:0:0:
153,49,160175,2,0,P|179:133|183:213,1,124,4|0,1:2|0:0,0:0:0:0:
130,241,160550,6,0,P|93:227|8:339,1,186,4|2,1:2|3:2,0:0:0:0:
117,362,161175,2,0,L|197:339,1,62,10|2,1:2|0:2,0:0:0:0:
224,276,161425,2,0,L|304:299,1,62,2|2,3:2|0:2,0:0:0:0:
353,352,161675,1,2,1:2:0:0:
353,352,161800,2,0,P|406:304|384:228,1,124,4|0,1:3|0:0,0:0:0:0:
352,191,162175,2,0,P|286:148|302:72,1,124,8|4,1:2|3:0,0:0:0:0:
341,46,162550,5,4,0:0:0:0:
157,13,162925,2,0,L|129:156,1,124,4|4,1:3|1:3,0:0:0:0:
27,199,163425,1,4,1:3:0:0:
133,262,163675,2,0,L|220:225,1,62,4|0,1:3|0:0,0:0:0:0:
229,309,163925,2,0,L|316:346,1,62,4|0,1:3|0:0,0:0:0:0:
364,299,164175,1,2,1:0:0:0:
364,299,164300,2,0,L|394:120,1,124,0|0,1:3|0:3,0:0:0:0:
458,140,164675,6,0,P|471:83|404:39,1,136.400004162598,4|0,1:2|1:0,0:0:0:0:
330,13,165050,2,0,L|170:72,1,136.400004162598,4|0,1:3|1:0,0:0:0:0:
124,31,165425,1,4,1:3:0:0:
50,145,165675,1,0,1:0:0:0:
50,145,165800,2,0,P|106:180|96:272,1,136.400004162598,4|0,1:3|1:0,0:0:0:0:
68,315,166175,2,0,L|147:346,1,68.2000020812989,4|0,1:3|0:0,0:0:0:0:
191,280,166425,2,0,L|270:249,1,68.2000020812989,4|0,1:3|0:0,0:0:0:0:
332,292,166675,6,0,P|357:239|430:241,1,136.400004162598,4|0,1:2|1:0,0:0:0:0:
504,200,167050,2,0,P|507:135|451:104,1,136.400004162598,4|4,1:2|1:3,0:0:0:0:
390,42,167425,2,0,B|332:61|332:61|323:77|323:77|261:99,1,136.400004162598,4|4,1:2|1:3,0:0:0:0:
209,153,167800,2,0,L|117:129,1,68.2000020812989,4|0,1:2|0:0,0:0:0:0:
90,75,168050,1,4,1:3:0:0:
90,75,168175,2,0,P|47:132|49:159,1,68.2000020812989,4|0,1:2|1:0,0:0:0:0:
13,201,168425,2,0,P|40:266|65:278,1,68.2000020812989,4|0,1:3|0:0,0:0:0:0:
120,266,168675,5,4,1:2:0:0:
224,353,168925,1,4,1:3:0:0:
224,353,169050,2,0,P|264:285|320:296,1,136.400004162598,4|4,1:2|1:3,0:0:0:0:
387,332,169425,2,0,P|412:353|456:357,1,68.2000020812989,4|0,3:2|0:0,3:0:0:0:
500,294,169675,1,4,3:3:0:0:
500,294,169800,2,0,L|488:237,4,34.1000010406494,4|4|4|4|4,1:3|1:3|3:0|3:0|3:0,0:0:0:0:
415,239,170175,2,0,L|427:194,4,45.4666680541993,4|4|4|4|4,1:3|1:3|1:3|1:3|1:3,0:0:0:0:
342,194,170675,6,0,B|194:155|312:118|141:68,1,223.199993188477,6|0,1:0|0:0,0:0:0:0:
