osu file format v14

[General]
AudioFilename: audio.mp3
AudioLeadIn: 0
PreviewTime: 65622
Countdown: 0
SampleSet: Soft
StackLeniency: 0.4
Mode: 0
LetterboxInBreaks: 1
WidescreenStoryboard: 1

[Editor]
DistanceSpacing: 1.5
BeatDivisor: 4
GridSize: 8
TimelineZoom: 2.400001

[Metadata]
Title:Saying Yes (Trias Remix)
TitleUnicode:Saying Yes (Trias Remix)
Artist:HOPEX & Calli Boom
ArtistUnicode:HOPEX & Calli Boom
Creator:Xizis
Version:Medium
Source:
Tags:Trap xKitoMusic HOPEX CalliBoom osu weird map
BeatmapID:2075996
BeatmapSetID:992706

[Difficulty]
HPDrainRate:4.7
CircleSize:3.6
OverallDifficulty:6.5
ApproachRate:8
SliderMultiplier:1.4
SliderTickRate:1

[Events]
//Background and Video events
0,0,"revolmxd-abby-my-boy3.jpg",0,0
//Break Periods
2,93937,99413
2,107089,112714
//Storyboard Layer 0 (Background)
//Storyboard Layer 1 (Fail)
//Storyboard Layer 2 (Pass)
//Storyboard Layer 3 (Foreground)
//Storyboard Layer 4 (Overlay)
//Storyboard Sound Samples

[TimingPoints]
40,410.958904109589,4,1,1,100,1,0
27985,-133.333333333333,4,2,1,100,0,0
34355,-100,4,1,2,100,0,0
34971,-100,4,1,2,100,0,0
36409,-100,4,1,2,100,0,0
36409,-100,4,1,2,100,0,0
39697,-125,4,1,2,100,0,0
40108,-100,4,1,2,100,0,0
54286,-100,4,3,1,100,0,0
67437,-66.6666666666667,4,2,1,100,0,1
68567,-83.3333333333333,4,2,1,100,0,1
69081,-66.6666666666667,4,2,1,100,0,1
70313,-100,4,2,1,100,0,1
70724,-66.6666666666667,4,2,1,100,0,1
71855,-133.333333333333,4,2,1,100,0,1
72368,-100,4,2,2,100,0,1
72574,-66.6666666666667,4,2,2,100,0,1
73190,-80,4,2,1,100,0,1
73344,-66.6666666666667,4,2,2,100,0,1
73807,-66.6666666666667,4,2,2,100,0,1
74320,-100,4,2,2,100,0,1
74834,-66.6666666666667,4,2,1,100,0,1
75450,-66.6666666666667,4,2,2,100,0,1
75964,-66.6666666666667,4,2,2,100,0,1
76272,-66.6666666666667,4,2,2,100,0,1
77916,-133.333333333333,4,2,2,100,0,1
78327,-66.6666666666667,4,2,2,100,0,1
78944,-200,4,2,2,100,0,1
79149,-66.6666666666667,4,2,2,100,0,1
79766,-200,4,2,2,100,0,1
79971,-66.6666666666667,4,2,2,100,0,1
81563,-100,4,2,2,100,0,1
81820,-66.6666666666667,4,2,2,100,0,1
86341,-66.6666666666667,4,2,1,100,0,1
86444,-66.6666666666667,4,2,2,100,0,1
87985,-66.6666666666667,4,2,1,100,0,1
88087,-66.6666666666667,4,2,2,100,0,1
89629,-66.6666666666667,4,2,1,100,0,1
89783,-66.6666666666667,4,2,2,100,0,1
91272,-66.6666666666667,4,2,1,100,0,1
91426,-66.6666666666667,4,2,2,100,0,1
92916,-66.6666666666667,4,2,1,100,0,1
93122,-133.333333333333,4,2,2,100,0,1
93738,-66.6666666666667,4,2,2,100,0,0
98670,-66.6666666666667,4,2,1,100,0,0
113464,-100,4,2,2,100,0,0
115313,-66.6666666666667,4,2,2,100,0,0
115416,-100,4,2,2,100,0,0
117060,-66.6666666666667,4,2,2,100,0,0
117163,-100,4,2,2,100,0,0
117882,-66.6666666666667,4,2,2,100,0,0
117985,-100,4,2,2,100,0,0
120245,-66.6666666666667,4,2,2,100,0,0
126615,-100,4,1,0,100,0,0
134012,-66.6666666666667,4,2,2,100,0,1
138122,-100,4,2,2,100,0,1
139355,-66.6666666666667,4,2,2,100,0,0
140587,-66.6666666666667,4,2,2,100,0,1
143361,-133.333333333333,4,2,2,100,0,1
143670,-66.6666666666667,4,2,2,100,0,1
143875,-100,4,2,2,100,0,1
144286,-66.6666666666667,4,2,2,100,0,1
145519,-66.6666666666667,4,2,1,100,0,1
145673,-66.6666666666667,4,2,2,100,0,1
146341,-66.6666666666667,4,2,2,100,0,0
147163,-66.6666666666667,4,2,1,100,0,0
147368,-66.6666666666667,4,2,2,100,0,0
147574,-66.6666666666667,4,2,3,100,0,0
147933,-66.6666666666667,4,2,2,100,0,1
148807,-66.6666666666667,4,2,1,100,0,1
148961,-66.6666666666667,4,2,2,100,0,1
152094,-200,4,2,2,100,0,1
152300,-66.6666666666667,4,2,2,100,0,1
153738,-66.6666666666667,4,2,1,100,0,1
153892,-66.6666666666667,4,2,2,100,0,1
155382,-66.6666666666667,4,2,1,100,0,1
155536,-66.6666666666667,4,2,2,100,0,1
157026,-66.6666666666667,4,2,1,100,0,1
157180,-66.6666666666667,4,2,2,100,0,1
158670,-66.6666666666667,4,2,1,100,0,1
159492,-66.6666666666667,4,2,1,100,0,0

[Colours]
Combo1 : 255,128,0
Combo2 : 85,255,255
Combo3 : 148,40,255
Combo4 : 255,0,0

[HitObjects]
159,64,13190,5,2,0:0:0:0:
432,160,13601,2,0,P|445:227|407:283,1,140,0|10,0:0|2:0,0:0:0:0:
80,272,14423,1,2,0:0:0:0:
288,224,14834,1,0,0:0:0:0:
224,80,15039,6,0,L|181:56,2,35,2|2|2,0:0|0:0|0:0,0:0:0:0:
442,133,15656,1,10,2:0:0:0:
160,304,16067,2,0,B|151:261|151:261|112:250,1,70,2|2,2:0|0:0,0:0:0:0:
102,72,16478,2,0,B|118:49|118:49|169:121|169:121|192:112,1,140,2|2,0:0|2:0,0:0:0:0:
359,59,17300,1,10,2:0:0:0:
102,195,17711,2,0,B|70:222|70:222|162:257,1,140,2|4,0:0|2:3,0:3:0:0:
360,312,18327,6,0,L|400:320,2,35,2|2|2,0:0|0:0|0:0,0:0:0:0:
240,168,18944,5,10,2:0:0:0:
221,35,19149,2,0,B|180:69|180:69|186:87,1,70,2|2,0:0|2:0,0:0:0:0:
240,168,19560,1,2,0:0:0:0:
94,320,19766,2,0,B|57:284|57:284|149:223,1,140,2|2,0:0|2:0,0:0:0:0:
384,120,20587,2,0,B|406:191|358:251,1,140,10|4,2:0|2:0,0:0:0:0:
224,296,21409,1,0,0:0:0:0:
76,227,21615,2,0,L|37:253,2,35,2|2|2,0:0|0:0|0:0,0:0:0:0:
312,64,22231,6,0,P|250:36|188:64,1,140,10|4,2:0|3:0,0:0:0:0:
224,176,22848,2,0,L|208:208,2,35,2|2|2,0:0|0:0|0:0,0:0:0:0:
376,128,23464,1,2,2:0:0:0:
88,120,23875,2,0,B|96:208|168:240,1,140,10|2,2:0|0:0,0:0:0:0:
256,192,24697,12,0,26341,0:0:0:0:
112,80,27779,5,2,2:0:0:0:
112,208,27985,2,0,B|136:249|163:233|163:233|165:266|187:275,1,105.000004005432,2|2,0:0|0:0,0:0:0:0:
304,288,28601,1,2,0:0:0:0:
400,208,28807,1,2,0:0:0:0:
432,48,29423,6,0,B|408:66|408:66|400:96,1,52.5000020027161,2|2,0:0|0:0,0:0:0:0:
400,208,29834,1,2,0:0:0:0:
288,160,30039,1,2,0:0:0:0:
176,224,30245,1,2,2:0:0:0:
80,144,30450,1,2,0:0:0:0:
48,48,31067,5,2,0:0:0:0:
176,80,31272,2,0,P|217:111|241:157,1,105.000004005432,2|2,0:0|0:0,0:0:0:0:
160,256,31889,1,2,0:0:0:0:
48,208,32094,1,2,0:0:0:0:
464,272,32711,6,0,P|444:287|408:296,1,52.5000020027161,2|2,0:0|0:0,0:0:0:0:
232,328,33122,1,2,2:0:0:0:
136,184,33327,1,2,0:0:0:0:
232,40,33533,1,2,0:0:0:0:
328,184,33738,1,2,0:0:0:0:
486,178,34355,6,0,P|452:187|421:202,1,70,2|4,0:0|0:0,0:0:0:0:
320,352,34971,1,8,0:0:0:0:
237,287,35176,1,8,0:0:0:0:
138,323,35382,2,8,B|121:274|121:274|138:183,1,140
160,48,35998,1,8,0:0:0:0:
254,94,36204,2,8,P|252:138|260:164,1,70
448,224,36615,1,8,0:0:0:0:
368,80,36820,1,8,0:0:0:0:
240,192,37026,2,8,B|196:279|234:324,1,140
400,336,37642,5,8,0:0:0:0:
449,161,37848,2,8,B|448:96|434:64|434:64|431:94|410:114,1,140
375,235,38464,1,8,0:0:0:0:
247,194,38670,2,8,B|215:242|215:242|251:252|237:275|237:275|215:306,1,140
80,304,39286,1,8,0:0:0:0:
55,157,39492,2,8,B|61:111|90:100,1,70
150,60,39903,1,8,3:0:0:0:
176,160,40108,1,8,3:0:0:0:
249,84,40314,1,8,3:0:0:0:
176,160,40724,5,4,0:0:0:0:
112,240,40930,1,8,0:0:0:0:
49,323,41135,2,8,L|194:323,1,140
280,328,41752,1,8,0:0:0:0:
387,272,41957,2,8,B|446:201|368:147,1,140
329,88,42574,1,8,0:0:0:0:
194,42,42779,1,8,0:0:0:0:
112,112,42985,2,8,P|118:155|112:192,1,70
112,272,43396,1,8,0:0:0:0:
243,332,43601,2,8,B|262:282|262:282|334:329,1,140
432,324,44218,5,8,0:0:0:0:
473,190,44423,2,8,B|463:146|441:110|385:73,1,140
315,47,45040,1,8,0:0:0:0:
158,61,45245,2,8,B|58:66|63:169,1,140
80,224,45861,6,8,L|121:282,1,70
218,319,46272,2,8,L|207:234,1,70
214,136,46683,2,8,P|247:131|274:153,1,70
336,224,47300,5,4,0:0:0:0:
400,144,47506,1,8,0:0:0:0:
463,61,47711,2,8,L|318:61,1,140
256,96,48328,1,8,0:0:0:0:
125,46,48533,2,8,B|80:58|80:58|128:112|108:150,1,140
71,234,49149,1,8,0:0:0:0:
218,341,49355,1,8,0:0:0:0:
304,288,49560,2,8,P|334:272|345:240,1,70
272,176,49972,1,8,0:0:0:0:
349,62,50176,2,8,B|389:21|389:21|432:32|450:77,1,140
432,201,50794,5,8,0:0:0:0:
357,319,50998,2,8,B|277:335|277:335|227:298,1,140
169,199,51616,1,8,0:0:0:0:
46,67,51820,2,8,P|113:59|167:101,1,140
261,227,52437,2,8,P|304:221|336:192,1,70
384,128,52848,1,8,0:0:0:0:
432,224,53054,1,8,0:0:0:0:
368,320,53259,6,8,B|404:328|404:328|443:310,1,70
224,304,53875,5,8,0:0:0:0:
184,69,54286,6,0,L|221:101,2,43.75,8|4|4,0:0|0:0|0:0,0:0:0:0:
128,168,54697,2,0,L|177:173,2,43.75,8|4|4,0:0|0:0|0:0,0:0:0:0:
165,270,55108,2,0,L|210:251,2,43.75,8|4|4,0:0|0:0|0:0,0:0:0:0:
304,320,55519,1,8,0:0:0:0:
345,119,55793,5,8,0:0:0:0:
345,119,55930,2,0,L|387:93,2,43.75,8|4|4,0:0|0:0|0:0,0:0:0:0:
241,163,56341,2,0,L|203:135,2,43.75,8|4|4,0:0|0:0|0:0,0:0:0:0:
321,248,56752,2,0,L|358:275,2,43.75,8|4|4,0:0|0:0|0:0,0:0:0:0:
253,329,57163,1,8,0:0:0:0:
80,237,57437,5,8,0:0:0:0:
80,237,57574,2,0,L|33:237,2,43.75,8|4|4,0:0|0:0|0:0,0:0:0:0:
176,192,57985,2,0,L|223:192,2,43.75,8|4|4,0:0|0:0|0:0,0:0:0:0:
96,112,58396,2,0,L|47:81,2,52.5,8|4|4,0:0|0:0|0:0,0:0:0:0:
208,48,58807,1,8,0:0:0:0:
368,80,59063,6,0,L|322:106,1,52.5,8|8,0:0|0:0,0:0:0:0:
256,160,59346,2,0,L|239:139,2,26.25,8|8|8,0:0|0:0|0:0,0:0:0:0:
256,192,59629,2,0,L|256:236,2,43.75,8|4|4,0:0|0:0|0:0,0:0:0:0:
357,230,60039,2,0,L|387:199,2,43.75,8|4|4,0:0|0:0|0:0,0:0:0:0:
256,328,60450,1,0,0:0:0:0:
256,192,60861,12,4,67026,0:0:0:0:
352,304,67437,6,0,P|313:309|272:304,1,78.7500030040742,4|2,0:0|0:0,0:0:0:0:
176,208,67745,2,0,P|214:217|249:239,1,78.7500030040742,2|2,0:0|0:0,0:0:0:0:
400,240,68079,1,2,0:0:0:0:
231,123,68259,6,0,P|262:148|299:161,1,78.7500030040742,8|2,0:0|0:0,0:0:0:0:
428,112,68567,2,0,L|386:122,1,41.9999987182618,2|4,0:0|0:0,0:0:0:0:
336,32,68875,1,10,0:0:0:0:
160,80,69081,6,0,P|210:77|236:101,1,78.7500030040742,2|2,0:0|0:0,0:0:0:0:
96,112,69389,2,0,B|44:64,1,52.5000020027161,0|4,0:0|0:0,0:0:0:0:
192,192,69697,1,2,0:0:0:0:
336,96,69903,2,0,P|368:64|399:56,2,78.7500030040742,10|2|2,0:0|0:0|0:0,0:0:0:0:
293,137,70313,2,0,P|322:201|352:232,1,105,2|2,0:0|0:0,0:0:0:0:
416,288,70724,5,4,0:0:0:0:
318,349,70879,2,0,B|286:341|286:341|256:305,1,78.7500030040742,2|2,0:0|0:0,0:0:0:0:
196,259,71135,2,0,B|166:242|166:242|142:171,1,105.000004005432,2|2,0:0|0:0,0:0:0:0:
101,35,71546,2,0,B|62:79|62:79|62:112,1,78.7500030040742,10|2,0:0|0:0,0:0:0:0:
48,160,71855,2,0,L|62:181,1,26.2500010013581,2|2,0:0|0:0,0:0:0:0:
112,240,72163,1,4,0:0:0:0:
197,126,72368,6,0,B|182:149|182:149|160:160,1,52.5,2|0,0:0|0:0,0:0:0:0:
226,47,72625,2,0,B|259:49|259:49|277:103,1,78.7500030040742,2|0,0:0|0:0,0:0:0:0:
272,176,72985,1,8,0:0:0:0:
352,224,73190,2,8,L|416:208,1,65.625
448,192,73396,2,0,L|472:145,2,52.5000020027161,4|2|2,0:0|0:0|0:0,0:0:0:0:
400,304,73807,5,4,0:0:0:0:
242,303,74012,2,0,P|204:290|175:264,1,78.7500030040742,4|8,0:0|0:0,0:0:0:0:
240,208,74320,2,0,B|275:208,1,35,8|8,0:0|0:0,0:0:0:0:
136,208,74629,1,4,0:0:0:0:
219,74,74834,6,0,P|239:106|274:125,1,78.7500030040742,8|2,0:0|0:0,0:0:0:0:
382,76,75142,2,0,P|350:52|302:44,1,78.7500030040742,2|2,0:0|0:0,0:0:0:0:
192,40,75450,1,2,0:0:0:0:
66,135,75656,6,0,P|103:145|141:137,1,78.7500030040742,8|8,0:0|0:0,0:0:0:0:
223,222,75964,2,0,B|143:254,1,78.7500030040742,8|8,0:0|0:0,0:0:0:0:
288,200,76272,1,8,2:2:0:0:
282,336,76478,1,8,0:0:0:0:
208,352,76632,2,0,P|170:360|112:352,1,78.7500030040742,8|8,0:0|0:0,0:0:0:0:
48,304,76889,2,0,B|96:240|80:192|46:151,1,157.500006008148,0|8,0:0|0:0,0:0:0:0:
64,80,77300,5,4,0:0:0:0:
64,48,77454,2,0,P|80:80|128:112,1,78.7500030040742,8|8,0:0|0:0,0:0:0:0:
208,48,77711,1,8,0:0:0:0:
290,132,77916,2,0,L|298:141,3,13.125000500679,8|8|8|8,0:0|0:0|0:0|0:0,0:0:0:0:
280,120,78122,1,2,0:0:0:0:
432,112,78327,2,0,L|469:75,2,52.5000020027161,4|8|8,0:0|0:0|0:0,0:0:0:0:
400,192,78738,1,4,0:0:0:0:
224,80,78944,6,0,L|202:63,1,26.25,10|8,0:0|0:0,0:0:0:0:
192,80,79201,2,0,L|112:80,1,78.7500030040742,10|8,0:0|0:0,0:0:0:0:
48,80,79560,1,8,0:0:0:0:
128,176,79766,6,0,L|150:159,1,26.25,10|8,0:0|0:0,0:0:0:0:
160,176,80023,2,0,L|240:176,1,78.7500030040742,10|8,0:0|0:0,0:0:0:0:
368,176,80382,1,4,0:0:0:0:
409,272,80587,1,4,0:0:0:0:
208,336,80998,2,0,L|240:320,4,26.2500010013581,8|8|8|8|8,0:0|0:0|0:0|0:0|0:0,0:0:0:0:
144,352,81409,5,8,0:0:0:0:
64,288,81563,2,0,L|32:288,2,17.5,8|12|8,0:0|0:0|0:0,0:0:0:0:
144,240,81820,1,4,0:0:0:0:
336,144,82231,2,0,L|362:205,1,65.6250025033952,8|8,0:0|0:0,0:0:0:0:
272,336,82514,2,0,L|246:275,1,65.6250025033952,8|4,0:0|0:0,0:0:0:0:
128,144,82899,1,8,0:0:0:0:
128,144,83053,2,0,L|68:196,2,78.7500030040742,8|8|8,0:0|0:0|0:0,0:0:0:0:
208,80,83490,1,8,0:0:0:0:
162,324,83875,5,4,0:0:0:0:
162,324,84029,2,0,P|203:275|230:269,1,78.7500030040742,8|8,0:0|0:0,0:0:0:0:
298,272,84286,1,8,0:0:0:0:
392,160,84492,2,0,L|414:133,3,35.0000013351441,8|8|8|10,0:0|0:0|0:0|0:0,0:0:0:0:
307,184,84851,6,0,P|271:170|257:134,1,78.7500030040742,8|8,0:0|0:0,0:0:0:0:
192,69,85108,1,4,0:0:0:0:
48,127,85313,1,4,0:0:0:0:
208,64,85724,6,0,P|260:41|302:74,1,105.000004005432,8|4,0:0|0:0,0:0:0:0:
400,128,86135,1,8,0:0:0:0:
259,215,86341,2,0,L|220:250,4,52.5000020027161,8|8|12|8|8,0:0|0:0|0:0|0:0|0:0,0:0:0:0:
320,160,86957,1,4,0:0:0:0:
372,254,87163,1,4,0:0:0:0:
208,224,87574,6,0,L|271:287,2,70.0000026702882,8|8|8,0:0|0:0|0:0,0:0:0:0:
127,156,87985,1,10,0:0:0:0:
132,52,88122,2,0,L|62:62,2,70.0000026702882,8|8|4,0:0|0:0|0:0,0:0:0:0:
416,115,88807,1,8,0:0:0:0:
432,144,88961,2,0,P|421:183|382:209,1,78.7500030040742,8|8,0:0|0:0,0:0:0:0:
239,236,89218,1,12,0:0:0:0:
208,224,89372,2,0,P|160:208|145:175,1,78.7500030040742,8|8,0:0|0:0,0:0:0:0:
112,112,89629,1,10,0:0:0:0:
224,96,89783,2,0,L|175:52,2,65.6250025033952,8|8|8,0:0|0:0|0:0,0:0:0:0:
405,79,90450,5,12,0:0:0:0:
400,112,90605,2,0,B|384:160|416:192,1,78.7500030040742,8|8,0:0|0:0,0:0:0:0:
446,303,90861,1,8,0:0:0:0:
413,301,91016,2,0,B|379:301|379:301|355:263,1,78.7500030040742,8|8,0:0|0:0,0:0:0:0:
220,140,91272,1,10,0:0:0:0:
304,96,91426,2,0,P|273:43|240:32,1,78.7500030040742,8|8,0:0|0:0,0:0:0:0:
160,48,91683,2,0,B|129:56|91:99|83:134,1,105.000004005432,8|12,0:0|0:0,0:0:0:0:
63,227,92094,5,8,0:0:0:0:
41,252,92248,1,8,0:0:0:0:
104,330,92403,1,8,0:0:0:0:
127,327,92505,2,0,B|182:302|172:220,1,105.000004005432,8|10,0:0|0:0,0:0:0:0:
104,136,92915,1,12,0:0:0:0:
284,247,93122,2,0,L|304:226,1,26.2500010013581,4|8,0:0|0:0,0:0:0:0:
284,143,93327,2,0,L|300:159,8,13.125000500679,8|8|8|8|8|8|8|8|8,0:0|0:0|0:0|0:0|0:0|0:0|0:0|0:0|0:0,0:0:0:0:
319,54,100313,6,8,B|371:82|371:82|388:39,2,105.000004005432,2|2|2,0:0|0:0|0:0,0:0:0:0:
209,134,100930,1,0,0:0:0:0:
368,160,101135,6,8,B|426:165|426:165|417:211,2,105.000004005432,10|2|2,0:0|0:0|0:0,0:0:0:0:
247,327,101752,1,2,0:0:0:0:
167,212,101957,6,8,B|150:255|150:255|98:227,2,105.000004005432,2|2|2,0:0|0:0|0:0,0:0:0:0:
255,136,102574,1,2,0:0:0:0:
336,272,102779,6,0,B|388:300|388:300|406:258,2,105.000004005432,10|2|2,0:0|0:0|0:0,0:0:0:0:
336,64,103396,1,2,0:0:0:0:
224,128,103601,6,8,B|207:71|207:71|164:88,2,105.000004005432,2|2|2,0:0|0:0|0:0,0:0:0:0:
208,272,104218,1,2,0:0:0:0:
64,160,104423,6,8,B|106:177|106:177|78:229,2,105.000004005432,10|2|2,0:0|0:0|0:0,0:0:0:0:
208,224,105040,1,2,0:0:0:0:
352,272,105245,6,8,B|324:324|324:324|366:341,2,105.000004005432,2|2|2,0:0|0:0|0:0,0:0:0:0:
223,248,105861,1,0,0:0:0:0:
368,128,106067,6,8,B|410:145|410:145|382:197,2,105.000004005432,10|2|2,0:0|0:0|0:0,0:0:0:0:
177,69,106683,1,2,0:0:0:0:
177,69,106889,1,2,0:0:0:0:
240,256,113464,5,8,0:0:0:0:
80,320,113772,6,8,L|80:288,2,17.5
79,218,114081,2,8,B|127:167,1,70
79,73,114594,1,8,0:0:0:0:
224,112,114903,2,8,B|224:192,1,70
320,144,115313,2,8,L|361:111,1,52.5000020027161
416,256,115725,2,8,B|468:303,1,70
352,208,116238,1,8,0:0:0:0:
152,208,116546,6,8,B|72:208,1,70
120,304,117060,2,8,L|153:345,1,52.5000020027161
256,256,117369,2,8,B|204:208,1,70
64,96,117882,2,8,B|102:59,1,52.5000020027161
176,96,118190,1,8,0:0:0:0:
256,96,118396,1,8,0:0:0:0:
308,152,118601,6,8,L|335:176,5,35
368,208,119218,2,8,L|387:201,13,17.5
436,187,120039,5,2,0:0:0:0:
419,290,120245,2,8,P|356:307|304:336,1,105.000004005432
208,320,120656,1,8,0:0:0:0:
128,240,120861,1,8,0:0:0:0:
80,96,121170,2,8,P|99:112|124:108,1,52.5000020027161
256,176,121478,2,8,L|256:229,2,52.5000020027161
368,80,121992,6,8,P|392:72|418:78,1,52.5000020027161
336,224,122300,2,8,P|319:161|289:139,1,105.000004005432
176,80,122711,1,8,0:0:0:0:
210,232,122916,2,8,L|176:272,4,52.5000020027161
384,64,123635,6,8,P|408:80|424:112,1,52.5000020027161
448,208,123944,2,8,P|397:216|362:255,1,105.000004005432
256,192,124457,2,8,P|244:173|196:157,1,52.5000020027161
272,64,124766,2,8,L|329:64,2,52.5000020027161
103,55,125279,2,8,P|78:63|61:82,1,52.5000020027161
39,178,125587,1,8,0:0:0:0:
87,274,125793,1,8,0:0:0:0:
199,290,125998,2,8,P|265:278|295:258,1,105.000004005432
451,216,126615,5,8,0:0:0:0:
400,144,126820,2,8,L|374:120,3,35
352,176,127231,2,8,L|326:152,3,35
304,208,127642,2,8,L|278:184,3,35
272,272,128053,6,8,L|259:284,4,17.5
336,272,128361,2,8,P|325:285|312:297,3,35
384,272,128772,2,8,P|371:283|360:297,3,35
432,272,129183,2,8,P|421:285|408:297,3,35
256,192,129903,12,0,133190,0:0:0:0:
336,112,134012,5,0,0:0:0:0:
279,168,134166,1,8,0:0:0:0:
224,224,134320,2,12,P|197:249|175:277,1,52.5000020027161,8|12,0:0|0:0,0:0:0:0:
176,112,134834,5,4,0:0:0:0:
233,168,134988,1,8,0:0:0:0:
288,224,135142,2,8,P|315:249|337:277,1,52.5000020027161,8|12,0:0|0:0,0:0:0:0:
234,88,135656,5,4,0:0:0:0:
233,168,135810,1,8,0:0:0:0:
234,247,135964,2,8,P|232:284|236:319,1,52.5000020027161,8|12,0:0|0:0,0:0:0:0:
368,208,136478,5,12,0:0:0:0:
352,128,136632,1,8,0:0:0:0:
304,64,136786,2,8,P|278:60|252:61,1,52.5000020027161,8|12,0:0|0:0,0:0:0:0:
136,40,137094,2,8,L|104:24,2,26.2500010013581
112,128,137300,5,12,0:0:0:0:
112,128,137403,2,0,L|48:128,3,52.5000020027161,8|8|8|4,0:0|0:0|0:0|0:0,0:0:0:0:
152,256,137916,2,8,L|120:288,3,26.2500010013581,12|8|8|8,0:0|0:0|0:0|0:0,0:0:0:0:
176,256,138122,6,0,L|240:256,1,52.5,12|8,0:0|0:0,0:0:0:0:
320,256,138430,2,0,L|352:224,1,35,8|4,0:0|0:0,0:0:0:0:
392,160,138738,1,12,0:0:0:0:
256,96,138944,2,8,L|290:106,4,35,12|8|8|8|12,0:0|0:0|0:0|0:0|0:0,0:0:0:0:
160,64,139663,5,8,0:0:0:0:
160,64,139766,1,4,0:0:0:0:
432,224,140587,5,8,0:0:0:0:
384,176,140741,1,8,0:0:0:0:
336,128,140895,2,8,B|346:114|346:114|331:82,1,52.5000020027161,8|12,0:0|0:0,0:0:0:0:
169,99,141409,5,12,0:0:0:0:
121,147,141563,1,8,0:0:0:0:
73,195,141718,2,8,B|62:208|62:208|77:240,1,52.5000020027161,8|12,0:0|0:0,0:0:0:0:
318,335,142231,5,12,0:0:0:0:
318,335,142385,1,8,0:0:0:0:
318,335,142540,2,8,B|328:321|328:321|313:289,1,52.5000020027161,8|12,0:0|0:0,0:0:0:0:
288,112,143053,5,12,0:0:0:0:
210,58,143207,1,8,0:0:0:0:
136,104,143361,2,8,L|124:127,1,26.2500010013581,8|12,0:0|0:0,0:0:0:0:
48,192,143670,2,8,L|28:163,2,35.0000013351441
96,240,143875,2,8,P|75:287|80:296,1,52.5,12|8,0:0|0:0,0:0:0:0:
144,336,144183,2,0,L|185:336,1,35,8|8,0:0|0:0,0:0:0:0:
304,256,144492,6,8,L|331:256,4,26.2500010013581,8|8|8|8|12,0:0|0:0|0:0|0:0|0:0,0:0:0:0:
472,320,144851,2,8,L|432:253,1,78.7500030040742
376,192,145108,1,12,0:0:0:0:
448,80,145313,2,8,L|475:80,4,26.2500010013581,8|8|8|8|10,0:0|0:0|0:0|0:0|0:0,0:0:0:0:
352,88,145673,2,8,L|308:135,1,65.6250025033952
256,184,145930,1,12,0:0:0:0:
152,80,146238,1,8,1:0:0:0:
152,224,146341,1,8,1:0:0:0:
256,288,146752,5,8,0:0:0:0:
256,176,146957,1,8,0:0:0:0:
301,84,147163,2,8,P|254:54|231:88,2,105.000004005432,8|12|14,0:0|0:0|0:0,0:0:0:0:
406,123,147985,5,8,0:0:0:0:
358,51,148139,1,8,0:0:0:0:
311,143,148293,2,8,L|248:144,1,52.5000020027161,8|12,0:0|0:0,0:0:0:0:
152,184,148601,1,0,0:0:0:0:
277,232,148807,1,10,0:0:0:0:
405,288,148961,2,8,L|480:320,2,78.7500030040742
154,333,149629,5,12,0:0:0:0:
106,261,149783,1,8,0:0:0:0:
201,241,149937,2,8,L|240:184,1,65.6250025033952
376,80,150245,2,0,L|395:50,3,35.0000013351441,8|8|8|8,0:0|0:0|0:0|0:0,0:0:0:0:
432,240,150605,2,8,P|390:262|345:248,1,78.7500030040742
304,184,150861,1,12,0:0:0:0:
184,312,151067,1,12,0:0:0:0:
128,176,151272,6,8,L|48:176,2,78.7500030040742
192,176,151683,1,12,0:0:0:0:
304,112,151889,1,12,0:0:0:0:
192,48,152094,1,0,0:0:0:0:
80,80,152300,2,8,L|27:80,2,52.5000020027161,4|8|8,0:0|0:0|0:0,0:0:0:0:
192,112,152711,1,12,0:0:0:0:
192,112,152916,1,12,0:0:0:0:
384,112,153327,6,8,L|354:38,2,78.7500030040742
351,190,153738,2,8,L|381:264,2,78.7500030040742,10|8|8,0:0|0:0|0:0,0:0:0:0:
288,128,154149,1,4,0:0:0:0:
104,56,154560,5,8,0:0:0:0:
104,56,154714,2,8,L|184:96,1,78.7500030040742
337,164,154971,1,12,0:0:0:0:
359,178,155125,2,8,L|288:240,1,78.7500030040742
168,320,155382,1,10,0:0:0:0:
144,329,155536,2,8,L|105:251,1,78.7500030040742
48,128,155793,1,8,0:0:0:0:
120,32,156203,5,12,0:0:0:0:
120,32,156358,2,8,L|208:40,1,78.7500030040742
216,192,156615,1,8,0:0:0:0:
192,184,156769,2,8,L|212:100,1,78.7500030040742
368,152,157026,1,10,0:0:0:0:
389,165,157180,2,8,L|347:240,1,78.7500030040742
296,304,157436,2,8,L|232:208,1,105.000004005432,8|12,0:0|0:0,0:0:0:0:
267,49,157847,5,8,0:0:0:0:
267,49,158002,2,8,L|240:128,1,78.7500030040742
88,112,158259,2,8,P|111:158|158:179,1,105.000004005432,12|8,0:0|0:0,0:0:0:0:
296,184,158670,1,10,0:0:0:0:
368,112,158875,2,8,L|336:80,2,26.2500010013581,2|2|2,0:0|0:0|0:0,0:0:0:0:
384,120,159081,2,8,L|402:138,8,26.2500010013581,2|2|2|8|6|2|2|2|6,0:0|0:0|0:0|0:0|0:0|0:0|0:0|0:0|0:0,0:0:0:0:
