osu file format v14

[General]
AudioFilename: audio.mp3
AudioLeadIn: 0
PreviewTime: 8978
Countdown: 1
SampleSet: Soft
StackLeniency: 0.7
Mode: 0
LetterboxInBreaks: 0
WidescreenStoryboard: 0

[Editor]
Bookmarks: 26220,43329
DistanceSpacing: 1
BeatDivisor: 4
GridSize: 8
TimelineZoom: 1

[Metadata]
Title:Thank You!! (TV Size)
TitleUnicode:サンキュー!! (TV Size)
Artist:HOME MADE KAZOKU
ArtistUnicode:HOME MADE 家族
Creator:Seto Kousuke
Version:Normal
Source:BLEACH
Tags:Heartful Best Songs Rock the World ブリーチ Anime Ending J-Pop Japanese Arigatou Amandia Monstrata -Mikan Mikan Trynna
BeatmapID:1908513
BeatmapSetID:913665

[Difficulty]
HPDrainRate:3
CircleSize:3
OverallDifficulty:4
ApproachRate:5
SliderMultiplier:1.8
SliderTickRate:1

[Events]
//Background and Video events
0,0,"rukia is the cutest character in the series.jpg",0,0
Video,0,"video.avi"
//Break Periods
//Storyboard Layer 0 (Background)
//Storyboard Layer 1 (Fail)
//Storyboard Layer 2 (Pass)
//Storyboard Layer 3 (Foreground)
//Storyboard Sound Samples

[TimingPoints]
558,534.75935828877,4,2,1,40,1,0
8577,-100,4,2,1,50,0,0
9114,-100,4,2,1,70,0,1
26226,-100,4,2,1,60,0,0
41190,-100,4,2,1,50,0,0
43338,-100,4,2,1,70,0,1
58312,-100,4,2,1,50,0,0
58545,534.75935828877,4,2,1,50,1,0

[Colours]
Combo1 : 116,212,254
Combo2 : 251,170,39
Combo3 : 226,162,189
Combo4 : 231,50,67

[HitObjects]
121,254,9114,6,0,P|169:263|231:159,1,180,6|0,0:2|1:0,0:0:0:0:
251,78,9916,1,0,0:0:0:0:
338,53,10183,2,0,L|435:67,1,90,2|2,0:0|0:0,0:0:0:0:
504,112,10718,1,0,1:0:0:0:
505,201,10985,1,2,0:0:0:0:
436,258,11253,6,0,B|376:262|376:262|336:242|336:242|241:249,1,180,2|2,0:0|1:2,0:0:0:0:
176,215,12055,1,2,0:0:0:0:
112,151,12322,2,0,P|50:156|40:276,1,180,2|0,0:0|1:0,0:0:0:0:
166,365,13392,6,0,L|358:352,1,180,0|2,0:0|1:2,0:0:0:0:
423,307,14194,1,2,0:0:0:0:
437,218,14461,2,0,P|438:174|395:133,1,90,0|0,0:0|0:0,0:0:0:0:
321,123,14996,2,0,L|219:143,1,90,2|2,1:2|0:0,0:0:0:0:
143,133,15531,6,0,P|91:127|56:80,2,90,2|2|2,0:0|0:0|1:2,0:0:0:0:
190,56,16333,1,2,0:0:0:0:
380,18,16868,5,2,0:0:0:0:
409,103,17135,2,0,L|410:211,1,90,2|2,1:2|0:0,0:0:0:0:
468,261,17670,2,0,P|422:232|304:269,2,180,2|2|8,0:0|1:2|0:1,0:0:0:0:
332,379,19274,2,0,L|232:369,1,90,2|2,1:2|0:0,0:0:0:0:
180,304,19809,6,0,P|180:205|265:138,2,180,2|2|8,0:0|1:2|0:1,0:0:0:0:
335,214,21413,2,0,L|341:105,1,90,2|2,1:2|0:0,0:0:0:0:
289,49,21948,6,0,P|247:36|190:66,1,90,2|2,0:0|0:0,0:0:0:0:
142,115,22483,1,0,1:0:0:0:
52,103,22750,1,0,0:0:0:0:
6,180,23017,2,0,L|25:279,1,90,2|2,0:0|0:0,0:0:0:0:
83,334,23552,2,0,P|124:321|187:334,1,90,0|2,1:0|0:0,0:0:0:0:
248,370,24087,5,2,0:0:0:0:
315,310,24354,1,2,0:0:0:0:
306,220,24622,2,0,L|256:192,2,45,0|2|2,1:0|0:0|0:0,0:0:0:0:
391,190,25156,2,0,P|467:105|410:40,1,180,2|0,0:0|1:0,0:0:0:0:
265,45,26226,6,0,B|193:30|186:101|88:78,1,180,4|0,0:2|1:0,0:0:0:0:
15,124,27028,1,2,0:0:0:0:
60,201,27295,2,0,B|84:228|110:229|110:229|175:196|250:210,1,180,2|2,0:0|1:2,0:0:0:0:
389,284,28365,2,0,P|419:234|474:210,1,90,2|0,0:0|0:0,0:0:0:0:
473,132,28900,2,0,P|437:105|417:65,1,90,0|2,1:0|0:0,0:0:0:0:
345,10,29435,2,0,L|235:7,2,90,2|2|2,0:0|0:0|1:2,0:0:0:0:
473,132,30504,6,0,P|492:176|418:294,1,180,2|0,0:0|1:0,0:0:0:0:
372,348,31306,1,2,0:0:0:0:
300,293,31574,2,0,P|211:269|110:304,1,180,2|2,0:0|1:2,0:0:0:0:
9,156,32643,2,0,P|58:135|90:95,1,90,2|0,0:0|0:0,0:0:0:0:
163,69,33178,2,0,P|212:89|244:130,1,90,0|2,1:0|0:0,0:0:0:0:
306,171,33713,2,0,L|411:163,2,90,2|2|2,0:0|0:0|1:2,0:0:0:0:
219,329,34782,6,0,P|146:356|62:260,1,180,2|0,0:0|1:0,0:0:0:0:
77,210,35584,1,2,0:0:0:0:
25,136,35852,2,0,P|25:85|143:65,1,180,2|0,0:0|1:0,0:0:0:0:
222,209,36921,2,0,L|324:189,1,90,2|0,0:0|0:0,0:0:0:0:
387,238,37456,2,0,L|489:218,1,90,2|0,1:2|0:0,0:0:0:0:
506,136,37991,2,0,P|505:90|457:39,1,90,2|0,0:0|0:0,0:0:0:0:
402,10,38525,1,2,1:2:0:0:
239,87,39060,6,0,B|153:115|155:50|59:82,1,180,2|2,0:0|1:2,0:0:0:0:
20,159,39862,1,2,0:0:0:0:
66,235,40130,2,0,B|157:265|155:200|241:228,1,180,2|2,0:0|1:2,0:0:0:0:
392,325,41199,1,2,0:0:0:0:
479,167,41734,2,0,L|476:93,1,45,0|2,1:0|0:0,0:0:0:0:
111,67,43338,6,0,P|72:143|128:231,1,180,6|0,0:2|1:0,0:0:0:0:
193,260,44140,1,2,0:0:0:0:
273,218,44408,2,0,B|363:187|364:256|452:223,1,180,2|0,0:0|1:0,0:0:0:0:
498,149,45210,1,2,0:0:0:0:
490,59,45477,6,0,P|468:23|387:12,1,90,2|0,0:0|0:0,0:0:0:0:
339,33,46012,2,0,L|207:41,1,90,2|2,1:2|0:0,0:0:0:0:
159,26,46547,1,2,0:0:0:0:
80,69,46814,1,0,0:0:0:0:
63,157,47082,2,0,L|19:188,2,45,2|2|2,1:2|0:0|0:0,0:0:0:0:
141,200,47616,6,0,P|216:240|317:174,1,180,2|2,0:0|1:2,0:0:0:0:
355,135,48418,1,2,0:0:0:0:
433,178,48686,2,0,L|440:303,1,90,2|0,0:0|0:0,0:0:0:0:
383,339,49221,2,0,P|342:350|271:335,1,90,2|2,1:2|0:0,0:0:0:0:
224,289,49755,5,2,0:0:0:0:
134,274,50023,1,2,0:0:0:0:
62,329,50290,2,0,L|4:381,2,45,2|0|2,1:2|0:0|0:0,0:0:0:0:
59,148,51092,5,2,0:0:0:0:
74,59,51360,1,2,1:2:0:0:
157,24,51627,1,2,0:0:0:0:
237,63,51894,2,0,L|427:81,2,180,2|2|8,0:0|1:2|0:1,0:0:0:0:
141,215,53499,2,0,L|258:226,1,90,2|2,1:2|0:0,0:0:0:0:
298,164,54033,6,0,P|262:207|323:323,2,180,2|2|8,0:0|1:2|0:1,0:0:0:0:
439,53,55638,2,0,L|315:48,1,90,2|2,1:2|0:0,0:0:0:0:
264,18,56172,6,0,P|211:19|153:133,1,180,2|0,0:0|1:0,0:0:0:0:
184,200,56975,1,0,0:0:0:0:
272,216,57242,2,0,L|387:210,1,90,2|2,0:0|0:0,0:0:0:0:
441,254,57777,2,0,P|457:302|420:361,1,90,0|2,1:0|0:0,0:0:0:0:
361,372,58312,5,6,0:0:0:0:
283,325,58545,1,2,0:0:0:0:
205,371,58812,2,0,L|143:363,2,45,2|2|2,0:0|0:0|0:0,0:0:0:0:
