osu file format v14

[General]
AudioFilename: audio.mp3
AudioLeadIn: 0
PreviewTime: 8978
Countdown: 1
SampleSet: Soft
StackLeniency: 0.7
Mode: 0
LetterboxInBreaks: 0
WidescreenStoryboard: 1

[Editor]
Bookmarks: 26220,34774,43329
DistanceSpacing: 1.5
BeatDivisor: 2
GridSize: 8
TimelineZoom: 1.9

[Metadata]
Title:Thank You!! (TV Size)
TitleUnicode:サンキュー!! (TV Size)
Artist:HOME MADE KAZOKU
ArtistUnicode:HOME MADE 家族
Creator:Seto Kousuke
Version:Monstradia's Insane
Source:BLEACH
Tags:Heartful Best Songs Rock the World ブリーチ Anime Ending J-Pop Japanese Arigatou Amandia Monstrata -Mikan Mikan Trynna
BeatmapID:1908512
BeatmapSetID:913665

[Difficulty]
HPDrainRate:5
CircleSize:4
OverallDifficulty:7.5
ApproachRate:9
SliderMultiplier:2.8
SliderTickRate:1

[Events]
//Background and Video events
0,0,"rukia is the cutest character in the series.jpg",0,0
Video,0,"video.avi"
//Break Periods
//Storyboard Layer 0 (Background)
//Storyboard Layer 1 (Fail)
//Storyboard Layer 2 (Pass)
//Storyboard Layer 3 (Foreground)
//Storyboard Sound Samples

[TimingPoints]
558,534.75935828877,4,2,1,40,1,0
558,-200,4,2,1,40,0,0
8577,-200,4,2,1,50,0,0
9114,-117.647058823529,4,2,1,70,0,1
26226,-117.647058823529,4,2,1,60,0,0
41190,-153.846153846153,4,2,1,50,0,0
43338,-117.647058823529,4,2,1,70,0,1
58312,-117.647058823529,4,2,1,50,0,0
58545,534.75935828877,4,2,1,50,1,0
58545,-181.818181818181,4,2,1,50,0,0

[Colours]
Combo1 : 116,212,254
Combo2 : 251,170,39
Combo3 : 226,162,189
Combo4 : 231,50,67

[HitObjects]
95,155,558,6,0,L|179:131,1,70,2|0,0:0|0:0,0:0:0:0:
213,205,959,2,0,L|145:224,1,70,2|0,0:0|0:0,0:0:0:0:
65,260,1360,2,0,P|98:299|149:311,1,105,2|2,0:0|0:0,0:0:0:0:
312,377,2028,1,0,0:0:0:0:
364,306,2162,2,0,L|398:308,1,35,2|0,0:0|0:0,0:0:0:0:
299,247,2429,2,0,L|264:244,1,35,0|0,0:0|0:0,0:0:0:0:
364,189,2697,6,0,P|379:158|380:123,1,70,2|0,0:0|0:0,0:0:0:0:
224,83,3098,2,0,P|208:113|207:148,1,70,2|0,0:0|0:0,0:0:0:0:
294,136,3499,2,0,L|319:11,1,105,2|2,0:0|0:0,0:0:0:0:
86,94,4167,1,0,0:0:0:0:
149,154,4301,2,0,L|134:226,1,70,2|0,0:0|0:0,0:0:0:0:
264,340,4836,6,0,P|297:324|331:323,1,70,2|0,0:0|0:0,0:0:0:0:
399,217,5237,2,0,P|368:233|334:235,1,70,2|0,0:0|0:0,0:0:0:0:
269,84,5638,2,0,L|259:189,1,105,2|2,0:0|0:0,0:0:0:0:
32,264,6306,1,0,0:0:0:0:
98,206,6440,2,0,L|134:213,1,35,2|0,0:0|0:0,0:0:0:0:
192,276,6707,2,0,L|228:269,1,35,0|0,0:0|0:0,0:0:0:0:
259,189,6975,5,2,0:0:0:0:
342,217,7376,1,2,0:0:0:0:
425,245,7777,1,2,0:0:0:0:
508,273,8178,1,0,0:0:0:0:
512,277,8312,2,0,L|496:353,2,70,2|0|0,0:0|1:0|0:0,0:0:0:0:
334,301,9114,6,0,P|307:315|278:320,1,59.5000011348725,6|0,0:2|0:0,0:0:0:0:
201,286,9381,1,2,0:0:0:0:
198,202,9515,2,0,P|227:207|253:220,1,59.5000011348725,2|0,0:0|1:0,0:0:0:0:
333,197,9782,1,2,0:0:0:0:
332,113,9916,2,0,P|303:118|277:131,1,59.5000011348725,0|0,0:0|0:0,0:0:0:0:
413,229,10183,5,2,0:0:0:0:
494,208,10317,2,0,P|515:179|520:153,1,59.5000011348725,0|2,0:0|0:0,0:0:0:0:
447,37,10584,2,0,P|424:91|437:149,1,119.000002269745,2|0,0:0|0:0,0:0:0:0:
298,157,10985,2,0,P|327:157|355:169,1,59.5000011348725,2|0,0:0|0:0,0:0:0:0:
359,304,11253,5,2,0:0:0:0:
309,239,11386,1,0,0:0:0:0:
277,314,11520,2,0,L|287:378,1,59.5000011348725,0|0,0:0|0:0,0:0:0:0:
119,273,11787,1,2,1:2:0:0:
169,208,11921,1,0,0:0:0:0:
201,283,12055,2,0,L|191:347,1,59.5000011348725,2|0,0:0|0:0,0:0:0:0:
69,339,12322,2,0,L|18:298,1,59.5000011348725,2|0,0:0|0:0,0:0:0:0:
86,196,12590,2,0,L|146:172,1,59.5000011348725,0|0,0:0|0:0,0:0:0:0:
119,273,12857,5,0,1:0:0:0:
25,135,12991,1,0,0:0:0:0:
210,78,13124,1,2,0:0:0:0:
227,90,13392,5,0,0:0:0:0:
165,347,13659,1,2,0:0:0:0:
416,378,13926,2,0,L|425:259,1,119.000002269745,2|2,1:2|0:0,0:0:0:0:
374,193,14328,6,0,P|354:214|346:243,1,59.5000011348725,2|0,0:0|0:0,0:0:0:0:
457,182,14595,2,0,P|476:160|474:66,1,119.000002269745,2|2,0:0|0:0,0:0:0:0:
353,48,14996,1,2,1:2:0:0:
405,115,15130,1,2,0:0:0:0:
427,7,15263,1,2,0:0:0:0:
366,310,15531,5,2,0:0:0:0:
366,310,15798,2,0,L|302:317,1,59.5000011348725,2|0,0:0|0:0,0:0:0:0:
191,193,16066,2,0,L|132:200,1,59.5000011348725,2|0,1:2|0:0,0:0:0:0:
198,286,16333,2,0,L|317:213,1,119.000002269745,2|0,0:0|0:0,0:0:0:0:
321,229,16868,1,2,0:0:0:0:
342,234,17135,1,2,1:2:0:0:
363,239,17402,1,2,0:0:0:0:
383,244,17670,6,0,P|417:196|412:138,1,119.000002269745,2|0,0:0|0:0,0:0:0:0:
152,49,18205,2,0,L|82:57,1,59.5000011348725,2|0,1:2|0:0,0:0:0:0:
34,133,18472,2,0,L|165:148,1,119.000002269745,2|8,0:0|0:1,0:0:0:0:
226,183,19007,1,2,0:0:0:0:
251,260,19274,1,2,1:2:0:0:
214,332,19541,1,2,0:0:0:0:
136,355,19809,6,0,P|79:343|42:297,1,119.000002269745,2|0,0:0|0:0,0:0:0:0:
350,202,20344,2,0,L|435:212,1,59.5000011348725,2|0,1:2|0:0,0:0:0:0:
494,158,20611,2,0,L|478:292,1,119.000002269745,2|8,0:0|0:1,0:0:0:0:
396,351,21146,1,2,0:0:0:0:
311,276,21413,1,2,1:2:0:0:
226,350,21680,1,2,0:0:0:0:
112,244,21948,5,2,0:0:0:0:
60,309,22082,2,0,L|0:302,1,59.5000011348725,2|2,0:0|0:0,0:0:0:0:
164,179,22349,2,0,L|223:185,1,59.5000011348725,2|0,0:0|1:0,0:0:0:0:
112,244,22616,2,0,P|82:182|100:126,1,119.000002269745,2|0,0:0|0:0,0:0:0:0:
304,197,23017,5,0,0:0:0:0:
252,262,23151,1,2,0:0:0:0:
301,329,23285,2,0,P|326:312|343:288,1,59.5000011348725,2|2,0:0|0:0,0:0:0:0:
468,260,23552,2,0,P|442:246|413:243,1,59.5000011348725,0|0,1:0|0:0,0:0:0:0:
326,148,23820,2,0,P|328:177|340:204,1,59.5000011348725,2|0,0:0|0:0,0:0:0:0:
409,384,24087,6,0,L|423:316,1,59.5000011348725,2|0,0:0|0:0,0:0:0:0:
425,98,24354,2,0,L|413:156,1,59.5000011348725,2|0,0:0|0:0,0:0:0:0:
222,222,24622,1,0,1:0:0:0:
245,141,24755,1,2,0:0:0:0:
340,204,24889,2,0,L|463:185,1,119.000002269745,2|2,0:0|0:0,0:0:0:0:
293,274,25290,6,0,L|281:332,1,59.5000011348725,0|0,0:0|0:0,0:0:0:0:
69,262,25558,1,2,0:0:0:0:
156,168,25691,2,0,L|145:227,1,59.5000011348725,0|0,1:0|0:0,0:0:0:0:
191,344,25959,2,0,L|203:286,1,59.5000011348725,2|0,0:0|0:0,0:0:0:0:
306,191,26226,5,4,0:2:0:0:
378,150,26360,2,0,P|407:144|435:150,1,59.5000011348725,0|2,0:0|0:0,0:0:0:0:
312,207,26627,1,0,0:0:0:0:
384,166,26761,2,0,P|413:160|441:166,1,59.5000011348725,0|0,1:0|0:0,0:0:0:0:
271,278,27028,2,0,P|265:307|271:335,1,59.5000011348725,2|2,0:0|0:0,0:0:0:0:
116,148,27295,5,0,0:0:0:0:
197,131,27429,2,0,L|281:114,1,59.5000011348725,2|0,0:0|0:0,0:0:0:0:
116,166,27697,1,0,0:0:0:0:
197,149,27830,2,0,L|281:132,1,59.5000011348725,2|0,1:2|0:0,0:0:0:0:
71,242,28098,2,0,L|12:230,1,59.5000011348725,0|0,0:0|0:0,0:0:0:0:
118,311,28365,5,2,0:0:0:0:
193,279,28499,2,0,P|223:277|251:285,1,59.5000011348725,0|0,0:0|0:0,0:0:0:0:
314,342,28766,1,2,0:0:0:0:
418,232,28900,2,0,P|447:233|475:225,1,59.5000011348725,0|0,1:0|0:0,0:0:0:0:
362,118,29167,2,0,P|332:116|304:124,1,59.5000011348725,2|2,0:0|0:0,0:0:0:0:
334,257,29435,6,0,L|341:198,1,59.5000011348725,2|0,0:0|0:0,0:0:0:0:
446,93,29702,2,0,L|438:151,1,59.5000011348725,2|0,0:0|0:0,0:0:0:0:
330,286,29969,2,0,L|212:302,1,119.000002269745,2|0,1:2|0:0,0:0:0:0:
36,94,30504,5,2,0:0:0:0:
118,81,30638,1,0,0:0:0:0:
200,68,30771,2,0,L|258:59,1,59.5000011348725,2|0,0:0|0:0,0:0:0:0:
88,158,31039,1,0,1:0:0:0:
58,235,31172,2,0,L|0:243,1,59.5000011348725,0|2,0:0|0:0,0:0:0:0:
97,358,31440,1,2,0:0:0:0:
127,281,31574,2,0,L|185:272,1,59.5000011348725,0|2,0:0|0:0,0:0:0:0:
279,285,31841,2,0,L|220:293,1,59.5000011348725,0|2,0:0|0:0,0:0:0:0:
190,370,32108,5,2,1:2:0:0:
308,207,32242,1,2,0:0:0:0:
308,207,32376,2,0,L|351:212,2,29.7500005674362,0|0|0,0:0|0:0|0:0,0:0:0:0:
378,217,32643,6,0,P|399:182|380:91,1,119.000002269745,2|0,0:0|0:0,0:0:0:0:
269,44,33044,2,0,P|298:44|327:53,1,59.5000011348725,2|0,0:0|1:0,0:0:0:0:
287,127,33312,1,0,0:0:0:0:
206,104,33445,2,0,P|176:103|148:112,1,59.5000011348725,2|0,0:0|0:0,0:0:0:0:
1,164,33713,6,0,P|51:194|109:186,1,119.000002269745,2|2,0:0|0:0,0:0:0:0:
91,297,34114,1,2,0:0:0:0:
160,250,34247,2,0,P|189:249|217:258,1,59.5000011348725,2|0,1:2|0:0,0:0:0:0:
265,326,34515,1,0,0:0:0:0:
309,101,34782,5,2,0:0:0:0:
227,118,34916,2,0,L|164:129,1,59.5000011348725,0|2,0:0|0:0,0:0:0:0:
283,181,35183,1,0,0:0:0:0:
335,21,35317,2,0,L|461:-1,1,119.000002269745,0|2,1:0|0:0,0:0:0:0:
309,101,35718,1,2,0:0:0:0:
365,163,35852,5,2,0:0:0:0:
283,181,35985,1,0,0:0:0:0:
395,305,36119,2,0,L|453:294,1,59.5000011348725,2|0,0:0|0:0,0:0:0:0:
339,243,36386,1,0,1:0:0:0:
231,339,36520,2,0,P|178:311|120:325,1,119.000002269745,2|0,0:0|0:0,0:0:0:0:
6,226,36921,5,2,0:0:0:0:
86,249,37055,1,0,0:0:0:0:
158,149,37189,2,0,L|230:153,1,59.5000011348725,0|0,0:0|0:0,0:0:0:0:
137,68,37456,1,2,1:2:0:0:
77,126,37590,2,0,L|17:122,1,59.5000011348725,0|0,0:0|0:0,0:0:0:0:
137,68,37857,1,0,0:0:0:0:
179,230,37991,5,2,0:0:0:0:
378,152,38191,1,0,0:0:0:0:
469,342,38392,1,2,0:0:0:0:
496,263,38525,1,2,1:2:0:0:
414,279,38659,2,0,L|281:304,1,119.000002269745,0|0,0:0|0:0,0:0:0:0:
215,317,39060,5,2,0:0:0:0:
160,254,39194,1,0,0:0:0:0:
187,173,39328,2,0,P|212:158|241:153,1,59.5000011348725,0|0,0:0|0:0,0:0:0:0:
242,238,39595,1,2,1:2:0:0:
296,89,39729,2,0,P|270:73|241:68,1,59.5000011348725,0|2,0:0|0:0,0:0:0:0:
166,31,39996,6,0,L|46:53,1,119.000002269745,2|2,0:0|0:0,0:0:0:0:
129,128,40397,2,0,L|187:139,1,59.5000011348725,2|2,0:0|0:0,0:0:0:0:
71,192,40664,2,0,L|13:204,1,59.5000011348725,2|0,1:2|0:0,0:0:0:0:
138,242,40932,2,0,L|131:287,2,29.7500005674362,0|0|0,0:0|0:0|0:0,0:0:0:0:
175,341,41199,5,2,0:0:0:0:
175,341,41333,2,0,P|220:336|264:347,1,90.9999958343508,0|0,0:0|0:0,0:0:0:0:
377,229,41734,1,0,1:0:0:0:
377,229,41868,2,0,P|399:227|421:222,1,45.4999979171754,2|0,0:0|0:0,0:0:0:0:
505,262,42135,6,0,L|493:152,1,90.9999958343508,0|0,0:0|0:0,0:0:0:0:
410,92,42536,2,0,L|414:137,1,45.4999979171754,0|0,0:0|0:0,0:0:0:0:
477,42,42803,1,0,0:0:0:0:
215,51,43338,6,0,P|196:99|202:178,1,119.000002269745,6|2,0:2|0:0,0:0:0:0:
264,225,43739,2,0,L|324:211,1,59.5000011348725,2|0,0:0|1:0,0:0:0:0:
144,337,44007,2,0,L|86:350,1,59.5000011348725,2|0,0:0|0:0,0:0:0:0:
171,251,44274,1,0,0:0:0:0:
375,284,44408,5,2,0:0:0:0:
348,370,44541,2,0,L|290:383,1,59.5000011348725,0|2,0:0|0:0,0:0:0:0:
273,269,44809,2,0,P|292:317|286:396,1,119.000002269745,2|0,0:0|0:0,0:0:0:0:
418,215,45210,2,0,L|476:202,1,59.5000011348725,2|0,0:0|0:0,0:0:0:0:
333,143,45477,5,2,0:0:0:0:
399,82,45611,1,0,0:0:0:0:
312,58,45745,2,0,L|254:45,1,59.5000011348725,0|0,0:0|0:0,0:0:0:0:
105,138,46012,2,0,P|169:138|217:170,1,119.000002269745,2|2,1:2|0:0,0:0:0:0:
255,245,46413,1,0,0:0:0:0:
333,143,46547,6,0,L|390:130,1,59.5000011348725,2|0,0:0|0:0,0:0:0:0:
377,274,46814,2,0,L|434:287,1,59.5000011348725,0|0,0:0|0:0,0:0:0:0:
478,109,47082,1,2,1:2:0:0:
430,203,47215,1,2,0:0:0:0:
392,48,47349,1,2,0:0:0:0:
288,278,47616,6,0,P|303:221|352:189,1,119.000002269745,0|2,0:0|0:0,0:0:0:0:
229,345,48017,1,0,0:0:0:0:
94,249,48151,2,0,P|146:274|203:260,1,119.000002269745,2|2,1:2|0:0,0:0:0:0:
145,131,48552,6,0,L|155:190,1,59.5000011348725,2|0,0:0|0:0,0:0:0:0:
282,78,48820,2,0,L|263:199,1,119.000002269745,2|2,0:0|0:0,0:0:0:0:
203,260,49221,1,2,1:2:0:0:
229,345,49354,1,2,0:0:0:0:
349,213,49488,6,0,P|408:215|456:249,1,119.000002269745,2|2,0:0|0:0,0:0:0:0:
498,16,50023,2,0,L|439:24,1,59.5000011348725,2|0,0:0|0:0,0:0:0:0:
391,100,50290,2,0,L|332:108,1,59.5000011348725,2|0,1:2|0:0,0:0:0:0:
256,56,50558,6,0,P|242:111|270:173,1,119.000002269745,2|0,0:0|0:0,0:0:0:0:
287,183,51092,1,2,0:0:0:0:
265,198,51360,1,2,1:2:0:0:
286,213,51627,1,2,0:0:0:0:
264,228,51894,6,0,L|132:241,1,119.000002269745,2|0,0:0|0:0,0:0:0:0:
353,377,52429,2,0,P|386:359|418:352,1,59.5000011348725,2|0,1:2|0:0,0:0:0:0:
510,260,52697,2,0,P|456:281|400:262,1,119.000002269745,2|8,0:0|0:1,0:0:0:0:
345,192,53231,1,2,0:0:0:0:
291,262,53499,1,2,1:2:0:0:
235,191,53766,1,2,0:0:0:0:
181,261,54033,6,0,L|192:388,1,119.000002269745,2|0,0:0|0:0,0:0:0:0:
28,106,54568,2,0,L|33:165,1,59.5000011348725,2|0,1:2|0:0,0:0:0:0:
100,222,54836,2,0,P|139:179|197:172,1,119.000002269745,2|8,0:0|0:1,0:0:0:0:
310,224,55370,1,2,0:0:0:0:
392,132,55638,1,2,1:2:0:0:
329,25,55905,1,2,0:0:0:0:
208,51,56172,5,2,0:0:0:0:
278,96,56306,2,0,L|268:160,1,59.5000011348725,2|2,0:0|0:0,0:0:0:0:
100,264,56574,2,0,L|110:199,1,59.5000011348725,2|0,0:0|1:0,0:0:0:0:
179,121,56841,2,0,L|201:265,1,119.000002269745,2|0,0:0|0:0,0:0:0:0:
210,321,57242,5,2,0:0:0:0:
274,268,57376,1,2,0:0:0:0:
350,297,57509,2,0,P|379:295|406:283,1,59.5000011348725,2|0,0:0|0:0,0:0:0:0:
118,220,57777,2,0,P|104:247|101:276,1,59.5000011348725,0|0,1:0|0:0,0:0:0:0:
299,58,58044,2,0,P|283:33|259:16,1,59.5000011348725,2|0,0:0|0:0,0:0:0:0:
256,192,58312,5,6,0:0:0:0:
256,192,58545,1,2,0:0:0:0:
256,192,58812,2,0,L|303:176,1,38.5000011749268,2|2,0:0|0:0,0:0:0:0:
256,272,59079,1,2,0:0:0:0:
