osu file format v14

[General]
AudioFilename: audio.mp3
AudioLeadIn: 0
PreviewTime: 8978
Countdown: 1
SampleSet: Soft
StackLeniency: 0.7
Mode: 0
LetterboxInBreaks: 0
WidescreenStoryboard: 1

[Editor]
Bookmarks: 26220,43329
DistanceSpacing: 1.5
BeatDivisor: 8
GridSize: 8
TimelineZoom: 1.6

[Metadata]
Title:Thank You!! (TV Size)
TitleUnicode:サンキュー!! (TV Size)
Artist:HOME MADE KAZOKU
ArtistUnicode:HOME MADE 家族
Creator:Seto Kousuke
Version:Extra
Source:BLEACH
Tags:Heartful Best Songs Rock the World ブリーチ Anime Ending J-Pop Japanese Arigatou Amandia Monstrata -Mikan Mikan Trynna
BeatmapID:1908514
BeatmapSetID:913665

[Difficulty]
HPDrainRate:6
CircleSize:4
OverallDifficulty:8
ApproachRate:9
SliderMultiplier:3.59999990463257
SliderTickRate:1

[Events]
//Background and Video events
0,0,"rukia is the cutest character in the series.jpg",0,0
Video,0,"video.avi"
//Break Periods
//Storyboard Layer 0 (Background)
//Storyboard Layer 1 (Fail)
//Storyboard Layer 2 (Pass)
//Storyboard Layer 3 (Foreground)
//Storyboard Sound Samples

[TimingPoints]
558,534.75935828877,4,2,1,40,1,0
558,-181.818181818181,4,2,1,40,0,0
8577,-399.999999999997,4,2,1,50,0,0
9114,-100,4,2,1,70,0,1
15397,-100,4,2,1,5,0,1
15531,-100,4,2,1,70,0,1
15664,-100,4,2,1,5,0,1
15798,-100,4,2,1,70,0,1
15932,-100,4,2,1,5,0,1
16066,-100,4,2,1,70,0,1
16199,-100,4,2,1,5,0,1
16333,-100,4,2,1,70,0,1
24221,-100,4,2,1,5,0,1
24354,-100,4,2,1,70,0,1
26226,-133.333333333333,4,2,1,60,0,0
41190,-181.818181818181,4,2,1,50,0,0
43338,-100,4,2,1,70,0,1
48017,-100,4,2,1,5,0,1
48151,-100,4,2,1,70,0,1
48285,-100,4,2,1,5,0,1
48418,-100,4,2,1,70,0,1
49622,-100,4,2,1,5,0,1
49755,-100,4,2,1,70,0,1
49889,-100,4,2,1,5,0,1
50023,-100,4,2,1,70,0,1
50156,-100,4,2,1,5,0,1
50290,-100,4,2,1,70,0,1
50424,-100,4,2,1,5,0,1
50558,-100,4,2,1,70,0,1
58312,-100,4,2,1,50,0,0
58545,534.75935828877,4,2,1,50,1,0

[Colours]
Combo1 : 116,212,254
Combo2 : 251,170,39
Combo3 : 226,162,189
Combo4 : 231,50,67

[HitObjects]
188,197,558,6,0,P|236:197|278:145,1,99.0000030212403,2|0,0:0|0:0,0:0:0:0:
192,96,959,2,0,L|66:95,1,99.0000030212403,2|0,0:0|0:0,0:0:0:0:
66,263,1360,2,0,P|104:213|73:149,1,99.0000030212403,2|0,0:0|0:0,0:0:0:0:
20,191,1761,1,2,0:0:0:0:
162,341,2028,1,0,0:0:0:0:
162,341,2162,2,0,P|205:317|269:336,1,99.0000030212403,2|0,0:0|0:0,0:0:0:0:
466,325,2697,6,0,P|389:323|368:300,1,99.0000030212403,2|0,0:0|0:0,0:0:0:0:
445,164,3098,2,0,P|443:241|420:262,1,99.0000030212403,2|0,0:0|0:0,0:0:0:0:
317,254,3499,2,0,P|293:211|303:164,1,99.0000030212403,2|0,0:0|0:0,0:0:0:0:
374,125,3900,1,2,0:0:0:0:
176,23,4167,1,0,0:0:0:0:
176,23,4301,2,0,P|204:67|183:119,1,99.0000030212403,2|0,0:0|0:0,0:0:0:0:
52,305,4836,6,0,B|45:271|63:245|63:245|58:204,1,99.0000030212403,2|0,0:0|0:0,0:0:0:0:
188,209,5237,2,0,B|183:245|183:245|201:270|194:304,1,99.0000030212403,2|0,0:0|0:0,0:0:0:0:
122,363,5638,1,2,0:0:0:0:
282,241,5905,1,0,0:0:0:0:
282,241,6039,2,0,P|324:252|344:318,1,99.0000030212403,2|0,0:0|0:0,0:0:0:0:
474,356,6440,2,0,P|436:311|442:274,1,99.0000030212403,2|0,0:0|0:0,0:0:0:0:
415,112,6975,6,0,B|449:127|464:155|464:155|468:136|479:125,1,99.0000030212403,2|0,0:0|0:0,0:0:0:0:
408,30,7376,2,0,P|361:45|337:86,1,99.0000030212403,2|0,0:0|0:0,0:0:0:0:
255,76,7777,2,0,P|252:51|244:29,2,49.5000015106202,2|0|0,0:0|0:0|0:0,0:0:0:0:
172,127,8178,1,0,0:0:0:0:
172,127,8312,2,0,L|173:77,1,49.5000015106202,2|0,0:0|0:0,0:0:0:0:
250,166,8579,6,0,L|251:235,1,67.5,0|0,1:0|0:0,0:0:0:0:
224,310,9114,6,0,B|241:315|254:338|254:338|264:319|294:304,1,90,6|0,0:2|0:0,0:0:0:0:
335,185,9381,1,2,0:0:0:0:
156,264,9515,2,0,P|139:304|152:347,1,90,2|0,0:0|1:0,0:0:0:0:
355,347,9782,2,0,P|367:295|336:251,1,90,2|0,0:0|0:0,0:0:0:0:
171,180,10049,1,0,0:0:0:0:
335,185,10183,6,0,L|424:178,1,90,2|0,0:0|0:0,0:0:0:0:
192,96,10451,1,2,0:0:0:0:
313,101,10584,2,0,B|433:92|433:92|378:67,1,180,2|0,0:0|0:0,0:0:0:0:
252,33,10985,1,2,0:0:0:0:
255,168,11119,1,0,0:0:0:0:
134,33,11253,6,0,P|111:71|113:115,1,90,2|0,0:0|0:0,0:0:0:0:
339,189,11520,1,0,0:0:0:0:
339,189,11654,1,0,0:0:0:0:
128,286,11787,2,0,P|105:247|107:203,1,90,2|0,1:2|0:0,0:0:0:0:
312,107,12055,1,2,0:0:0:0:
377,263,12189,1,0,0:0:0:0:
215,308,12322,6,0,L|128:286,1,90,2|0,0:0|0:0,0:0:0:0:
94,68,12590,2,0,L|47:146,1,90,0|0,0:0|0:0,0:0:0:0:
51,321,12857,1,0,1:0:0:0:
192,223,12991,1,0,0:0:0:0:
290,370,13124,2,0,P|335:372|384:330,1,90,2|0,0:0|0:0,0:0:0:0:
491,229,13392,6,0,L|467:343,1,90,0|0,0:0|0:0,0:0:0:0:
423,126,13659,2,0,L|394:257,1,135,2|0,0:0|0:0,0:0:0:0:
314,287,13926,2,0,P|278:248|328:204,1,135,2|0,1:2|0:0,0:0:0:0:
394,257,14194,1,2,0:0:0:0:
290,370,14328,2,0,B|195:397|210:332|113:365,1,180,2|2,0:0|0:0,0:0:0:0:
142,116,14729,2,0,P|167:160|142:227,1,90,0|2,0:0|0:0,0:0:0:0:
0,283,14996,1,2,1:2:0:0:
77,183,15130,1,2,0:0:0:0:
233,274,15263,2,0,B|267:271|290:277|290:277|309:263|309:263|351:273|376:259,1,135,2|0,0:0|0:0,0:0:0:0:
409,324,15531,6,0,P|379:268|428:229,1,135,2|0,0:0|0:0,0:0:0:0:
477,173,15798,2,0,P|426:209|380:166,1,135,2|0,0:0|0:0,0:0:0:0:
371,92,16066,2,0,P|368:154|307:164,1,135,2|0,1:2|0:0,0:0:0:0:
294,85,16333,1,2,0:0:0:0:
190,191,16467,1,0,0:0:0:0:
106,101,16600,2,0,L|195:100,1,90,0|0,0:0|0:0,0:0:0:0:
238,278,16868,5,2,0:0:0:0:
15,103,17135,1,2,1:2:0:0:
497,103,17402,1,2,0:0:0:0:
322,315,17670,6,0,B|341:251|325:191|254:226|232:112|330:62|378:179|316:180,1,270,2|0,0:0|0:0,0:0:0:0:
242,72,18205,2,0,P|281:50|326:51,1,90,2|0,1:2|0:0,0:0:0:0:
140,325,18472,1,2,0:0:0:0:
11,30,18739,5,8,0:1:0:0:
140,325,19007,6,0,P|177:295|185:254,1,90,2|0,0:0|0:0,0:0:0:0:
23,229,19274,2,0,P|67:259|102:254,1,90,2|0,1:2|2:0,2:0:0:0:
251,206,19541,2,0,P|218:177|154:186,1,90,2|0,0:0|0:0,0:0:0:0:
11,30,19809,6,0,B|138:87|171:-26|282:36,1,270,2|0,0:0|0:0,0:0:0:0:
173,175,20344,2,0,P|180:131|215:105,1,90,2|0,1:2|0:0,0:0:0:0:
416,351,20611,1,2,0:0:0:0:
496,40,20878,5,8,0:1:0:0:
416,351,21146,6,0,L|299:363,1,90,2|0,0:0|0:0,0:0:0:0:
455,260,21413,2,0,L|338:272,1,90,2|0,1:2|0:0,0:0:0:0:
494,169,21680,2,0,L|377:181,1,90,2|0,0:0|0:0,0:0:0:0:
241,378,21948,5,2,0:0:0:0:
280,287,22082,1,2,0:0:0:0:
319,196,22215,1,2,0:0:0:0:
221,208,22349,1,2,0:0:0:0:
326,360,22483,2,0,L|416:351,1,90,0|2,1:0|0:0,0:0:0:0:
159,359,22750,2,0,L|69:349,1,90,0|0,0:0|0:0,0:0:0:0:
205,126,23017,5,2,0:0:0:0:
221,208,23151,1,2,0:0:0:0:
155,264,23285,1,2,0:0:0:0:
65,254,23418,1,2,0:0:0:0:
28,80,23552,2,0,L|91:1,1,90,0|0,1:0|0:0,0:0:0:0:
126,169,23820,2,0,L|18:166,1,90,2|0,0:0|0:0,0:0:0:0:
167,46,24087,6,0,B|245:24|230:66|303:48,1,135,2|0,0:0|0:0,0:0:0:0:
308,127,24354,2,0,P|286:94|304:43,1,90,2|0,0:0|0:0,0:0:0:0:
453,18,24622,1,0,1:0:0:0:
386,84,24755,1,2,0:0:0:0:
477,187,24889,2,0,L|472:90,1,90,2|0,0:0|0:0,0:0:0:0:
318,211,25156,6,0,L|323:308,1,90,2|0,0:0|0:0,0:0:0:0:
466,384,25424,1,0,0:0:0:0:
438,266,25558,1,2,0:0:0:0:
257,349,25691,2,0,P|290:378|335:380,1,90,0|0,1:0|0:0,0:0:0:0:
233,261,25959,2,0,P|181:260|130:288,1,90,2|0,0:0|0:0,0:0:0:0:
11,125,26226,6,0,P|46:135|97:125,1,67.5000025749208,4|0,0:2|0:0,0:0:0:0:
69,214,26493,2,0,P|102:209|131:193,1,67.5000025749208,2|0,0:0|0:0,0:0:0:0:
220,109,26761,2,0,P|186:106|154:116,1,67.5000025749208,0|0,1:0|0:0,0:0:0:0:
57,59,27028,1,2,0:0:0:0:
57,59,27162,2,0,P|87:38|112:-6,1,67.5000025749208,2|0,0:0|0:0,0:0:0:0:
274,18,27429,2,0,P|293:45|322:63,1,67.5000025749208,2|0,0:0|0:0,0:0:0:0:
480,94,27697,1,0,0:0:0:0:
413,43,27830,2,0,P|400:72|400:121,1,67.5000025749208,2|0,1:2|0:0,0:0:0:0:
463,238,28098,2,0,P|462:206|441:161,1,67.5000025749208,0|0,0:0|0:0,0:0:0:0:
311,228,28365,6,0,L|406:228,1,67.5000025749208,2|0,0:0|0:0,0:0:0:0:
415,317,28632,1,0,0:0:0:0:
415,317,28766,2,0,L|271:317,1,135.000005149842,2|0,0:0|0:0,0:0:0:0:
194,293,29167,2,0,P|187:322|203:367,1,67.5000025749208,2|2,0:0|0:0,0:0:0:0:
221,199,29435,2,0,P|198:178|152:170,1,67.5000025749208,2|0,0:0|0:0,0:0:0:0:
311,228,29702,2,0,P|336:211|356:168,1,67.5000025749208,2|0,0:0|0:0,0:0:0:0:
138,85,29969,2,0,P|84:126|83:207,1,135.000005149842,2|0,1:2|0:0,0:0:0:0:
31,353,30370,1,0,0:0:0:0:
31,353,30504,6,0,L|29:253,1,67.5000025749208,2|0,0:0|0:0,0:0:0:0:
124,264,30771,2,0,L|125:331,1,67.5000025749208,2|0,0:0|0:0,0:0:0:0:
217,353,31039,2,0,L|218:285,1,67.5000025749208,0|0,1:0|0:0,0:0:0:0:
84,197,31306,1,2,0:0:0:0:
84,197,31440,1,2,0:0:0:0:
84,197,31574,2,0,P|127:186|152:192,1,67.5000025749208,0|2,0:0|0:0,0:0:0:0:
296,208,31841,2,0,P|259:213|228:209,1,67.5000025749208,0|2,0:0|0:0,0:0:0:0:
110,20,32108,1,2,1:2:0:0:
58,90,32242,2,0,P|130:104|190:56,1,135.000005149842,2|0,0:0|0:0,0:0:0:0:
294,10,32643,6,0,B|261:39|261:39|263:146,1,135.000005149842,2|0,0:0|0:0,0:0:0:0:
322,206,33044,2,0,B|389:234|398:180|455:213,1,135.000005149842,2|0,0:0|0:0,0:0:0:0:
423,356,33445,2,0,P|413:319|430:276,1,67.5000025749208,2|0,0:0|0:0,0:0:0:0:
320,352,33713,2,0,P|243:365|162:340,1,135.000005149842,2|2,0:0|0:0,0:0:0:0:
31,300,34114,1,2,0:0:0:0:
109,335,34247,2,0,P|116:302|110:269,1,67.5000025749208,2|0,1:2|0:0,0:0:0:0:
6,162,34515,2,0,P|31:183|63:195,1,67.5000025749208,0|0,0:0|0:0,0:0:0:0:
249,283,34782,6,0,P|286:268|310:236,1,67.5000025749208,2|0,0:0|0:0,0:0:0:0:
383,279,35049,2,0,P|388:239|372:202,1,67.5000025749208,2|0,0:0|0:0,0:0:0:0:
318,95,35317,2,0,L|317:184,1,67.5000025749208,0|0,1:0|0:0,0:0:0:0:
236,202,35584,2,0,L|236:134,1,67.5000025749208,2|2,0:0|0:0,0:0:0:0:
403,69,35852,2,0,L|402:136,1,67.5000025749208,2|0,0:0|0:0,0:0:0:0:
245,56,36119,2,0,P|211:57|180:77,1,67.5000025749208,2|0,0:0|0:0,0:0:0:0:
104,30,36386,1,0,1:0:0:0:
104,30,36520,2,0,L|98:168,1,135.000005149842,2|0,0:0|0:0,0:0:0:0:
13,292,36921,5,2,0:0:0:0:
13,292,37055,2,0,P|53:256|123:300,1,135.000005149842,0|0,0:0|0:0,0:0:0:0:
239,359,37456,1,2,1:2:0:0:
204,284,37590,2,0,B|202:243|202:243|274:154,1,135.000005149842,0|0,0:0|0:0,0:0:0:0:
383,100,37991,2,0,B|348:105|333:136|333:136|313:103|289:96,2,101.250001180172,2|2|2,0:0|0:0|0:0,0:0:0:0:
279,31,38525,1,0,1:0:0:0:
195,153,38659,2,0,L|201:19,1,135.000005149842,2|0,0:0|0:0,0:0:0:0:
57,172,39060,6,0,P|98:190|110:234,1,67.5000025749208,2|0,0:0|0:0,0:0:0:0:
255,247,39328,2,0,P|214:265|202:309,1,67.5000025749208,0|0,0:0|0:0,0:0:0:0:
374,369,39595,2,0,L|374:289,1,67.5000025749208,2|0,1:2|0:0,0:0:0:0:
335,144,39862,1,2,0:0:0:0:
333,226,39996,2,0,P|403:205|413:136,1,135.000005149842,2|2,0:0|0:0,0:0:0:0:
271,79,40397,2,0,L|189:82,1,67.5000025749208,2|2,0:0|0:0,0:0:0:0:
11,85,40664,2,0,L|102:78,1,67.5000025749208,2|0,1:2|0:0,0:0:0:0:
228,196,40932,2,0,P|193:192|146:200,1,67.5000025749208,0|0,0:0|0:0,0:0:0:0:
151,200,41132,1,0,0:0:0:0:
144,205,41199,6,0,L|144:275,1,49.5000015106202,2|0,0:0|0:0,0:0:0:0:
196,343,41467,1,0,0:0:0:0:
196,343,41600,1,0,0:0:0:0:
196,343,41734,2,0,L|253:339,1,49.5000015106202,0|2,1:0|0:0,0:0:0:0:
297,284,42001,1,0,0:0:0:0:
297,284,42135,2,0,P|321:327|311:377,1,99.0000030212403,0|0,0:0|0:0,0:0:0:0:
408,366,42536,2,0,P|399:341|403:299,1,49.5000015106202,0|0,0:0|0:0,0:0:0:0:
470,195,42803,1,0,0:0:0:0:
470,195,43338,6,0,P|418:205|369:178,1,90,6|0,0:2|0:0,0:0:0:0:
286,98,43606,1,2,0:0:0:0:
431,35,43739,2,0,L|431:138,1,90,2|0,0:0|1:0,0:0:0:0:
286,8,44007,2,0,L|286:98,1,90,2|0,0:0|0:0,0:0:0:0:
187,237,44274,1,0,0:0:0:0:
359,320,44408,6,0,P|337:281|297:263,1,90,2|0,0:0|0:0,0:0:0:0:
211,372,44675,1,2,0:0:0:0:
439,375,44809,2,0,P|451:314|390:210,1,180,2|0,0:0|0:0,0:0:0:0:
261,183,45210,1,2,0:0:0:0:
409,117,45344,1,0,0:0:0:0:
250,29,45477,6,0,L|136:40,1,90,2|0,0:0|0:0,0:0:0:0:
14,102,45745,1,0,0:0:0:0:
14,102,45878,1,0,0:0:0:0:
166,244,46012,2,0,L|158:132,1,90,2|0,1:2|0:0,0:0:0:0:
50,213,46279,1,2,0:0:0:0:
98,362,46413,1,0,0:0:0:0:
267,272,46547,6,0,L|259:160,1,90,2|0,0:0|0:0,0:0:0:0:
102,97,46814,2,0,P|120:139|173:152,1,90,0|0,0:0|0:0,0:0:0:0:
363,168,47082,1,2,1:2:0:0:
269,67,47215,1,2,0:0:0:0:
166,244,47349,2,0,L|172:333,1,90,2|0,0:0|0:0,0:0:0:0:
417,337,47616,6,0,P|371:346|317:329,1,90,0|0,0:0|0:0,0:0:0:0:
451,188,47884,2,0,P|424:243|347:253,1,135,2|0,0:0|0:0,0:0:0:0:
276,270,48151,2,0,P|259:219|334:192,1,135,2|0,1:2|0:0,0:0:0:0:
356,256,48418,1,2,0:0:0:0:
196,314,48552,2,0,P|170:240|216:129,1,180,2|2,0:0|0:0,0:0:0:0:
14,19,48953,2,0,P|35:63|18:114,1,90,0|2,0:0|0:0,0:0:0:0:
22,261,49221,1,2,1:2:0:0:
116,116,49354,1,2,0:0:0:0:
261,246,49488,2,0,P|324:264|388:213,1,135,2|0,0:0|0:0,0:0:0:0:
431,285,49755,6,0,L|415:128,1,135,2|0,0:0|0:0,0:0:0:0:
484,101,50023,2,0,L|327:117,1,135,2|0,0:0|0:0,0:0:0:0:
315,186,50290,2,0,L|299:29,1,135,2|0,1:2|0:0,0:0:0:0:
231,21,50558,5,2,0:0:0:0:
366,3,50691,1,0,0:0:0:0:
226,156,50825,2,0,P|186:172|128:139,1,90,0|0,0:0|0:0,0:0:0:0:
13,42,51092,5,2,0:0:0:0:
21,367,51360,1,2,1:2:0:0:
315,186,51627,1,2,0:0:0:0:
41,69,51894,6,0,B|38:33|-63:56|-11:172|90:139|59:77|119:61|183:80,1,270,2|0,0:0|0:0,0:0:0:0:
153,241,52429,2,0,P|134:197|162:134,1,90,2|0,1:2|0:0,0:0:0:0:
391,384,52697,1,2,0:0:0:0:
476,28,52964,5,8,0:1:0:0:
391,384,53231,6,0,P|352:368|295:388,1,90,2|0,0:0|0:0,0:0:0:0:
179,335,53499,2,0,P|220:329|251:286,1,90,2|0,1:2|0:0,0:0:0:0:
353,201,53766,2,0,P|331:229|335:284,1,90,2|0,0:0|0:0,0:0:0:0:
471,380,54033,6,0,B|462:333|462:333|481:283|481:283|467:244|448:196|448:196|445:232|412:261,1,270,2|0,0:0|0:0,0:0:0:0:
266,197,54568,2,0,P|309:210|353:201,1,90,2|0,1:2|0:0,0:0:0:0:
476,28,54836,1,2,0:0:0:0:
47,31,55103,5,8,0:1:0:0:
476,28,55370,6,0,P|478:71|446:113,1,90,2|0,0:0|0:0,0:0:0:0:
412,260,55638,2,0,P|373:240|353:192,1,90,2|0,1:2|0:0,0:0:0:0:
243,87,55905,2,0,P|279:63|331:69,1,90,2|0,0:0|0:0,0:0:0:0:
239,267,56172,5,2,0:0:0:0:
173,191,56306,1,2,0:0:0:0:
74,210,56440,1,2,0:0:0:0:
140,286,56574,1,2,0:0:0:0:
272,172,56707,2,0,L|237:70,1,90,0|2,1:0|0:0,0:0:0:0:
44,124,56975,2,0,L|73:209,1,90,0|0,0:0|0:0,0:0:0:0:
338,248,57242,5,2,0:0:0:0:
239,267,57376,1,2,0:0:0:0:
140,286,57509,1,2,0:0:0:0:
206,362,57643,1,0,0:0:0:0:
352,330,57777,2,0,P|357:277|332:243,1,90,0|0,1:0|0:0,0:0:0:0:
156,120,58044,2,0,P|151:173|176:207,1,90,2|0,0:0|0:0,0:0:0:0:
471,114,58312,5,6,0:0:0:0:
274,28,58545,1,2,0:0:0:0:
337,247,58812,1,2,0:0:0:0:
345,288,58946,1,2,0:0:0:0:
352,330,59080,1,2,0:0:0:0:
