osu file format v14

[General]
AudioFilename: holy samba land.mp3
AudioLeadIn: 0
PreviewTime: 486
Countdown: 0
SampleSet: None
StackLeniency: 0.7
Mode: 3
LetterboxInBreaks: 0
SpecialStyle: 0
WidescreenStoryboard: 1

[Editor]
DistanceSpacing: 0.8
BeatDivisor: 4
GridSize: 8
TimelineZoom: 1.8

[Metadata]
Title:Holy Samba Land
TitleUnicode:ホーリーサンバランド
Artist:HOLY SAMBA MASTER -SATOH-
ArtistUnicode:HOLY SAMBA MASTER 佐藤 -SATOH-
Creator:Jinjin
Version:LN Master (No LN quadstream)
Source:BMS
Tags:
BeatmapID:1397619
BeatmapSetID:476176

[Difficulty]
HPDrainRate:8.7
CircleSize:4
OverallDifficulty:7
ApproachRate:5
SliderMultiplier:1.4
SliderTickRate:1

[Events]
//Background and Video events
0,0,"Holy BG.jpg",0,0
//Break Periods
//Storyboard Layer 0 (Background)
//Storyboard Layer 1 (Fail)
//Storyboard Layer 2 (Pass)
//Storyboard Layer 3 (Foreground)
//Storyboard Sound Samples

[TimingPoints]
1582,400,4,2,0,0,1,0

[HitObjects]
64,192,1182,128,0,1582:0:0:0:0:
320,192,1582,128,0,1782:0:0:0:0:
192,192,1582,1,0,0:0:0:0:
448,192,1782,128,0,2082:0:0:0:0:
320,192,1882,128,0,2082:0:0:0:0:
192,192,2082,128,0,2282:0:0:0:0:
64,192,2282,128,0,2782:0:0:0:0:
448,192,2482,128,0,2582:0:0:0:0:
320,192,2582,128,0,2682:0:0:0:0:
448,192,2682,128,0,3182:0:0:0:0:
64,192,2882,128,0,2982:0:0:0:0:
192,192,2982,128,0,3082:0:0:0:0:
64,192,3082,128,0,3182:0:0:0:0:
320,192,3182,128,0,3582:0:0:0:0:
192,192,3382,128,0,3582:0:0:0:0:
64,192,3482,128,0,3982:0:0:0:0:
448,192,3682,128,0,3982:0:0:0:0:
192,192,3882,128,0,4382:0:0:0:0:
320,192,4082,128,0,4182:0:0:0:0:
448,192,4182,128,0,4282:0:0:0:0:
320,192,4282,128,0,4782:0:0:0:0:
192,192,4482,128,0,4582:0:0:0:0:
64,192,4582,128,0,4682:0:0:0:0:
192,192,4682,128,0,4782:0:0:0:0:
448,192,4782,128,0,5482:0:0:0:0:
64,192,4782,128,0,4982:0:0:0:0:
320,192,4982,128,0,5182:0:0:0:0:
192,192,5082,128,0,5282:0:0:0:0:
64,192,5282,128,0,5482:0:0:0:0:
192,192,5482,128,0,6082:0:0:0:0:
320,192,5682,128,0,5782:0:0:0:0:
448,192,5782,128,0,5882:0:0:0:0:
320,192,5882,128,0,6382:0:0:0:0:
64,192,6082,128,0,6182:0:0:0:0:
192,192,6182,128,0,6282:0:0:0:0:
64,192,6282,128,0,6382:0:0:0:0:
448,192,6382,128,0,6782:0:0:0:0:
192,192,6382,128,0,6582:0:0:0:0:
320,192,6582,128,0,6682:0:0:0:0:
64,192,6682,128,0,7082:0:0:0:0:
192,192,6882,128,0,7082:0:0:0:0:
448,192,7082,128,0,7882:0:0:0:0:
64,192,7182,1,0,0:0:0:0:
192,192,7282,128,0,7382:0:0:0:0:
320,192,7382,128,0,7482:0:0:0:0:
192,192,7482,128,0,7582:0:0:0:0:
64,192,7582,128,0,7882:0:0:0:0:
320,192,7682,128,0,7782:0:0:0:0:
192,192,7782,128,0,7882:0:0:0:0:
320,192,7882,128,0,7982:0:0:0:0:
64,192,7982,128,0,8282:0:0:0:0:
448,192,7982,128,0,11082:0:0:0:0:
320,192,8182,128,0,8282:0:0:0:0:
192,192,8282,128,0,8382:0:0:0:0:
64,192,8382,128,0,8682:0:0:0:0:
320,192,8482,128,0,8582:0:0:0:0:
192,192,8682,128,0,8782:0:0:0:0:
64,192,8782,128,0,9082:0:0:0:0:
192,192,8882,128,0,8982:0:0:0:0:
320,192,8982,128,0,9082:0:0:0:0:
192,192,9082,128,0,9182:0:0:0:0:
64,192,9182,128,0,9482:0:0:0:0:
320,192,9282,128,0,9382:0:0:0:0:
192,192,9382,128,0,9482:0:0:0:0:
320,192,9482,128,0,9582:0:0:0:0:
64,192,9582,128,0,9882:0:0:0:0:
192,192,9582,128,0,9682:0:0:0:0:
320,192,9782,128,0,9882:0:0:0:0:
192,192,9882,128,0,9982:0:0:0:0:
64,192,9982,128,0,10282:0:0:0:0:
320,192,10082,128,0,10182:0:0:0:0:
192,192,10282,128,0,10382:0:0:0:0:
64,192,10382,128,0,10682:0:0:0:0:
192,192,10482,128,0,10582:0:0:0:0:
320,192,10582,128,0,10682:0:0:0:0:
192,192,10682,128,0,10782:0:0:0:0:
64,192,10782,128,0,11082:0:0:0:0:
320,192,10882,128,0,10982:0:0:0:0:
192,192,10982,128,0,11082:0:0:0:0:
320,192,11082,128,0,11182:0:0:0:0:
64,192,11182,1,0,0:0:0:0:
192,192,11182,1,0,0:0:0:0:
448,192,11182,1,0,0:0:0:0:
64,192,11315,1,0,0:0:0:0:
192,192,11315,1,0,0:0:0:0:
448,192,11315,1,0,0:0:0:0:
192,192,11448,1,0,0:0:0:0:
64,192,11448,1,0,0:0:0:0:
448,192,11448,1,0,0:0:0:0:
64,192,11982,1,0,0:0:0:0:
320,192,11982,1,0,0:0:0:0:
448,192,11982,1,0,0:0:0:0:
448,192,12115,1,0,0:0:0:0:
320,192,12115,1,0,0:0:0:0:
64,192,12115,1,0,0:0:0:0:
320,192,12248,1,0,0:0:0:0:
448,192,12248,1,0,0:0:0:0:
64,192,12248,1,0,0:0:0:0:
64,192,12782,1,0,0:0:0:0:
192,192,12782,1,0,0:0:0:0:
448,192,12782,1,0,0:0:0:0:
64,192,12915,1,0,0:0:0:0:
320,192,12915,1,0,0:0:0:0:
448,192,12915,1,0,0:0:0:0:
192,192,13048,1,0,0:0:0:0:
320,192,13048,1,0,0:0:0:0:
448,192,13048,1,0,0:0:0:0:
64,192,13182,1,0,0:0:0:0:
320,192,13182,1,0,0:0:0:0:
448,192,13182,1,0,0:0:0:0:
64,192,13315,1,0,0:0:0:0:
192,192,13315,1,0,0:0:0:0:
448,192,13315,1,0,0:0:0:0:
64,192,13448,1,0,0:0:0:0:
192,192,13448,1,0,0:0:0:0:
320,192,13448,1,0,0:0:0:0:
64,192,13582,1,0,0:0:0:0:
320,192,13582,1,0,0:0:0:0:
448,192,13582,1,0,0:0:0:0:
320,192,13715,1,0,0:0:0:0:
448,192,13715,1,0,0:0:0:0:
64,192,13715,1,0,0:0:0:0:
64,192,13848,1,0,0:0:0:0:
448,192,13848,1,0,0:0:0:0:
320,192,13848,1,0,0:0:0:0:
64,192,13982,128,0,14282:0:0:0:0:
320,192,13982,128,0,14282:0:0:0:0:
448,192,13982,128,0,14282:0:0:0:0:
64,192,14382,1,0,0:0:0:0:
320,192,14382,1,0,0:0:0:0:
448,192,14382,1,0,0:0:0:0:
320,192,14582,1,0,0:0:0:0:
192,192,14682,1,0,0:0:0:0:
448,192,14782,128,0,15082:0:0:0:0:
320,192,14782,128,0,14982:0:0:0:0:
64,192,14882,128,0,14982:0:0:0:0:
192,192,14982,128,0,15082:0:0:0:0:
320,192,15082,128,0,15182:0:0:0:0:
448,192,15182,128,0,15482:0:0:0:0:
64,192,15182,128,0,15482:0:0:0:0:
320,192,15282,128,0,15382:0:0:0:0:
192,192,15382,1,0,0:0:0:0:
320,192,15482,1,0,0:0:0:0:
64,192,15582,128,0,15882:0:0:0:0:
448,192,15582,128,0,15882:0:0:0:0:
192,192,15682,128,0,15782:0:0:0:0:
320,192,15782,1,0,0:0:0:0:
192,192,15882,1,0,0:0:0:0:
448,192,15982,128,0,16082:0:0:0:0:
64,192,15982,128,0,16382:0:0:0:0:
320,192,16082,128,0,16182:0:0:0:0:
448,192,16182,128,0,16282:0:0:0:0:
192,192,16282,128,0,16382:0:0:0:0:
320,192,16382,128,0,16682:0:0:0:0:
448,192,16382,128,0,16682:0:0:0:0:
64,192,16482,128,0,16582:0:0:0:0:
192,192,16582,128,0,16682:0:0:0:0:
64,192,16682,128,0,16782:0:0:0:0:
448,192,16782,128,0,17182:0:0:0:0:
320,192,16782,128,0,16882:0:0:0:0:
192,192,16882,128,0,16982:0:0:0:0:
64,192,16982,128,0,17082:0:0:0:0:
320,192,17082,128,0,17182:0:0:0:0:
64,192,17182,128,0,17482:0:0:0:0:
192,192,17182,128,0,17382:0:0:0:0:
448,192,17282,128,0,17482:0:0:0:0:
320,192,17382,128,0,17582:0:0:0:0:
192,192,17482,128,0,17582:0:0:0:0:
64,192,17582,128,0,18082:0:0:0:0:
448,192,17582,128,0,17782:0:0:0:0:
192,192,17682,128,0,17982:0:0:0:0:
320,192,17782,128,0,17882:0:0:0:0:
448,192,17882,128,0,18282:0:0:0:0:
320,192,17982,128,0,18282:0:0:0:0:
192,192,18082,128,0,18182:0:0:0:0:
64,192,18182,128,0,18382:0:0:0:0:
192,192,18282,128,0,18382:0:0:0:0:
448,192,18382,128,0,18682:0:0:0:0:
320,192,18382,128,0,18582:0:0:0:0:
64,192,18482,128,0,18682:0:0:0:0:
192,192,18582,128,0,18782:0:0:0:0:
320,192,18682,128,0,18782:0:0:0:0:
64,192,18782,128,0,19082:0:0:0:0:
448,192,18782,128,0,18982:0:0:0:0:
192,192,18882,128,0,19082:0:0:0:0:
320,192,18982,128,0,19082:0:0:0:0:
448,192,19082,128,0,19182:0:0:0:0:
64,192,19182,128,0,19682:0:0:0:0:
192,192,19182,128,0,19382:0:0:0:0:
448,192,19282,128,0,19482:0:0:0:0:
320,192,19382,128,0,19482:0:0:0:0:
192,192,19482,128,0,19582:0:0:0:0:
448,192,19582,128,0,19882:0:0:0:0:
320,192,19582,128,0,19882:0:0:0:0:
192,192,19682,128,0,19782:0:0:0:0:
64,192,19782,128,0,19982:0:0:0:0:
192,192,19882,128,0,19982:0:0:0:0:
448,192,19982,128,0,20282:0:0:0:0:
320,192,19982,128,0,20082:0:0:0:0:
64,192,20082,128,0,20182:0:0:0:0:
320,192,20182,128,0,20282:0:0:0:0:
192,192,20282,128,0,20482:0:0:0:0:
64,192,20382,128,0,20482:0:0:0:0:
448,192,20382,128,0,20482:0:0:0:0:
320,192,20482,128,0,20682:0:0:0:0:
448,192,20582,128,0,20682:0:0:0:0:
64,192,20582,128,0,20682:0:0:0:0:
192,192,20682,128,0,20782:0:0:0:0:
64,192,20782,1,0,0:0:0:0:
448,192,20782,1,0,0:0:0:0:
320,192,20782,1,0,0:0:0:0:
320,192,21182,1,0,0:0:0:0:
64,192,21182,128,0,21382:0:0:0:0:
192,192,21282,128,0,21482:0:0:0:0:
448,192,21382,128,0,21582:0:0:0:0:
64,192,21482,128,0,21782:0:0:0:0:
192,192,21582,128,0,21882:0:0:0:0:
320,192,21582,1,0,0:0:0:0:
448,192,21682,128,0,21882:0:0:0:0:
320,192,21782,128,0,22082:0:0:0:0:
64,192,21882,128,0,22282:0:0:0:0:
192,192,21982,128,0,22282:0:0:0:0:
448,192,21982,1,0,0:0:0:0:
320,192,22182,128,0,22382:0:0:0:0:
448,192,22282,128,0,22382:0:0:0:0:
64,192,22382,128,0,23082:0:0:0:0:
192,192,22382,128,0,22582:0:0:0:0:
320,192,22482,128,0,22582:0:0:0:0:
448,192,22582,128,0,22782:0:0:0:0:
192,192,22682,128,0,22782:0:0:0:0:
320,192,22782,128,0,22982:0:0:0:0:
448,192,22882,128,0,22982:0:0:0:0:
192,192,22982,128,0,23182:0:0:0:0:
320,192,23082,128,0,23182:0:0:0:0:
448,192,23182,128,0,23882:0:0:0:0:
64,192,23182,128,0,23382:0:0:0:0:
192,192,23282,128,0,23382:0:0:0:0:
320,192,23382,128,0,23582:0:0:0:0:
64,192,23482,128,0,23582:0:0:0:0:
192,192,23582,128,0,23782:0:0:0:0:
320,192,23682,128,0,23782:0:0:0:0:
64,192,23782,128,0,23882:0:0:0:0:
192,192,23882,128,0,23982:0:0:0:0:
64,192,23982,128,0,24382:0:0:0:0:
448,192,23982,128,0,24282:0:0:0:0:
320,192,23982,128,0,24082:0:0:0:0:
192,192,24082,128,0,24182:0:0:0:0:
320,192,24182,128,0,24682:0:0:0:0:
192,192,24282,128,0,24782:0:0:0:0:
448,192,24382,128,0,24482:0:0:0:0:
64,192,24482,128,0,24582:0:0:0:0:
448,192,24582,128,0,24682:0:0:0:0:
64,192,24682,128,0,24782:0:0:0:0:
320,192,24782,128,0,24882:0:0:0:0:
448,192,24782,128,0,25182:0:0:0:0:
192,192,24882,128,0,24982:0:0:0:0:
64,192,24982,128,0,25582:0:0:0:0:
192,192,25082,128,0,25182:0:0:0:0:
320,192,25182,128,0,25282:0:0:0:0:
448,192,25282,128,0,25382:0:0:0:0:
320,192,25382,128,0,25482:0:0:0:0:
192,192,25482,128,0,25582:0:0:0:0:
448,192,25582,128,0,25882:0:0:0:0:
320,192,25682,128,0,25882:0:0:0:0:
192,192,25782,128,0,25982:0:0:0:0:
64,192,25882,128,0,25982:0:0:0:0:
448,192,25982,128,0,26282:0:0:0:0:
320,192,25982,128,0,26182:0:0:0:0:
64,192,26082,1,0,0:0:0:0:
192,192,26182,1,0,0:0:0:0:
320,192,26282,1,0,0:0:0:0:
448,192,26382,128,0,26582:0:0:0:0:
64,192,26382,128,0,26682:0:0:0:0:
320,192,26482,128,0,26582:0:0:0:0:
192,192,26582,128,0,26682:0:0:0:0:
320,192,26682,128,0,26782:0:0:0:0:
448,192,26682,128,0,26782:0:0:0:0:
192,192,26782,1,0,0:0:0:0:
64,192,26782,128,0,26882:0:0:0:0:
448,192,26848,1,0,0:0:0:0:
192,192,26915,1,0,0:0:0:0:
320,192,26982,1,0,0:0:0:0:
448,192,26982,128,0,27082:0:0:0:0:
64,192,27048,1,0,0:0:0:0:
320,192,27115,1,0,0:0:0:0:
192,192,27182,1,0,0:0:0:0:
64,192,27182,1,0,0:0:0:0:
448,192,27182,1,0,0:0:0:0:
448,192,27582,128,0,27982:0:0:0:0:
320,192,27582,128,0,27682:0:0:0:0:
192,192,27682,128,0,27782:0:0:0:0:
64,192,27782,128,0,27882:0:0:0:0:
192,192,27882,128,0,27982:0:0:0:0:
64,192,27982,128,0,28382:0:0:0:0:
320,192,27982,128,0,28082:0:0:0:0:
448,192,28082,128,0,28182:0:0:0:0:
192,192,28182,128,0,28282:0:0:0:0:
320,192,28282,128,0,28382:0:0:0:0:
448,192,28382,128,0,28782:0:0:0:0:
192,192,28382,128,0,28482:0:0:0:0:
64,192,28482,128,0,28582:0:0:0:0:
320,192,28582,128,0,28682:0:0:0:0:
192,192,28682,128,0,28782:0:0:0:0:
320,192,28782,128,0,29182:0:0:0:0:
64,192,28782,128,0,28882:0:0:0:0:
192,192,28882,128,0,28982:0:0:0:0:
64,192,28982,128,0,29082:0:0:0:0:
448,192,29082,128,0,29182:0:0:0:0:
192,192,29182,128,0,29582:0:0:0:0:
64,192,29182,128,0,29282:0:0:0:0:
320,192,29282,128,0,29382:0:0:0:0:
448,192,29382,128,0,29482:0:0:0:0:
320,192,29482,128,0,29582:0:0:0:0:
448,192,29582,128,0,29982:0:0:0:0:
64,192,29582,128,0,29682:0:0:0:0:
320,192,29682,128,0,29782:0:0:0:0:
192,192,29782,128,0,29882:0:0:0:0:
64,192,29882,128,0,29982:0:0:0:0:
192,192,29982,128,0,30382:0:0:0:0:
320,192,29982,128,0,30082:0:0:0:0:
448,192,30082,128,0,30182:0:0:0:0:
64,192,30182,128,0,30282:0:0:0:0:
320,192,30282,128,0,30382:0:0:0:0:
64,192,30382,128,0,30782:0:0:0:0:
448,192,30382,128,0,30482:0:0:0:0:
192,192,30482,128,0,30582:0:0:0:0:
320,192,30582,128,0,30682:0:0:0:0:
448,192,30682,128,0,30782:0:0:0:0:
320,192,30782,128,0,31182:0:0:0:0:
192,192,30782,128,0,30882:0:0:0:0:
64,192,30882,128,0,30982:0:0:0:0:
192,192,30982,128,0,31082:0:0:0:0:
448,192,31082,128,0,31182:0:0:0:0:
64,192,31182,128,0,31582:0:0:0:0:
192,192,31182,128,0,31282:0:0:0:0:
448,192,31282,128,0,31382:0:0:0:0:
320,192,31382,128,0,31482:0:0:0:0:
192,192,31482,128,0,31582:0:0:0:0:
448,192,31582,128,0,31982:0:0:0:0:
320,192,31582,128,0,31682:0:0:0:0:
192,192,31682,128,0,31782:0:0:0:0:
64,192,31782,128,0,31882:0:0:0:0:
320,192,31882,128,0,31982:0:0:0:0:
64,192,31982,128,0,32682:0:0:0:0:
192,192,31982,128,0,32282:0:0:0:0:
448,192,32082,128,0,32182:0:0:0:0:
320,192,32182,128,0,32282:0:0:0:0:
448,192,32282,128,0,32382:0:0:0:0:
320,192,32382,128,0,32482:0:0:0:0:
192,192,32382,128,0,32582:0:0:0:0:
448,192,32482,128,0,32582:0:0:0:0:
320,192,32582,128,0,32682:0:0:0:0:
192,192,32682,128,0,32782:0:0:0:0:
448,192,32782,128,0,33482:0:0:0:0:
320,192,32782,128,0,33082:0:0:0:0:
64,192,32782,128,0,32882:0:0:0:0:
192,192,32882,128,0,32982:0:0:0:0:
64,192,32982,128,0,33082:0:0:0:0:
192,192,33082,128,0,33182:0:0:0:0:
64,192,33182,128,0,33282:0:0:0:0:
320,192,33182,128,0,33282:0:0:0:0:
192,192,33282,128,0,33382:0:0:0:0:
320,192,33382,128,0,33482:0:0:0:0:
64,192,33382,128,0,33582:0:0:0:0:
192,192,33482,128,0,33582:0:0:0:0:
320,192,33582,1,0,0:0:0:0:
448,192,33582,1,0,0:0:0:0:
64,192,33982,128,0,34382:0:0:0:0:
192,192,33982,128,0,34182:0:0:0:0:
320,192,34082,128,0,34282:0:0:0:0:
448,192,34182,128,0,34782:0:0:0:0:
192,192,34282,128,0,34382:0:0:0:0:
320,192,34382,128,0,34582:0:0:0:0:
192,192,34482,128,0,34682:0:0:0:0:
64,192,34582,128,0,35082:0:0:0:0:
320,192,34682,128,0,34782:0:0:0:0:
192,192,34782,128,0,34982:0:0:0:0:
320,192,34882,128,0,35182:0:0:0:0:
448,192,34982,128,0,35082:0:0:0:0:
192,192,35082,128,0,35182:0:0:0:0:
448,192,35182,1,0,0:0:0:0:
64,192,35182,128,0,35482:0:0:0:0:
320,192,35282,1,0,0:0:0:0:
448,192,35382,128,0,35482:0:0:0:0:
320,192,35482,128,0,35582:0:0:0:0:
192,192,35582,128,0,35882:0:0:0:0:
64,192,35582,1,0,0:0:0:0:
448,192,35682,1,0,0:0:0:0:
64,192,35782,128,0,35882:0:0:0:0:
448,192,35882,128,0,35982:0:0:0:0:
64,192,35982,1,0,0:0:0:0:
320,192,35982,128,0,36282:0:0:0:0:
192,192,36082,1,0,0:0:0:0:
64,192,36182,128,0,36282:0:0:0:0:
192,192,36282,128,0,36382:0:0:0:0:
320,192,36382,1,0,0:0:0:0:
448,192,36382,128,0,36682:0:0:0:0:
64,192,36482,1,0,0:0:0:0:
320,192,36582,128,0,36682:0:0:0:0:
64,192,36682,128,0,36782:0:0:0:0:
192,192,36782,1,0,0:0:0:0:
448,192,36782,1,0,0:0:0:0:
320,192,36982,128,0,37282:0:0:0:0:
64,192,37082,128,0,37182:0:0:0:0:
192,192,37182,128,0,37382:0:0:0:0:
448,192,37182,128,0,37282:0:0:0:0:
64,192,37282,128,0,37582:0:0:0:0:
320,192,37382,128,0,37482:0:0:0:0:
448,192,37382,128,0,37482:0:0:0:0:
192,192,37482,128,0,37682:0:0:0:0:
320,192,37582,128,0,37682:0:0:0:0:
448,192,37582,128,0,37782:0:0:0:0:
64,192,37682,128,0,37882:0:0:0:0:
192,192,37782,128,0,37882:0:0:0:0:
320,192,37782,128,0,37982:0:0:0:0:
448,192,37882,128,0,38082:0:0:0:0:
64,192,37982,128,0,38082:0:0:0:0:
192,192,37982,128,0,38182:0:0:0:0:
320,192,38082,128,0,38282:0:0:0:0:
448,192,38182,128,0,38282:0:0:0:0:
64,192,38182,128,0,38382:0:0:0:0:
192,192,38282,128,0,38382:0:0:0:0:
448,192,38382,128,0,38482:0:0:0:0:
320,192,38432,1,0,0:0:0:0:
64,192,38482,128,0,38582:0:0:0:0:
192,192,38532,1,0,0:0:0:0:
320,192,38582,128,0,38682:0:0:0:0:
448,192,38632,1,0,0:0:0:0:
64,192,38682,128,0,38782:0:0:0:0:
192,192,38732,1,0,0:0:0:0:
448,192,38782,128,0,38882:0:0:0:0:
320,192,38832,1,0,0:0:0:0:
192,192,38882,128,0,38982:0:0:0:0:
64,192,38932,1,0,0:0:0:0:
448,192,38982,128,0,39082:0:0:0:0:
320,192,39032,1,0,0:0:0:0:
64,192,39082,128,0,39182:0:0:0:0:
192,192,39132,1,0,0:0:0:0:
320,192,39182,128,0,39282:0:0:0:0:
448,192,39232,1,0,0:0:0:0:
64,192,39282,128,0,39382:0:0:0:0:
192,192,39332,1,0,0:0:0:0:
448,192,39382,128,0,39482:0:0:0:0:
320,192,39432,1,0,0:0:0:0:
192,192,39482,128,0,39582:0:0:0:0:
64,192,39532,1,0,0:0:0:0:
448,192,39582,1,0,0:0:0:0:
320,192,39632,1,0,0:0:0:0:
192,192,39682,1,0,0:0:0:0:
64,192,39732,1,0,0:0:0:0:
320,192,39782,1,0,0:0:0:0:
192,192,39832,1,0,0:0:0:0:
448,192,39882,1,0,0:0:0:0:
320,192,39932,1,0,0:0:0:0:
192,192,39982,1,0,0:0:0:0:
64,192,39982,128,0,40482:0:0:0:0:
320,192,40182,128,0,40282:0:0:0:0:
448,192,40282,128,0,40682:0:0:0:0:
192,192,40382,1,0,0:0:0:0:
320,192,40382,1,0,0:0:0:0:
64,192,40582,128,0,40982:0:0:0:0:
192,192,40582,128,0,40682:0:0:0:0:
448,192,40782,128,0,41282:0:0:0:0:
192,192,40782,1,0,0:0:0:0:
320,192,40782,1,0,0:0:0:0:
320,192,40982,128,0,41082:0:0:0:0:
64,192,41082,128,0,42482:0:0:0:0:
192,192,41182,1,0,0:0:0:0:
320,192,41182,1,0,0:0:0:0:
448,192,41382,128,0,41882:0:0:0:0:
192,192,41382,128,0,41482:0:0:0:0:
192,192,41582,128,0,42282:0:0:0:0:
320,192,41582,128,0,41882:0:0:0:0:
320,192,41982,128,0,42282:0:0:0:0:
448,192,41982,128,0,42682:0:0:0:0:
320,192,42382,128,0,43082:0:0:0:0:
192,192,42382,128,0,42682:0:0:0:0:
64,192,42582,128,0,42882:0:0:0:0:
448,192,42782,128,0,43082:0:0:0:0:
192,192,42782,128,0,43082:0:0:0:0:
64,192,42982,128,0,43082:0:0:0:0:
192,192,43182,128,0,43682:0:0:0:0:
320,192,43182,1,0,0:0:0:0:
64,192,43382,128,0,43482:0:0:0:0:
320,192,43482,128,0,43882:0:0:0:0:
64,192,43582,1,0,0:0:0:0:
448,192,43582,1,0,0:0:0:0:
192,192,43782,128,0,44182:0:0:0:0:
448,192,43782,128,0,43882:0:0:0:0:
320,192,43982,128,0,44482:0:0:0:0:
64,192,43982,1,0,0:0:0:0:
448,192,43982,1,0,0:0:0:0:
448,192,44182,128,0,44282:0:0:0:0:
192,192,44282,128,0,45082:0:0:0:0:
64,192,44382,1,0,0:0:0:0:
448,192,44382,1,0,0:0:0:0:
320,192,44582,128,0,45482:0:0:0:0:
64,192,44582,128,0,44682:0:0:0:0:
64,192,44782,128,0,45482:0:0:0:0:
448,192,44782,128,0,45082:0:0:0:0:
192,192,45182,128,0,45982:0:0:0:0:
448,192,45182,128,0,45882:0:0:0:0:
320,192,45582,128,0,45882:0:0:0:0:
64,192,45582,128,0,46282:0:0:0:0:
320,192,45982,128,0,46082:0:0:0:0:
448,192,45982,128,0,46082:0:0:0:0:
192,192,46082,128,0,46182:0:0:0:0:
320,192,46182,128,0,46282:0:0:0:0:
448,192,46182,128,0,46282:0:0:0:0:
192,192,46282,128,0,46382:0:0:0:0:
448,192,46382,128,0,46682:0:0:0:0:
320,192,46382,128,0,46482:0:0:0:0:
64,192,46382,128,0,46482:0:0:0:0:
192,192,46582,128,0,46882:0:0:0:0:
64,192,46682,1,0,0:0:0:0:
320,192,46682,1,0,0:0:0:0:
448,192,46782,128,0,47082:0:0:0:0:
192,192,46982,128,0,47282:0:0:0:0:
64,192,46982,1,0,0:0:0:0:
320,192,46982,1,0,0:0:0:0:
64,192,47182,128,0,47482:0:0:0:0:
320,192,47182,128,0,47282:0:0:0:0:
448,192,47182,128,0,47282:0:0:0:0:
320,192,47382,128,0,47682:0:0:0:0:
192,192,47482,1,0,0:0:0:0:
448,192,47482,1,0,0:0:0:0:
64,192,47582,128,0,47882:0:0:0:0:
320,192,47782,128,0,48082:0:0:0:0:
192,192,47782,1,0,0:0:0:0:
448,192,47782,1,0,0:0:0:0:
64,192,47982,128,0,48282:0:0:0:0:
192,192,47982,128,0,48082:0:0:0:0:
448,192,47982,128,0,48082:0:0:0:0:
448,192,48182,128,0,48482:0:0:0:0:
192,192,48282,1,0,0:0:0:0:
320,192,48282,1,0,0:0:0:0:
64,192,48382,128,0,48682:0:0:0:0:
448,192,48582,128,0,48882:0:0:0:0:
192,192,48582,1,0,0:0:0:0:
320,192,48582,1,0,0:0:0:0:
64,192,48782,128,0,49082:0:0:0:0:
192,192,48782,128,0,48882:0:0:0:0:
320,192,48782,128,0,48882:0:0:0:0:
320,192,48982,128,0,49282:0:0:0:0:
192,192,49082,1,0,0:0:0:0:
448,192,49082,1,0,0:0:0:0:
64,192,49182,128,0,49482:0:0:0:0:
320,192,49382,128,0,49682:0:0:0:0:
192,192,49382,1,0,0:0:0:0:
448,192,49382,1,0,0:0:0:0:
64,192,49582,128,0,49682:0:0:0:0:
192,192,49582,128,0,49682:0:0:0:0:
448,192,49682,128,0,49882:0:0:0:0:
192,192,49782,128,0,49982:0:0:0:0:
320,192,49882,128,0,50082:0:0:0:0:
64,192,49982,128,0,50182:0:0:0:0:
448,192,50082,128,0,50282:0:0:0:0:
192,192,50182,128,0,50382:0:0:0:0:
320,192,50282,128,0,50482:0:0:0:0:
64,192,50382,128,0,50582:0:0:0:0:
448,192,50482,128,0,50682:0:0:0:0:
192,192,50582,128,0,50782:0:0:0:0:
320,192,50682,128,0,50782:0:0:0:0:
64,192,50782,128,0,50982:0:0:0:0:
448,192,50782,128,0,50982:0:0:0:0:
192,192,50882,128,0,50982:0:0:0:0:
320,192,50982,128,0,51082:0:0:0:0:
192,192,51082,128,0,51182:0:0:0:0:
64,192,51182,128,0,51382:0:0:0:0:
448,192,51182,128,0,51382:0:0:0:0:
320,192,51282,128,0,51382:0:0:0:0:
192,192,51382,128,0,51482:0:0:0:0:
64,192,51482,128,0,51682:0:0:0:0:
448,192,51482,128,0,51682:0:0:0:0:
192,192,51582,128,0,51682:0:0:0:0:
320,192,51682,128,0,51782:0:0:0:0:
64,192,51782,128,0,51882:0:0:0:0:
448,192,51782,128,0,51882:0:0:0:0:
192,192,51882,128,0,51982:0:0:0:0:
64,192,51982,128,0,52082:0:0:0:0:
448,192,51982,128,0,52082:0:0:0:0:
320,192,52082,128,0,52182:0:0:0:0:
192,192,52182,128,0,52382:0:0:0:0:
448,192,52282,1,0,0:0:0:0:
64,192,52282,128,0,52782:0:0:0:0:
320,192,52282,1,0,0:0:0:0:
320,192,52382,128,0,52482:0:0:0:0:
448,192,52382,128,0,52482:0:0:0:0:
192,192,52482,128,0,52582:0:0:0:0:
320,192,52582,128,0,52682:0:0:0:0:
448,192,52582,128,0,52682:0:0:0:0:
192,192,52682,128,0,52782:0:0:0:0:
448,192,52782,128,0,53282:0:0:0:0:
320,192,52782,1,0,0:0:0:0:
192,192,52982,128,0,53082:0:0:0:0:
320,192,53082,128,0,53482:0:0:0:0:
64,192,53182,1,0,0:0:0:0:
192,192,53182,1,0,0:0:0:0:
448,192,53382,128,0,53782:0:0:0:0:
64,192,53382,128,0,53482:0:0:0:0:
320,192,53582,128,0,54082:0:0:0:0:
64,192,53582,1,0,0:0:0:0:
192,192,53582,1,0,0:0:0:0:
192,192,53782,128,0,53882:0:0:0:0:
448,192,53882,128,0,54682:0:0:0:0:
64,192,53982,1,0,0:0:0:0:
192,192,53982,1,0,0:0:0:0:
320,192,54182,128,0,54682:0:0:0:0:
64,192,54182,128,0,54282:0:0:0:0:
64,192,54382,128,0,55082:0:0:0:0:
192,192,54382,128,0,55082:0:0:0:0:
320,192,54782,128,0,55282:0:0:0:0:
448,192,54782,128,0,55482:0:0:0:0:
192,192,55182,128,0,55882:0:0:0:0:
64,192,55182,128,0,55482:0:0:0:0:
320,192,55382,128,0,55682:0:0:0:0:
64,192,55582,128,0,55882:0:0:0:0:
448,192,55582,128,0,55982:0:0:0:0:
320,192,55782,128,0,55982:0:0:0:0:
64,192,55982,128,0,56482:0:0:0:0:
192,192,55982,1,0,0:0:0:0:
448,192,56182,128,0,56282:0:0:0:0:
192,192,56282,128,0,56682:0:0:0:0:
320,192,56382,1,0,0:0:0:0:
448,192,56382,1,0,0:0:0:0:
64,192,56582,128,0,56982:0:0:0:0:
320,192,56582,128,0,56682:0:0:0:0:
192,192,56782,128,0,57282:0:0:0:0:
320,192,56782,1,0,0:0:0:0:
448,192,56782,1,0,0:0:0:0:
448,192,56982,128,0,57082:0:0:0:0:
64,192,57082,128,0,57882:0:0:0:0:
320,192,57182,1,0,0:0:0:0:
448,192,57182,1,0,0:0:0:0:
192,192,57382,128,0,58282:0:0:0:0:
320,192,57382,128,0,57482:0:0:0:0:
320,192,57582,128,0,57882:0:0:0:0:
448,192,57582,128,0,58282:0:0:0:0:
64,192,57982,128,0,58682:0:0:0:0:
320,192,57982,128,0,58782:0:0:0:0:
192,192,58382,128,0,58682:0:0:0:0:
448,192,58382,128,0,59082:0:0:0:0:
64,192,58782,128,0,58882:0:0:0:0:
192,192,58782,128,0,58882:0:0:0:0:
320,192,58882,128,0,58982:0:0:0:0:
64,192,58982,128,0,59082:0:0:0:0:
192,192,58982,128,0,59082:0:0:0:0:
320,192,59082,128,0,59182:0:0:0:0:
64,192,59182,128,0,59482:0:0:0:0:
192,192,59182,128,0,59282:0:0:0:0:
448,192,59182,128,0,59282:0:0:0:0:
448,192,59382,128,0,59682:0:0:0:0:
192,192,59482,1,0,0:0:0:0:
320,192,59482,1,0,0:0:0:0:
64,192,59582,128,0,59882:0:0:0:0:
448,192,59782,128,0,60082:0:0:0:0:
192,192,59782,1,0,0:0:0:0:
320,192,59782,1,0,0:0:0:0:
192,192,59982,128,0,60282:0:0:0:0:
64,192,59982,128,0,60082:0:0:0:0:
320,192,59982,128,0,60082:0:0:0:0:
448,192,60182,128,0,60482:0:0:0:0:
64,192,60282,1,0,0:0:0:0:
320,192,60282,1,0,0:0:0:0:
192,192,60382,128,0,60682:0:0:0:0:
448,192,60582,128,0,60882:0:0:0:0:
64,192,60582,1,0,0:0:0:0:
320,192,60582,1,0,0:0:0:0:
64,192,60782,128,0,61082:0:0:0:0:
192,192,60782,128,0,60882:0:0:0:0:
320,192,60782,128,0,60882:0:0:0:0:
320,192,60982,128,0,61282:0:0:0:0:
192,192,61082,1,0,0:0:0:0:
448,192,61082,1,0,0:0:0:0:
64,192,61182,128,0,61482:0:0:0:0:
320,192,61382,128,0,61682:0:0:0:0:
192,192,61382,1,0,0:0:0:0:
448,192,61382,1,0,0:0:0:0:
448,192,61582,128,0,61882:0:0:0:0:
192,192,61582,128,0,61682:0:0:0:0:
64,192,61582,128,0,61682:0:0:0:0:
64,192,61782,128,0,62082:0:0:0:0:
192,192,61882,1,0,0:0:0:0:
320,192,61882,1,0,0:0:0:0:
448,192,61982,128,0,62282:0:0:0:0:
64,192,62182,128,0,62482:0:0:0:0:
320,192,62182,1,0,0:0:0:0:
192,192,62182,1,0,0:0:0:0:
320,192,62382,128,0,62582:0:0:0:0:
448,192,62382,128,0,62482:0:0:0:0:
192,192,62482,128,0,62682:0:0:0:0:
448,192,62582,128,0,62782:0:0:0:0:
64,192,62682,128,0,62882:0:0:0:0:
320,192,62782,128,0,62982:0:0:0:0:
192,192,62882,128,0,63082:0:0:0:0:
448,192,62982,128,0,63182:0:0:0:0:
64,192,63082,128,0,63282:0:0:0:0:
320,192,63182,128,0,63382:0:0:0:0:
192,192,63282,128,0,63482:0:0:0:0:
448,192,63382,128,0,63582:0:0:0:0:
64,192,63482,128,0,63682:0:0:0:0:
320,192,63582,128,0,63782:0:0:0:0:
192,192,63682,128,0,63882:0:0:0:0:
448,192,63782,128,0,63982:0:0:0:0:
320,192,63882,128,0,63982:0:0:0:0:
64,192,63982,128,0,64482:0:0:0:0:
192,192,63982,128,0,64082:0:0:0:0:
192,192,64182,128,0,64482:0:0:0:0:
320,192,64182,128,0,64282:0:0:0:0:
320,192,64382,128,0,64682:0:0:0:0:
448,192,64382,128,0,64682:0:0:0:0:
192,192,64582,128,0,64882:0:0:0:0:
64,192,64582,128,0,65082:0:0:0:0:
320,192,64782,128,0,64882:0:0:0:0:
448,192,64782,128,0,65282:0:0:0:0:
192,192,64982,128,0,65082:0:0:0:0:
320,192,64982,128,0,65282:0:0:0:0:
64,192,65182,1,0,0:0:0:0:
192,192,65182,1,0,0:0:0:0:
192,192,65282,1,0,0:0:0:0:
64,192,65282,1,0,0:0:0:0:
320,192,65382,1,0,0:0:0:0:
448,192,65382,1,0,0:0:0:0:
320,192,65482,1,0,0:0:0:0:
448,192,65482,1,0,0:0:0:0:
64,192,65582,128,0,65882:0:0:0:0:
192,192,65582,128,0,65882:0:0:0:0:
320,192,65782,128,0,65882:0:0:0:0:
448,192,65782,128,0,65882:0:0:0:0:
64,192,65982,128,0,66282:0:0:0:0:
192,192,65982,128,0,66082:0:0:0:0:
320,192,65982,128,0,66082:0:0:0:0:
448,192,65982,128,0,66282:0:0:0:0:
192,192,66182,128,0,66282:0:0:0:0:
320,192,66182,128,0,66282:0:0:0:0:
320,192,66382,128,0,66482:0:0:0:0:
448,192,66382,128,0,66482:0:0:0:0:
192,192,66382,128,0,66682:0:0:0:0:
64,192,66382,128,0,66682:0:0:0:0:
320,192,66582,128,0,66682:0:0:0:0:
448,192,66582,128,0,66682:0:0:0:0:
192,192,66782,128,0,66882:0:0:0:0:
448,192,66782,128,0,67082:0:0:0:0:
320,192,66782,128,0,67082:0:0:0:0:
64,192,66782,128,0,66882:0:0:0:0:
192,192,66982,128,0,67082:0:0:0:0:
64,192,66982,128,0,67082:0:0:0:0:
320,192,67182,128,0,67282:0:0:0:0:
448,192,67182,128,0,67282:0:0:0:0:
192,192,67182,128,0,67482:0:0:0:0:
64,192,67182,128,0,67482:0:0:0:0:
320,192,67382,128,0,67482:0:0:0:0:
448,192,67382,128,0,67482:0:0:0:0:
192,192,67582,128,0,67682:0:0:0:0:
320,192,67582,128,0,67682:0:0:0:0:
64,192,67582,128,0,67882:0:0:0:0:
448,192,67582,128,0,67882:0:0:0:0:
320,192,67782,128,0,67882:0:0:0:0:
192,192,67782,128,0,67882:0:0:0:0:
64,192,67982,128,0,68082:0:0:0:0:
192,192,67982,128,0,68082:0:0:0:0:
320,192,67982,128,0,68282:0:0:0:0:
448,192,67982,128,0,68282:0:0:0:0:
192,192,68182,128,0,68282:0:0:0:0:
64,192,68182,128,0,68282:0:0:0:0:
192,192,68382,128,0,68482:0:0:0:0:
320,192,68382,128,0,68482:0:0:0:0:
64,192,68382,128,0,68682:0:0:0:0:
448,192,68382,128,0,68682:0:0:0:0:
192,192,68582,128,0,68682:0:0:0:0:
320,192,68582,128,0,68682:0:0:0:0:
192,192,68782,128,0,69082:0:0:0:0:
320,192,68782,128,0,69082:0:0:0:0:
64,192,68782,128,0,68882:0:0:0:0:
448,192,68782,128,0,68882:0:0:0:0:
64,192,68982,128,0,69082:0:0:0:0:
448,192,68982,128,0,69082:0:0:0:0:
64,192,69182,128,0,69282:0:0:0:0:
192,192,69182,128,0,69282:0:0:0:0:
320,192,69182,128,0,69482:0:0:0:0:
448,192,69182,128,0,69482:0:0:0:0:
64,192,69382,128,0,69482:0:0:0:0:
192,192,69382,128,0,69482:0:0:0:0:
320,192,69582,128,0,69682:0:0:0:0:
448,192,69582,128,0,69682:0:0:0:0:
192,192,69582,128,0,69882:0:0:0:0:
64,192,69582,128,0,69882:0:0:0:0:
320,192,69782,128,0,69882:0:0:0:0:
448,192,69782,128,0,69882:0:0:0:0:
192,192,69982,128,0,70082:0:0:0:0:
64,192,69982,128,0,70082:0:0:0:0:
320,192,69982,128,0,70282:0:0:0:0:
448,192,69982,128,0,70282:0:0:0:0:
64,192,70182,128,0,70282:0:0:0:0:
192,192,70182,128,0,70282:0:0:0:0:
320,192,70382,128,0,70482:0:0:0:0:
448,192,70382,128,0,70482:0:0:0:0:
192,192,70382,128,0,70682:0:0:0:0:
64,192,70382,128,0,70682:0:0:0:0:
448,192,70582,128,0,70682:0:0:0:0:
320,192,70582,128,0,70682:0:0:0:0:
192,192,70782,128,0,70882:0:0:0:0:
320,192,70782,128,0,70882:0:0:0:0:
64,192,70782,128,0,71082:0:0:0:0:
448,192,70782,128,0,71082:0:0:0:0:
320,192,70982,128,0,71082:0:0:0:0:
192,192,70982,128,0,71082:0:0:0:0:
64,192,71182,128,0,71282:0:0:0:0:
192,192,71182,128,0,71282:0:0:0:0:
320,192,71182,128,0,71482:0:0:0:0:
448,192,71182,128,0,71482:0:0:0:0:
64,192,71382,128,0,71482:0:0:0:0:
192,192,71382,128,0,71482:0:0:0:0:
192,192,71582,128,0,71682:0:0:0:0:
320,192,71582,128,0,71682:0:0:0:0:
64,192,71582,128,0,71682:0:0:0:0:
448,192,71582,128,0,71682:0:0:0:0:
192,192,71782,128,0,71882:0:0:0:0:
320,192,71782,128,0,71882:0:0:0:0:
64,192,71782,128,0,71882:0:0:0:0:
448,192,71782,128,0,71882:0:0:0:0:
64,192,71982,128,0,72082:0:0:0:0:
448,192,71982,128,0,72082:0:0:0:0:
192,192,71982,128,0,72282:0:0:0:0:
320,192,71982,128,0,72282:0:0:0:0:
448,192,72182,128,0,72282:0:0:0:0:
64,192,72182,128,0,72282:0:0:0:0:
64,192,72382,128,0,72482:0:0:0:0:
320,192,72382,128,0,72482:0:0:0:0:
192,192,72382,128,0,72682:0:0:0:0:
448,192,72382,128,0,72682:0:0:0:0:
320,192,72582,128,0,72682:0:0:0:0:
64,192,72582,128,0,72682:0:0:0:0:
192,192,72782,128,0,72882:0:0:0:0:
448,192,72782,128,0,72882:0:0:0:0:
64,192,72782,128,0,73082:0:0:0:0:
320,192,72782,128,0,73082:0:0:0:0:
448,192,72982,128,0,73082:0:0:0:0:
192,192,72982,128,0,73082:0:0:0:0:
64,192,73182,128,0,73282:0:0:0:0:
320,192,73182,128,0,73282:0:0:0:0:
192,192,73182,128,0,73482:0:0:0:0:
448,192,73182,128,0,73482:0:0:0:0:
320,192,73382,128,0,73482:0:0:0:0:
64,192,73382,128,0,73482:0:0:0:0:
320,192,73582,128,0,73682:0:0:0:0:
192,192,73582,128,0,73682:0:0:0:0:
448,192,73582,128,0,73882:0:0:0:0:
64,192,73582,128,0,73682:0:0:0:0:
320,192,73782,128,0,73882:0:0:0:0:
192,192,73782,128,0,73882:0:0:0:0:
64,192,73782,128,0,73882:0:0:0:0:
192,192,73982,128,0,74082:0:0:0:0:
448,192,73982,128,0,74082:0:0:0:0:
64,192,73982,128,0,74282:0:0:0:0:
320,192,73982,128,0,74082:0:0:0:0:
192,192,74182,128,0,74282:0:0:0:0:
448,192,74182,128,0,74282:0:0:0:0:
320,192,74182,128,0,74282:0:0:0:0:
64,192,74382,128,0,74482:0:0:0:0:
192,192,74382,128,0,74682:0:0:0:0:
320,192,74382,128,0,74482:0:0:0:0:
448,192,74382,128,0,74482:0:0:0:0:
320,192,74582,128,0,74682:0:0:0:0:
64,192,74582,128,0,74682:0:0:0:0:
448,192,74582,128,0,74682:0:0:0:0:
448,192,74782,128,0,74882:0:0:0:0:
320,192,74782,128,0,75082:0:0:0:0:
192,192,74782,128,0,74882:0:0:0:0:
64,192,74782,128,0,74882:0:0:0:0:
448,192,74982,128,0,75082:0:0:0:0:
64,192,74982,128,0,75082:0:0:0:0:
192,192,74982,128,0,75082:0:0:0:0:
64,192,75182,128,0,75682:0:0:0:0:
192,192,75182,128,0,75682:0:0:0:0:
320,192,75182,128,0,76182:0:0:0:0:
448,192,75182,1,0,0:0:0:0:
448,192,75382,128,0,75482:0:0:0:0:
448,192,75582,1,0,0:0:0:0:
64,192,75782,128,0,75882:0:0:0:0:
192,192,75782,128,0,75882:0:0:0:0:
448,192,75782,128,0,75882:0:0:0:0:
64,192,75982,128,0,76682:0:0:0:0:
192,192,75982,128,0,76682:0:0:0:0:
448,192,75982,1,0,0:0:0:0:
448,192,76182,128,0,76282:0:0:0:0:
320,192,76282,128,0,76682:0:0:0:0:
448,192,76382,1,0,0:0:0:0:
448,192,76582,128,0,76682:0:0:0:0:
320,192,76782,128,0,77282:0:0:0:0:
448,192,76782,128,0,77282:0:0:0:0:
192,192,76782,128,0,77782:0:0:0:0:
64,192,76782,1,0,0:0:0:0:
64,192,76982,128,0,77082:0:0:0:0:
64,192,77182,1,0,0:0:0:0:
320,192,77382,128,0,77482:0:0:0:0:
448,192,77382,128,0,77482:0:0:0:0:
64,192,77382,128,0,77482:0:0:0:0:
320,192,77582,128,0,77782:0:0:0:0:
448,192,77582,128,0,77782:0:0:0:0:
64,192,77582,1,0,0:0:0:0:
64,192,77782,128,0,77882:0:0:0:0:
320,192,77882,1,0,0:0:0:0:
448,192,77882,1,0,0:0:0:0:
192,192,77882,128,0,77982:0:0:0:0:
320,192,77982,1,0,0:0:0:0:
448,192,77982,1,0,0:0:0:0:
64,192,77982,1,0,0:0:0:0:
64,192,78182,1,0,0:0:0:0:
192,192,78182,1,0,0:0:0:0:
64,192,78382,128,0,78682:0:0:0:0:
320,192,78382,128,0,78682:0:0:0:0:
448,192,78382,128,0,78682:0:0:0:0:
192,192,78382,128,0,78482:0:0:0:0:
192,192,78582,128,0,78682:0:0:0:0:
320,192,78782,1,0,0:0:0:0:
64,192,78782,128,0,78882:0:0:0:0:
192,192,78782,128,0,78882:0:0:0:0:
448,192,78782,128,0,78882:0:0:0:0:
320,192,78882,1,0,0:0:0:0:
64,192,78982,1,0,0:0:0:0:
192,192,79082,1,0,0:0:0:0:
320,192,79182,1,0,0:0:0:0:
64,192,79182,128,0,79282:0:0:0:0:
448,192,79182,128,0,79282:0:0:0:0:
192,192,79182,128,0,79282:0:0:0:0:
320,192,79282,1,0,0:0:0:0:
448,192,79382,1,0,0:0:0:0:
192,192,79482,1,0,0:0:0:0:
64,192,79582,1,0,0:0:0:0:
320,192,79582,128,0,79682:0:0:0:0:
448,192,79582,128,0,79682:0:0:0:0:
192,192,79582,128,0,79682:0:0:0:0:
64,192,79682,1,0,0:0:0:0:
320,192,79782,1,0,0:0:0:0:
192,192,79882,1,0,0:0:0:0:
448,192,79982,1,0,0:0:0:0:
320,192,79982,128,0,80082:0:0:0:0:
192,192,79982,128,0,80082:0:0:0:0:
64,192,79982,128,0,80082:0:0:0:0:
448,192,80082,1,0,0:0:0:0:
64,192,80182,1,0,0:0:0:0:
320,192,80282,1,0,0:0:0:0:
64,192,80382,1,0,0:0:0:0:
448,192,80382,128,0,80482:0:0:0:0:
192,192,80382,128,0,80482:0:0:0:0:
320,192,80382,128,0,80482:0:0:0:0:
64,192,80482,1,0,0:0:0:0:
192,192,80582,1,0,0:0:0:0:
448,192,80682,1,0,0:0:0:0:
320,192,80782,1,0,0:0:0:0:
64,192,80782,128,0,80882:0:0:0:0:
192,192,80782,128,0,80882:0:0:0:0:
448,192,80782,128,0,80882:0:0:0:0:
320,192,80882,1,0,0:0:0:0:
192,192,80982,1,0,0:0:0:0:
320,192,81082,1,0,0:0:0:0:
64,192,81182,1,0,0:0:0:0:
448,192,81182,128,0,81282:0:0:0:0:
320,192,81182,128,0,81282:0:0:0:0:
192,192,81182,128,0,81282:0:0:0:0:
64,192,81282,1,0,0:0:0:0:
192,192,81382,1,0,0:0:0:0:
320,192,81482,1,0,0:0:0:0:
64,192,81582,128,0,81882:0:0:0:0:
192,192,81582,128,0,81682:0:0:0:0:
448,192,81582,128,0,81882:0:0:0:0:
320,192,81682,128,0,81782:0:0:0:0:
192,192,81782,128,0,81882:0:0:0:0:
320,192,81882,128,0,82082:0:0:0:0:
64,192,81982,1,0,0:0:0:0:
448,192,81982,128,0,82282:0:0:0:0:
192,192,81982,128,0,82082:0:0:0:0:
64,192,82082,128,0,82182:0:0:0:0:
192,192,82182,128,0,82282:0:0:0:0:
320,192,82282,128,0,82482:0:0:0:0:
448,192,82382,1,0,0:0:0:0:
64,192,82382,128,0,82682:0:0:0:0:
192,192,82382,128,0,82482:0:0:0:0:
448,192,82482,128,0,82582:0:0:0:0:
320,192,82582,128,0,82682:0:0:0:0:
192,192,82682,128,0,82882:0:0:0:0:
320,192,82782,1,0,0:0:0:0:
448,192,82782,128,0,83082:0:0:0:0:
64,192,82782,128,0,82882:0:0:0:0:
320,192,82882,128,0,82982:0:0:0:0:
192,192,82982,128,0,83082:0:0:0:0:
320,192,83082,128,0,83282:0:0:0:0:
64,192,83182,1,0,0:0:0:0:
448,192,83182,128,0,83482:0:0:0:0:
192,192,83182,128,0,83282:0:0:0:0:
64,192,83282,128,0,83382:0:0:0:0:
192,192,83382,128,0,83482:0:0:0:0:
320,192,83482,128,0,83682:0:0:0:0:
448,192,83582,1,0,0:0:0:0:
64,192,83582,128,0,83882:0:0:0:0:
192,192,83582,128,0,83682:0:0:0:0:
448,192,83682,128,0,83782:0:0:0:0:
192,192,83782,128,0,83882:0:0:0:0:
320,192,83882,128,0,84082:0:0:0:0:
64,192,83982,1,0,0:0:0:0:
448,192,83982,128,0,84282:0:0:0:0:
192,192,83982,128,0,84082:0:0:0:0:
64,192,84082,128,0,84182:0:0:0:0:
320,192,84182,128,0,84282:0:0:0:0:
192,192,84282,128,0,84482:0:0:0:0:
320,192,84382,1,0,0:0:0:0:
448,192,84382,1,0,0:0:0:0:
64,192,84382,128,0,84482:0:0:0:0:
448,192,84482,1,0,0:0:0:0:
64,192,84582,128,0,84682:0:0:0:0:
192,192,84582,128,0,84682:0:0:0:0:
320,192,84682,1,0,0:0:0:0:
64,192,84782,128,0,84982:0:0:0:0:
192,192,84782,128,0,84882:0:0:0:0:
448,192,84782,128,0,85082:0:0:0:0:
320,192,84882,128,0,85082:0:0:0:0:
192,192,84982,128,0,85082:0:0:0:0:
64,192,85082,1,0,0:0:0:0:
192,192,85182,1,0,0:0:0:0:
320,192,85182,128,0,85282:0:0:0:0:
448,192,85182,128,0,85282:0:0:0:0:
192,192,85282,128,0,85382:0:0:0:0:
320,192,85382,128,0,85482:0:0:0:0:
448,192,85382,128,0,85482:0:0:0:0:
192,192,85482,128,0,85682:0:0:0:0:
448,192,85582,1,0,0:0:0:0:
64,192,85582,128,0,85682:0:0:0:0:
320,192,85582,128,0,85782:0:0:0:0:
448,192,85682,128,0,85882:0:0:0:0:
192,192,85782,128,0,85882:0:0:0:0:
64,192,85782,128,0,85882:0:0:0:0:
320,192,85882,128,0,86082:0:0:0:0:
64,192,85982,1,0,0:0:0:0:
192,192,85982,128,0,86182:0:0:0:0:
448,192,85982,128,0,86082:0:0:0:0:
64,192,86082,128,0,86282:0:0:0:0:
320,192,86182,128,0,86282:0:0:0:0:
448,192,86182,128,0,86282:0:0:0:0:
192,192,86282,128,0,86582:0:0:0:0:
320,192,86382,1,0,0:0:0:0:
64,192,86382,128,0,86482:0:0:0:0:
448,192,86382,128,0,86482:0:0:0:0:
320,192,86482,128,0,86682:0:0:0:0:
448,192,86582,128,0,86682:0:0:0:0:
64,192,86582,128,0,86682:0:0:0:0:
192,192,86682,128,0,86882:0:0:0:0:
448,192,86782,1,0,0:0:0:0:
64,192,86782,128,0,86982:0:0:0:0:
320,192,86782,128,0,86882:0:0:0:0:
448,192,86882,128,0,87082:0:0:0:0:
320,192,86982,128,0,87082:0:0:0:0:
192,192,86982,128,0,87082:0:0:0:0:
64,192,87082,128,0,87282:0:0:0:0:
192,192,87182,1,0,0:0:0:0:
320,192,87182,128,0,87382:0:0:0:0:
448,192,87182,128,0,87282:0:0:0:0:
192,192,87282,128,0,87482:0:0:0:0:
64,192,87382,128,0,87482:0:0:0:0:
448,192,87382,128,0,87482:0:0:0:0:
320,192,87482,128,0,87682:0:0:0:0:
64,192,87582,1,0,0:0:0:0:
448,192,87582,128,0,87682:0:0:0:0:
192,192,87582,128,0,87782:0:0:0:0:
64,192,87682,128,0,87882:0:0:0:0:
320,192,87782,128,0,87882:0:0:0:0:
448,192,87782,128,0,87882:0:0:0:0:
192,192,87882,128,0,88082:0:0:0:0:
320,192,87982,1,0,0:0:0:0:
448,192,87982,1,0,0:0:0:0:
64,192,87982,128,0,88082:0:0:0:0:
320,192,88082,128,0,88182:0:0:0:0:
448,192,88082,128,0,88282:0:0:0:0:
192,192,88182,128,0,88282:0:0:0:0:
64,192,88182,128,0,88282:0:0:0:0:
320,192,88282,128,0,88482:0:0:0:0:
192,192,88382,1,0,0:0:0:0:
64,192,88382,1,0,0:0:0:0:
448,192,88382,128,0,88482:0:0:0:0:
192,192,88482,128,0,88682:0:0:0:0:
64,192,88482,128,0,88582:0:0:0:0:
320,192,88582,128,0,88682:0:0:0:0:
448,192,88582,128,0,88682:0:0:0:0:
64,192,88682,128,0,88882:0:0:0:0:
320,192,88782,1,0,0:0:0:0:
448,192,88782,1,0,0:0:0:0:
192,192,88782,128,0,88882:0:0:0:0:
320,192,88882,128,0,89082:0:0:0:0:
448,192,88882,128,0,88982:0:0:0:0:
192,192,88982,128,0,89082:0:0:0:0:
64,192,88982,128,0,89082:0:0:0:0:
448,192,89082,128,0,89282:0:0:0:0:
192,192,89182,1,0,0:0:0:0:
64,192,89182,1,0,0:0:0:0:
320,192,89182,128,0,89282:0:0:0:0:
192,192,89282,128,0,89482:0:0:0:0:
64,192,89282,128,0,89482:0:0:0:0:
448,192,89382,128,0,89482:0:0:0:0:
320,192,89382,128,0,89482:0:0:0:0:
192,192,89582,128,0,89982:0:0:0:0:
320,192,89582,128,0,90048:0:0:0:0:
448,192,89582,128,0,90115:0:0:0:0:
64,192,89582,128,0,89915:0:0:0:0:
64,192,89982,128,0,90115:0:0:0:0:
192,192,90048,128,0,90182:0:0:0:0:
320,192,90115,128,0,90248:0:0:0:0:
448,192,90182,128,0,90315:0:0:0:0:
64,192,90182,128,0,90315:0:0:0:0:
192,192,90248,128,0,90382:0:0:0:0:
320,192,90315,128,0,90448:0:0:0:0:
64,192,90382,128,0,90482:0:0:0:0:
448,192,90382,128,0,91082:0:0:0:0:
320,192,90582,128,0,90682:0:0:0:0:
64,192,90582,128,0,90682:0:0:0:0:
192,192,90782,128,0,91182:0:0:0:0:
64,192,90782,128,0,90882:0:0:0:0:
320,192,90782,128,0,90882:0:0:0:0:
64,192,91182,128,0,91982:0:0:0:0:
320,192,91182,128,0,91982:0:0:0:0:
448,192,91182,128,0,91982:0:0:0:0:
320,192,92582,128,0,92682:0:0:0:0:
192,192,92582,128,0,92682:0:0:0:0:
64,192,92582,128,0,92682:0:0:0:0:
64,192,92782,128,0,92982:0:0:0:0:
320,192,92782,128,0,92982:0:0:0:0:
448,192,92782,128,0,92982:0:0:0:0:
64,192,93082,128,0,93182:0:0:0:0:
448,192,93082,128,0,93182:0:0:0:0:
320,192,93082,128,0,93182:0:0:0:0:
64,192,93782,128,0,93882:0:0:0:0:
192,192,93782,128,0,93882:0:0:0:0:
320,192,93782,128,0,93882:0:0:0:0:
64,192,94182,128,0,94282:0:0:0:0:
192,192,94182,128,0,94282:0:0:0:0:
320,192,94182,128,0,94282:0:0:0:0:
64,192,94382,128,0,95182:0:0:0:0:
320,192,94382,128,0,95182:0:0:0:0:
448,192,94382,128,0,95182:0:0:0:0:
64,192,95782,128,0,95882:0:0:0:0:
192,192,95782,128,0,95882:0:0:0:0:
320,192,95782,128,0,95882:0:0:0:0:
64,192,95982,128,0,96182:0:0:0:0:
320,192,95982,128,0,96182:0:0:0:0:
448,192,95982,128,0,96182:0:0:0:0:
64,192,96282,128,0,96382:0:0:0:0:
320,192,96282,128,0,96382:0:0:0:0:
448,192,96282,128,0,96382:0:0:0:0:
64,192,96582,128,0,97082:0:0:0:0:
320,192,96582,128,0,97282:0:0:0:0:
448,192,96582,128,0,97282:0:0:0:0:
64,192,97182,1,0,0:0:0:0:
192,192,97182,1,0,0:0:0:0:
192,192,97282,1,0,0:0:0:0:
64,192,97282,1,0,0:0:0:0:
320,192,97382,1,0,0:0:0:0:
448,192,97382,1,0,0:0:0:0:
320,192,97482,1,0,0:0:0:0:
448,192,97482,1,0,0:0:0:0:
64,192,97582,128,0,98282:0:0:0:0:
192,192,97582,128,0,97682:0:0:0:0:
320,192,97682,128,0,97782:0:0:0:0:
448,192,97782,128,0,97882:0:0:0:0:
192,192,97882,128,0,98282:0:0:0:0:
320,192,97982,128,0,98082:0:0:0:0:
448,192,98082,128,0,98182:0:0:0:0:
320,192,98182,128,0,98282:0:0:0:0:
448,192,98282,128,0,98382:0:0:0:0:
192,192,98382,128,0,99182:0:0:0:0:
320,192,98382,128,0,98482:0:0:0:0:
448,192,98482,128,0,98582:0:0:0:0:
64,192,98582,128,0,98682:0:0:0:0:
320,192,98682,128,0,99082:0:0:0:0:
448,192,98782,128,0,98882:0:0:0:0:
64,192,98882,128,0,98982:0:0:0:0:
448,192,98982,128,0,99082:0:0:0:0:
64,192,99082,128,0,99182:0:0:0:0:
320,192,99182,128,0,99882:0:0:0:0:
448,192,99182,128,0,99282:0:0:0:0:
64,192,99282,128,0,99382:0:0:0:0:
192,192,99382,128,0,99482:0:0:0:0:
448,192,99482,128,0,99882:0:0:0:0:
64,192,99582,128,0,99682:0:0:0:0:
192,192,99682,128,0,99782:0:0:0:0:
64,192,99782,128,0,99982:0:0:0:0:
192,192,99882,128,0,99982:0:0:0:0:
448,192,99982,128,0,100682:0:0:0:0:
320,192,99982,128,0,100082:0:0:0:0:
192,192,100082,128,0,100182:0:0:0:0:
64,192,100182,128,0,100282:0:0:0:0:
320,192,100282,128,0,100682:0:0:0:0:
192,192,100382,128,0,100482:0:0:0:0:
64,192,100482,128,0,100582:0:0:0:0:
192,192,100582,128,0,100782:0:0:0:0:
64,192,100682,128,0,100782:0:0:0:0:
448,192,100782,128,0,100882:0:0:0:0:
320,192,100782,128,0,100982:0:0:0:0:
192,192,100882,128,0,101082:0:0:0:0:
64,192,100982,128,0,101082:0:0:0:0:
448,192,100982,128,0,101282:0:0:0:0:
320,192,101082,128,0,101182:0:0:0:0:
64,192,101182,128,0,101282:0:0:0:0:
192,192,101182,128,0,101382:0:0:0:0:
320,192,101282,128,0,101482:0:0:0:0:
448,192,101382,128,0,101482:0:0:0:0:
64,192,101382,128,0,101682:0:0:0:0:
192,192,101482,128,0,101582:0:0:0:0:
320,192,101582,128,0,101782:0:0:0:0:
448,192,101582,128,0,101682:0:0:0:0:
192,192,101682,128,0,101882:0:0:0:0:
64,192,101782,128,0,101882:0:0:0:0:
448,192,101782,128,0,102082:0:0:0:0:
320,192,101882,128,0,101982:0:0:0:0:
64,192,101982,128,0,102082:0:0:0:0:
192,192,101982,128,0,102182:0:0:0:0:
320,192,102082,128,0,102282:0:0:0:0:
448,192,102182,128,0,102282:0:0:0:0:
64,192,102182,128,0,102382:0:0:0:0:
192,192,102282,128,0,102382:0:0:0:0:
448,192,102382,128,0,102482:0:0:0:0:
320,192,102432,1,0,0:0:0:0:
192,192,102482,1,0,0:0:0:0:
64,192,102532,128,0,102632:0:0:0:0:
320,192,102582,1,0,0:0:0:0:
192,192,102632,128,0,102732:0:0:0:0:
448,192,102682,1,0,0:0:0:0:
320,192,102732,128,0,102832:0:0:0:0:
64,192,102782,1,0,0:0:0:0:
448,192,102832,128,0,102932:0:0:0:0:
192,192,102882,1,0,0:0:0:0:
64,192,102932,128,0,103032:0:0:0:0:
320,192,102982,1,0,0:0:0:0:
192,192,103032,128,0,103132:0:0:0:0:
448,192,103082,1,0,0:0:0:0:
320,192,103132,128,0,103232:0:0:0:0:
64,192,103182,1,0,0:0:0:0:
448,192,103232,128,0,103332:0:0:0:0:
192,192,103282,1,0,0:0:0:0:
64,192,103332,1,0,0:0:0:0:
320,192,103382,1,0,0:0:0:0:
192,192,103432,1,0,0:0:0:0:
64,192,103482,1,0,0:0:0:0:
448,192,103532,1,0,0:0:0:0:
320,192,103582,1,0,0:0:0:0:
192,192,103582,1,0,0:0:0:0:
64,192,103682,1,0,0:0:0:0:
448,192,103682,1,0,0:0:0:0:
192,192,103782,1,0,0:0:0:0:
320,192,103782,1,0,0:0:0:0:
64,192,103882,1,0,0:0:0:0:
448,192,103882,1,0,0:0:0:0:
192,192,103982,1,0,0:0:0:0:
64,192,105582,128,0,105632:0:0:0:0:
192,192,105782,128,0,105832:0:0:0:0:
320,192,105982,128,0,106032:0:0:0:0:
448,192,106182,128,0,106232:0:0:0:0:
448,192,106382,128,0,106432:0:0:0:0:
320,192,106582,128,0,106632:0:0:0:0:
192,192,106782,128,0,106832:0:0:0:0:
64,192,106982,128,0,107032:0:0:0:0:
192,192,107182,1,0,0:0:0:0:
320,192,107182,1,0,0:0:0:0:
448,192,107182,1,0,0:0:0:0:
448,192,107582,128,0,108282:0:0:0:0:
64,192,107682,128,0,107782:0:0:0:0:
192,192,107782,128,0,107882:0:0:0:0:
320,192,107882,128,0,107982:0:0:0:0:
64,192,107982,128,0,108582:0:0:0:0:
192,192,108082,128,0,108182:0:0:0:0:
320,192,108182,128,0,108282:0:0:0:0:
192,192,108282,128,0,108382:0:0:0:0:
448,192,108382,128,0,108682:0:0:0:0:
320,192,108482,128,0,108682:0:0:0:0:
192,192,108582,128,0,108682:0:0:0:0:
64,192,108682,128,0,108782:0:0:0:0:
320,192,108782,1,0,0:0:0:0:
448,192,108782,1,0,0:0:0:0:
448,192,108882,128,0,110282:0:0:0:0:
320,192,108882,128,0,109082:0:0:0:0:
320,192,109182,128,0,109882:0:0:0:0:
192,192,109182,128,0,109482:0:0:0:0:
64,192,109582,1,0,0:0:0:0:
192,192,109582,1,0,0:0:0:0:
192,192,109682,128,0,109882:0:0:0:0:
64,192,109682,128,0,110282:0:0:0:0:
320,192,109982,128,0,110282:0:0:0:0:
192,192,109982,128,0,110282:0:0:0:0:
64,192,110382,128,0,111082:0:0:0:0:
448,192,110482,128,0,110582:0:0:0:0:
320,192,110582,128,0,110682:0:0:0:0:
192,192,110682,128,0,110782:0:0:0:0:
448,192,110782,128,0,111482:0:0:0:0:
320,192,110882,128,0,110982:0:0:0:0:
192,192,110982,128,0,111082:0:0:0:0:
320,192,111082,128,0,111182:0:0:0:0:
64,192,111182,128,0,111782:0:0:0:0:
192,192,111282,128,0,111382:0:0:0:0:
320,192,111382,128,0,111482:0:0:0:0:
192,192,111482,128,0,111582:0:0:0:0:
448,192,111582,128,0,111882:0:0:0:0:
320,192,111682,128,0,111782:0:0:0:0:
192,192,111782,128,0,111882:0:0:0:0:
64,192,111882,128,0,111982:0:0:0:0:
320,192,111982,1,0,0:0:0:0:
448,192,111982,1,0,0:0:0:0:
448,192,112082,128,0,112882:0:0:0:0:
320,192,112082,128,0,112282:0:0:0:0:
192,192,112382,1,0,0:0:0:0:
320,192,112382,1,0,0:0:0:0:
320,192,112482,128,0,113082:0:0:0:0:
192,192,112482,128,0,112682:0:0:0:0:
192,192,112782,128,0,113082:0:0:0:0:
64,192,112782,128,0,113182:0:0:0:0:
448,192,112982,128,0,113282:0:0:0:0:
192,192,113182,128,0,113482:0:0:0:0:
320,192,113182,128,0,113382:0:0:0:0:
64,192,113282,128,0,113482:0:0:0:0:
448,192,113382,128,0,113482:0:0:0:0:
320,192,113482,128,0,113582:0:0:0:0:
64,192,113582,128,0,113782:0:0:0:0:
192,192,113582,128,0,113682:0:0:0:0:
448,192,113682,128,0,113982:0:0:0:0:
320,192,113782,128,0,113882:0:0:0:0:
64,192,113882,128,0,113982:0:0:0:0:
192,192,113982,128,0,114048:0:0:0:0:
320,192,114048,128,0,114115:0:0:0:0:
448,192,114115,128,0,114182:0:0:0:0:
64,192,114182,128,0,114248:0:0:0:0:
192,192,114248,128,0,114315:0:0:0:0:
320,192,114315,128,0,114382:0:0:0:0:
448,192,114382,128,0,114582:0:0:0:0:
64,192,114382,128,0,114482:0:0:0:0:
192,192,114482,128,0,114682:0:0:0:0:
320,192,114582,128,0,114682:0:0:0:0:
64,192,114682,128,0,114882:0:0:0:0:
448,192,114782,128,0,114882:0:0:0:0:
320,192,114782,128,0,114982:0:0:0:0:
192,192,114882,128,0,115082:0:0:0:0:
448,192,114982,128,0,115182:0:0:0:0:
64,192,115082,128,0,115282:0:0:0:0:
192,192,115182,128,0,115382:0:0:0:0:
320,192,115182,128,0,115282:0:0:0:0:
448,192,115282,128,0,115482:0:0:0:0:
64,192,115382,128,0,115482:0:0:0:0:
320,192,115482,128,0,115682:0:0:0:0:
192,192,115582,128,0,115782:0:0:0:0:
64,192,115582,128,0,115782:0:0:0:0:
448,192,115682,128,0,115882:0:0:0:0:
320,192,115782,128,0,115882:0:0:0:0:
64,192,115882,128,0,116082:0:0:0:0:
192,192,115982,128,0,116082:0:0:0:0:
320,192,115982,128,0,116182:0:0:0:0:
448,192,116082,128,0,116282:0:0:0:0:
192,192,116182,128,0,116382:0:0:0:0:
64,192,116282,128,0,116482:0:0:0:0:
320,192,116382,128,0,116582:0:0:0:0:
448,192,116382,128,0,116482:0:0:0:0:
192,192,116482,128,0,116682:0:0:0:0:
448,192,116582,128,0,116682:0:0:0:0:
64,192,116682,128,0,116782:0:0:0:0:
320,192,116782,128,0,116982:0:0:0:0:
448,192,116782,128,0,117082:0:0:0:0:
192,192,116782,128,0,116882:0:0:0:0:
64,192,116882,128,0,117082:0:0:0:0:
192,192,116982,128,0,117082:0:0:0:0:
320,192,117082,128,0,117182:0:0:0:0:
64,192,117182,128,0,117282:0:0:0:0:
448,192,117282,128,0,117382:0:0:0:0:
320,192,117382,128,0,117482:0:0:0:0:
64,192,117382,128,0,117482:0:0:0:0:
192,192,117382,128,0,117482:0:0:0:0:
448,192,117482,128,0,117582:0:0:0:0:
64,192,117582,128,0,117882:0:0:0:0:
192,192,117582,128,0,117782:0:0:0:0:
320,192,117582,128,0,117682:0:0:0:0:
448,192,117682,128,0,117882:0:0:0:0:
320,192,117782,128,0,117882:0:0:0:0:
192,192,117882,128,0,117982:0:0:0:0:
64,192,117982,128,0,118282:0:0:0:0:
448,192,117982,128,0,118282:0:0:0:0:
320,192,118082,128,0,118182:0:0:0:0:
192,192,118182,128,0,118282:0:0:0:0:
320,192,118282,128,0,118382:0:0:0:0:
448,192,118382,128,0,118682:0:0:0:0:
64,192,118382,1,0,0:0:0:0:
192,192,118382,1,0,0:0:0:0:
64,192,118482,128,0,119082:0:0:0:0:
320,192,118582,128,0,118682:0:0:0:0:
192,192,118682,128,0,118782:0:0:0:0:
320,192,118782,1,0,0:0:0:0:
448,192,118782,1,0,0:0:0:0:
448,192,118882,128,0,119282:0:0:0:0:
192,192,118982,128,0,119082:0:0:0:0:
320,192,119082,128,0,119182:0:0:0:0:
64,192,119182,1,0,0:0:0:0:
192,192,119182,1,0,0:0:0:0:
64,192,119282,128,0,119382:0:0:0:0:
448,192,119382,128,0,119482:0:0:0:0:
320,192,119482,1,0,0:0:0:0:
64,192,119482,1,0,0:0:0:0:
192,192,119582,1,0,0:0:0:0:
448,192,119582,1,0,0:0:0:0:
64,192,119632,1,0,0:0:0:0:
320,192,119682,1,0,0:0:0:0:
192,192,119732,1,0,0:0:0:0:
448,192,119782,1,0,0:0:0:0:
320,192,119832,1,0,0:0:0:0:
64,192,119882,1,0,0:0:0:0:
192,192,119932,1,0,0:0:0:0:
320,192,119982,1,0,0:0:0:0:
448,192,119982,1,0,0:0:0:0:
192,192,120182,1,0,0:0:0:0:
64,192,120382,128,0,120582:0:0:0:0:
320,192,120382,128,0,120682:0:0:0:0:
448,192,120382,128,0,120482:0:0:0:0:
192,192,120482,128,0,120682:0:0:0:0:
448,192,120582,128,0,120682:0:0:0:0:
64,192,120682,128,0,120782:0:0:0:0:
192,192,120782,128,0,120982:0:0:0:0:
320,192,120782,128,0,120882:0:0:0:0:
448,192,120782,128,0,121082:0:0:0:0:
64,192,120882,128,0,121082:0:0:0:0:
320,192,120982,128,0,121082:0:0:0:0:
192,192,121082,128,0,121182:0:0:0:0:
64,192,121182,128,0,121482:0:0:0:0:
320,192,121182,128,0,121382:0:0:0:0:
448,192,121182,128,0,121282:0:0:0:0:
192,192,121282,128,0,121482:0:0:0:0:
448,192,121382,128,0,121482:0:0:0:0:
320,192,121482,128,0,121582:0:0:0:0:
64,192,121582,1,0,0:0:0:0:
192,192,121582,1,0,0:0:0:0:
448,192,121582,1,0,0:0:0:0:
64,192,121682,128,0,121882:0:0:0:0:
192,192,121682,128,0,121882:0:0:0:0:
448,192,121682,128,0,121882:0:0:0:0:
320,192,121782,128,0,122282:0:0:0:0:
64,192,121982,128,0,122282:0:0:0:0:
192,192,121982,128,0,122082:0:0:0:0:
448,192,121982,128,0,122282:0:0:0:0:
192,192,122182,128,0,122482:0:0:0:0:
64,192,122382,1,0,0:0:0:0:
448,192,122382,1,0,0:0:0:0:
320,192,122382,1,0,0:0:0:0:
64,192,122482,128,0,122682:0:0:0:0:
448,192,122482,128,0,122682:0:0:0:0:
320,192,122482,128,0,122682:0:0:0:0:
192,192,122582,128,0,122882:0:0:0:0:
64,192,122782,128,0,123082:0:0:0:0:
320,192,122782,128,0,123082:0:0:0:0:
448,192,122782,128,0,123082:0:0:0:0:
192,192,122982,128,0,123082:0:0:0:0:
320,192,123182,128,0,123382:0:0:0:0:
448,192,123182,128,0,123482:0:0:0:0:
64,192,123282,128,0,123482:0:0:0:0:
192,192,123382,128,0,123482:0:0:0:0:
320,192,123482,128,0,123582:0:0:0:0:
448,192,123582,128,0,123882:0:0:0:0:
192,192,123582,128,0,123782:0:0:0:0:
64,192,123582,128,0,123682:0:0:0:0:
320,192,123682,128,0,123882:0:0:0:0:
64,192,123782,128,0,123882:0:0:0:0:
192,192,123882,128,0,123982:0:0:0:0:
320,192,123982,128,0,124082:0:0:0:0:
448,192,123982,128,0,124182:0:0:0:0:
64,192,123982,128,0,124282:0:0:0:0:
192,192,124082,128,0,124282:0:0:0:0:
320,192,124182,128,0,124282:0:0:0:0:
448,192,124282,128,0,124382:0:0:0:0:
320,192,124382,128,0,124482:0:0:0:0:
192,192,124382,128,0,124582:0:0:0:0:
64,192,124382,128,0,124682:0:0:0:0:
448,192,124482,128,0,124682:0:0:0:0:
320,192,124582,128,0,124682:0:0:0:0:
192,192,124682,128,0,124782:0:0:0:0:
64,192,124782,1,0,0:0:0:0:
448,192,124782,1,0,0:0:0:0:
320,192,124782,1,0,0:0:0:0:
64,192,124882,128,0,125082:0:0:0:0:
320,192,124882,128,0,125082:0:0:0:0:
448,192,124882,128,0,125082:0:0:0:0:
192,192,124982,128,0,125282:0:0:0:0:
64,192,125182,1,0,0:0:0:0:
320,192,125182,1,0,0:0:0:0:
448,192,125182,1,0,0:0:0:0:
64,192,125282,128,0,125482:0:0:0:0:
320,192,125282,128,0,125482:0:0:0:0:
448,192,125282,128,0,125482:0:0:0:0:
192,192,125382,128,0,125682:0:0:0:0:
64,192,125582,128,0,125882:0:0:0:0:
320,192,125582,128,0,125682:0:0:0:0:
448,192,125582,128,0,125882:0:0:0:0:
192,192,125782,128,0,125882:0:0:0:0:
320,192,125782,128,0,125882:0:0:0:0:
64,192,125982,128,0,126282:0:0:0:0:
448,192,125982,128,0,126082:0:0:0:0:
192,192,125982,128,0,126082:0:0:0:0:
448,192,126182,128,0,126282:0:0:0:0:
192,192,126182,128,0,126282:0:0:0:0:
64,192,126382,128,0,126482:0:0:0:0:
192,192,126382,128,0,126582:0:0:0:0:
448,192,126382,128,0,126682:0:0:0:0:
320,192,126482,128,0,126682:0:0:0:0:
64,192,126582,128,0,126882:0:0:0:0:
192,192,126682,128,0,126782:0:0:0:0:
448,192,126782,128,0,127348:0:0:0:0:
320,192,126782,128,0,126982:0:0:0:0:
192,192,126882,128,0,127082:0:0:0:0:
64,192,126982,128,0,127132:0:0:0:0:
320,192,127082,128,0,127215:0:0:0:0:
192,192,127182,128,0,127282:0:0:0:0:
64,192,127248,128,0,127482:0:0:0:0:
320,192,127315,128,0,127415:0:0:0:0:
192,192,127382,128,0,127482:0:0:0:0:
448,192,127448,128,0,127582:0:0:0:0:
320,192,127515,128,0,127682:0:0:0:0:
192,192,127582,128,0,127882:0:0:0:0:
64,192,127582,128,0,127882:0:0:0:0:
448,192,127682,128,0,127782:0:0:0:0:
320,192,127782,128,0,127982:0:0:0:0:
448,192,127882,128,0,128282:0:0:0:0:
192,192,127982,128,0,128082:0:0:0:0:
64,192,127982,128,0,128182:0:0:0:0:
320,192,128082,128,0,128282:0:0:0:0:
192,192,128182,128,0,128382:0:0:0:0:
64,192,128282,128,0,128582:0:0:0:0:
320,192,128382,128,0,128482:0:0:0:0:
448,192,128382,128,0,128682:0:0:0:0:
192,192,128482,128,0,128682:0:0:0:0:
320,192,128582,128,0,128882:0:0:0:0:
64,192,128682,128,0,128782:0:0:0:0:
192,192,128782,128,0,128982:0:0:0:0:
448,192,128782,128,0,129082:0:0:0:0:
64,192,128882,128,0,129182:0:0:0:0:
320,192,128982,128,0,129082:0:0:0:0:
192,192,129082,128,0,129282:0:0:0:0:
320,192,129182,128,0,129382:0:0:0:0:
448,192,129182,128,0,129482:0:0:0:0:
64,192,129282,128,0,129482:0:0:0:0:
192,192,129382,128,0,129782:0:0:0:0:
320,192,129482,128,0,129582:0:0:0:0:
64,192,129582,128,0,129682:0:0:0:0:
448,192,129582,128,0,129882:0:0:0:0:
320,192,129682,128,0,129882:0:0:0:0:
64,192,129782,128,0,130082:0:0:0:0:
192,192,129882,128,0,129982:0:0:0:0:
320,192,129982,128,0,130182:0:0:0:0:
448,192,129982,128,0,130182:0:0:0:0:
192,192,130082,128,0,130382:0:0:0:0:
64,192,130182,128,0,130582:0:0:0:0:
448,192,130282,1,0,0:0:0:0:
320,192,130282,1,0,0:0:0:0:
320,192,130382,128,0,130482:0:0:0:0:
448,192,130382,128,0,130782:0:0:0:0:
192,192,130482,128,0,130582:0:0:0:0:
320,192,130582,128,0,130982:0:0:0:0:
192,192,130682,1,0,0:0:0:0:
64,192,130682,1,0,0:0:0:0:
64,192,130782,128,0,131082:0:0:0:0:
192,192,130782,128,0,130882:0:0:0:0:
448,192,130882,128,0,131082:0:0:0:0:
192,192,130982,128,0,131282:0:0:0:0:
320,192,131082,128,0,131182:0:0:0:0:
64,192,131182,128,0,131382:0:0:0:0:
448,192,131182,128,0,131482:0:0:0:0:
320,192,131282,128,0,131682:0:0:0:0:
192,192,131382,128,0,131582:0:0:0:0:
64,192,131482,128,0,131782:0:0:0:0:
448,192,131582,128,0,131882:0:0:0:0:
192,192,131682,128,0,131982:0:0:0:0:
320,192,131782,128,0,131882:0:0:0:0:
64,192,131882,128,0,132082:0:0:0:0:
320,192,131982,128,0,132182:0:0:0:0:
448,192,131982,128,0,132182:0:0:0:0:
192,192,132082,128,0,132332:0:0:0:0:
64,192,132182,128,0,132382:0:0:0:0:
320,192,132282,1,0,0:0:0:0:
448,192,132282,1,0,0:0:0:0:
320,192,132382,1,0,0:0:0:0:
448,192,132382,1,0,0:0:0:0:
192,192,132432,1,0,0:0:0:0:
64,192,132482,1,0,0:0:0:0:
320,192,132532,1,0,0:0:0:0:
448,192,132582,1,0,0:0:0:0:
192,192,132582,1,0,0:0:0:0:
64,192,132632,1,0,0:0:0:0:
320,192,132682,1,0,0:0:0:0:
448,192,132732,1,0,0:0:0:0:
64,192,132782,128,0,132882:0:0:0:0:
192,192,132782,128,0,132882:0:0:0:0:
192,192,133582,128,0,133682:0:0:0:0:
320,192,133582,128,0,133682:0:0:0:0:
320,192,134382,128,0,134482:0:0:0:0:
448,192,134382,128,0,134482:0:0:0:0:
320,192,135032,1,0,0:0:0:0:
192,192,135082,1,0,0:0:0:0:
192,192,135182,128,0,135282:0:0:0:0:
64,192,135182,128,0,135282:0:0:0:0:
64,192,135382,1,0,0:0:0:0:
192,192,135382,1,0,0:0:0:0:
320,192,135582,128,0,135982:0:0:0:0:
64,192,135982,128,0,136182:0:0:0:0:
192,192,135982,128,0,136082:0:0:0:0:
448,192,135982,128,0,136282:0:0:0:0:
320,192,136082,128,0,136282:0:0:0:0:
192,192,136182,128,0,136282:0:0:0:0:
64,192,136282,128,0,136382:0:0:0:0:
192,192,136382,128,0,136482:0:0:0:0:
320,192,136382,128,0,136582:0:0:0:0:
448,192,136382,128,0,137082:0:0:0:0:
64,192,136482,128,0,136682:0:0:0:0:
192,192,136582,128,0,136682:0:0:0:0:
320,192,136682,128,0,136782:0:0:0:0:
64,192,136782,128,0,136982:0:0:0:0:
192,192,136782,128,0,136882:0:0:0:0:
320,192,136882,128,0,137082:0:0:0:0:
192,192,136982,128,0,137082:0:0:0:0:
64,192,137082,128,0,137182:0:0:0:0:
192,192,137182,128,0,137282:0:0:0:0:
320,192,137182,128,0,137382:0:0:0:0:
448,192,137182,128,0,137482:0:0:0:0:
64,192,137282,128,0,137482:0:0:0:0:
192,192,137382,128,0,137582:0:0:0:0:
320,192,137482,128,0,137582:0:0:0:0:
64,192,137582,128,0,137682:0:0:0:0:
448,192,137582,128,0,137682:0:0:0:0:
320,192,137682,128,0,137782:0:0:0:0:
192,192,137682,128,0,137882:0:0:0:0:
64,192,137782,128,0,137882:0:0:0:0:
448,192,137782,128,0,137982:0:0:0:0:
320,192,137882,128,0,137982:0:0:0:0:
64,192,137982,128,0,138082:0:0:0:0:
192,192,137982,128,0,138082:0:0:0:0:
320,192,138082,128,0,138182:0:0:0:0:
448,192,138082,128,0,138282:0:0:0:0:
192,192,138182,128,0,138382:0:0:0:0:
64,192,138182,128,0,138282:0:0:0:0:
320,192,138282,128,0,138382:0:0:0:0:
448,192,138382,128,0,138482:0:0:0:0:
64,192,138382,128,0,138482:0:0:0:0:
192,192,138482,128,0,138582:0:0:0:0:
320,192,138482,128,0,138682:0:0:0:0:
448,192,138582,128,0,138682:0:0:0:0:
64,192,138582,128,0,138782:0:0:0:0:
192,192,138682,128,0,138782:0:0:0:0:
320,192,138782,128,0,138882:0:0:0:0:
448,192,138782,128,0,138882:0:0:0:0:
192,192,138882,128,0,139082:0:0:0:0:
64,192,138882,128,0,139082:0:0:0:0:
320,192,138982,1,0,0:0:0:0:
448,192,138982,1,0,0:0:0:0:
448,192,139082,1,0,0:0:0:0:
320,192,139082,1,0,0:0:0:0:
192,192,139182,1,0,0:0:0:0:
64,192,139182,128,0,139282:0:0:0:0:
320,192,139232,1,0,0:0:0:0:
448,192,139282,128,0,139382:0:0:0:0:
192,192,139332,1,0,0:0:0:0:
64,192,139382,128,0,139482:0:0:0:0:
320,192,139432,1,0,0:0:0:0:
192,192,139482,128,0,139582:0:0:0:0:
448,192,139532,1,0,0:0:0:0:
320,192,139582,128,0,139682:0:0:0:0:
64,192,139632,1,0,0:0:0:0:
192,192,139682,128,0,139782:0:0:0:0:
448,192,139732,1,0,0:0:0:0:
320,192,139782,128,0,139882:0:0:0:0:
64,192,139832,1,0,0:0:0:0:
448,192,139882,128,0,139982:0:0:0:0:
192,192,139932,1,0,0:0:0:0:
64,192,139982,1,0,0:0:0:0:
320,192,139982,128,0,140115:0:0:0:0:
64,192,140115,1,0,0:0:0:0:
448,192,140115,1,0,0:0:0:0:
192,192,140115,128,0,140248:0:0:0:0:
320,192,140248,1,0,0:0:0:0:
448,192,140248,1,0,0:0:0:0:
64,192,140248,128,0,140382:0:0:0:0:
448,192,140382,1,0,0:0:0:0:
320,192,140382,1,0,0:0:0:0:
192,192,140382,128,0,140515:0:0:0:0:
64,192,140515,1,0,0:0:0:0:
448,192,140515,1,0,0:0:0:0:
320,192,140515,128,0,140782:0:0:0:0:
64,192,140648,1,0,0:0:0:0:
192,192,140648,1,0,0:0:0:0:
448,192,140648,128,0,140782:0:0:0:0:
64,192,140782,128,0,140832:0:0:0:0:
192,192,140782,128,0,140832:0:0:0:0:
320,192,141182,128,0,141232:0:0:0:0:
320,192,141582,128,0,141632:0:0:0:0:
