osu file format v14

[General]
AudioFilename: audio.mp3
AudioLeadIn: 0
PreviewTime: 224686
Countdown: 0
SampleSet: Soft
StackLeniency: 0.7
Mode: 3
LetterboxInBreaks: 0
SpecialStyle: 0
WidescreenStoryboard: 0

[Editor]
Bookmarks: 240686,263086
DistanceSpacing: 1.6
BeatDivisor: 4
GridSize: 4
TimelineZoom: 1.3

[Metadata]
Title:Holy Sambaland
TitleUnicode:ホーリーサンバランド
Artist:HOLY SAMBA MASTER -SATOH- (Lime)
ArtistUnicode:HOLY SAMBA MASTER 佐藤 -SATOH- (Lime)
Creator:taba2
Version:White Another
Source:G2R2014 "GO BACK 2 YOUR ROOTS"
Tags:featured artist fa ゆったり系アンセムトランス relaxed anthem trance groundbreaking 2014 go back 2 your roots to the bms of fighters 2004 reloaded BOF2004 kankitsu full version land CHUNITHM instrumental electronic satou サンバマスター佐藤 ホーリーサンバマスター佐藤
BeatmapID:3728773
BeatmapSetID:1817468

[Difficulty]
HPDrainRate:8
CircleSize:7
OverallDifficulty:8.5
ApproachRate:5
SliderMultiplier:1.4
SliderTickRate:1

[Events]
//Background and Video events
0,0,"XPhrulj.jpg",0,0
//Break Periods
//Storyboard Layer 0 (Background)
//Storyboard Layer 1 (Fail)
//Storyboard Layer 2 (Pass)
//Storyboard Layer 3 (Foreground)
//Storyboard Layer 4 (Overlay)
//Storyboard Sound Samples

[TimingPoints]
686,400,4,2,1,50,1,0
183086,-100,4,2,1,50,0,1
195886,-100,4,2,1,50,0,0
224686,-100,4,2,1,50,0,1
237486,-100,4,2,1,50,0,0

[HitObjects]
256,192,286,5,0,0:0:0:0:
182,192,686,1,0,0:0:0:0:
36,192,686,1,0,0:0:0:0:
475,192,686,1,0,0:0:0:0:
256,192,686,1,0,0:0:0:0:
402,192,786,1,0,0:0:0:0:
329,192,886,1,0,0:0:0:0:
109,192,886,1,0,0:0:0:0:
402,192,986,1,0,0:0:0:0:
182,192,986,1,0,0:0:0:0:
475,192,1086,1,0,0:0:0:0:
256,192,1086,1,0,0:0:0:0:
36,192,1086,1,0,0:0:0:0:
329,192,1186,1,0,0:0:0:0:
182,192,1186,1,0,0:0:0:0:
402,192,1286,1,0,0:0:0:0:
36,192,1286,1,0,0:0:0:0:
329,192,1386,1,0,0:0:0:0:
109,192,1386,1,0,0:0:0:0:
256,192,1486,1,0,0:0:0:0:
475,192,1486,1,0,0:0:0:0:
36,192,1486,1,0,0:0:0:0:
402,192,1586,1,0,0:0:0:0:
182,192,1586,1,0,0:0:0:0:
329,192,1686,1,0,0:0:0:0:
109,192,1686,1,0,0:0:0:0:
402,192,1786,1,0,0:0:0:0:
36,192,1786,1,0,0:0:0:0:
475,192,1886,1,0,0:0:0:0:
256,192,1886,1,0,0:0:0:0:
182,192,1886,1,0,0:0:0:0:
329,192,1986,1,0,0:0:0:0:
109,192,1986,1,0,0:0:0:0:
402,192,2086,1,0,0:0:0:0:
182,192,2086,1,0,0:0:0:0:
329,192,2186,1,0,0:0:0:0:
109,192,2186,1,0,0:0:0:0:
256,192,2286,1,0,0:0:0:0:
36,192,2286,1,0,0:0:0:0:
475,192,2286,1,0,0:0:0:0:
109,192,2386,1,0,0:0:0:0:
182,192,2486,1,0,0:0:0:0:
329,192,2486,1,0,0:0:0:0:
109,192,2586,1,0,0:0:0:0:
402,192,2586,1,0,0:0:0:0:
36,192,2686,1,0,0:0:0:0:
256,192,2686,1,0,0:0:0:0:
475,192,2686,1,0,0:0:0:0:
182,192,2786,1,0,0:0:0:0:
329,192,2786,1,0,0:0:0:0:
109,192,2886,1,0,0:0:0:0:
402,192,2886,1,0,0:0:0:0:
182,192,2986,1,0,0:0:0:0:
475,192,2986,1,0,0:0:0:0:
256,192,3086,1,0,0:0:0:0:
36,192,3086,1,0,0:0:0:0:
402,192,3086,1,0,0:0:0:0:
109,192,3186,1,0,0:0:0:0:
329,192,3186,1,0,0:0:0:0:
182,192,3286,1,0,0:0:0:0:
475,192,3286,1,0,0:0:0:0:
109,192,3386,1,0,0:0:0:0:
402,192,3386,1,0,0:0:0:0:
36,192,3486,1,0,0:0:0:0:
256,192,3486,1,0,0:0:0:0:
475,192,3486,1,0,0:0:0:0:
182,192,3586,1,0,0:0:0:0:
329,192,3586,1,0,0:0:0:0:
109,192,3686,1,0,0:0:0:0:
402,192,3686,1,0,0:0:0:0:
182,192,3786,1,0,0:0:0:0:
475,192,3786,1,0,0:0:0:0:
256,192,3886,1,0,0:0:0:0:
402,192,3886,1,0,0:0:0:0:
36,192,3886,1,0,0:0:0:0:
329,192,3986,1,0,0:0:0:0:
256,192,4086,1,0,0:0:0:0:
109,192,4086,1,0,0:0:0:0:
329,192,4186,1,0,0:0:0:0:
36,192,4186,1,0,0:0:0:0:
402,192,4286,1,0,0:0:0:0:
182,192,4286,1,0,0:0:0:0:
475,192,4286,1,0,0:0:0:0:
256,192,4386,1,0,0:0:0:0:
109,192,4386,1,0,0:0:0:0:
329,192,4486,1,0,0:0:0:0:
36,192,4486,1,0,0:0:0:0:
256,192,4586,1,0,0:0:0:0:
109,192,4586,1,0,0:0:0:0:
182,192,4686,1,0,0:0:0:0:
402,192,4686,1,0,0:0:0:0:
475,192,4686,1,0,0:0:0:0:
329,192,4786,1,0,0:0:0:0:
36,192,4786,1,0,0:0:0:0:
256,192,4886,1,0,0:0:0:0:
109,192,4886,1,0,0:0:0:0:
329,192,4986,1,0,0:0:0:0:
36,192,4986,1,0,0:0:0:0:
402,192,5086,1,0,0:0:0:0:
182,192,5086,1,0,0:0:0:0:
475,192,5086,1,0,0:0:0:0:
256,192,5186,1,0,0:0:0:0:
109,192,5186,1,0,0:0:0:0:
329,192,5286,1,0,0:0:0:0:
475,192,5286,1,0,0:0:0:0:
256,192,5386,1,0,0:0:0:0:
402,192,5386,1,0,0:0:0:0:
182,192,5486,1,0,0:0:0:0:
36,192,5486,1,0,0:0:0:0:
329,192,5486,1,0,0:0:0:0:
109,192,5586,1,0,0:0:0:0:
182,192,5686,1,0,0:0:0:0:
402,192,5686,1,0,0:0:0:0:
109,192,5786,1,0,0:0:0:0:
475,192,5786,1,0,0:0:0:0:
36,192,5886,1,0,0:0:0:0:
256,192,5886,1,0,0:0:0:0:
329,192,5886,1,0,0:0:0:0:
182,192,5986,1,0,0:0:0:0:
475,192,5986,1,0,0:0:0:0:
109,192,6086,1,0,0:0:0:0:
402,192,6086,1,0,0:0:0:0:
182,192,6186,1,0,0:0:0:0:
329,192,6186,1,0,0:0:0:0:
256,192,6286,1,0,0:0:0:0:
36,192,6286,1,0,0:0:0:0:
475,192,6286,1,0,0:0:0:0:
109,192,6386,1,0,0:0:0:0:
329,192,6386,1,0,0:0:0:0:
182,192,6486,1,0,0:0:0:0:
402,192,6486,1,0,0:0:0:0:
109,192,6586,1,0,0:0:0:0:
475,192,6586,1,0,0:0:0:0:
36,192,6686,1,0,0:0:0:0:
256,192,6686,1,0,0:0:0:0:
329,192,6686,1,0,0:0:0:0:
402,192,6686,1,0,0:0:0:0:
182,192,6786,1,0,0:0:0:0:
475,192,6786,1,0,0:0:0:0:
109,192,6886,1,0,0:0:0:0:
329,192,6886,1,0,0:0:0:0:
182,192,6986,1,0,0:0:0:0:
402,192,6986,1,0,0:0:0:0:
256,192,7086,1,0,0:0:0:0:
109,192,7086,1,0,0:0:0:0:
475,192,7086,1,0,0:0:0:0:
36,192,7086,1,0,0:0:0:0:
182,192,7186,1,0,0:0:0:0:
256,192,7286,1,0,0:0:0:0:
402,192,7286,1,0,0:0:0:0:
182,192,7386,1,0,0:0:0:0:
475,192,7386,1,0,0:0:0:0:
109,192,7486,1,0,0:0:0:0:
329,192,7486,1,0,0:0:0:0:
36,192,7486,1,0,0:0:0:0:
402,192,7486,1,0,0:0:0:0:
256,192,7586,1,0,0:0:0:0:
475,192,7586,1,0,0:0:0:0:
182,192,7686,1,0,0:0:0:0:
36,192,7686,1,0,0:0:0:0:
256,192,7786,1,0,0:0:0:0:
402,192,7786,1,0,0:0:0:0:
329,192,7886,1,0,0:0:0:0:
109,192,7886,1,0,0:0:0:0:
36,192,7886,1,0,0:0:0:0:
475,192,7886,1,0,0:0:0:0:
182,192,7986,1,0,0:0:0:0:
402,192,7986,1,0,0:0:0:0:
256,192,8086,1,0,0:0:0:0:
109,192,8086,1,0,0:0:0:0:
182,192,8186,1,0,0:0:0:0:
402,192,8186,1,0,0:0:0:0:
329,192,8286,1,0,0:0:0:0:
109,192,8286,1,0,0:0:0:0:
36,192,8286,1,0,0:0:0:0:
475,192,8286,1,0,0:0:0:0:
256,192,8386,1,0,0:0:0:0:
402,192,8386,1,0,0:0:0:0:
182,192,8486,1,0,0:0:0:0:
329,192,8486,1,0,0:0:0:0:
256,192,8586,1,0,0:0:0:0:
402,192,8586,1,0,0:0:0:0:
329,192,8686,1,0,0:0:0:0:
475,192,8686,1,0,0:0:0:0:
109,192,8686,1,0,0:0:0:0:
36,192,8686,1,0,0:0:0:0:
402,192,8786,1,0,0:0:0:0:
329,192,8886,1,0,0:0:0:0:
182,192,8886,1,0,0:0:0:0:
402,192,8986,1,0,0:0:0:0:
109,192,8986,1,0,0:0:0:0:
475,192,9086,1,0,0:0:0:0:
256,192,9086,1,0,0:0:0:0:
36,192,9086,1,0,0:0:0:0:
182,192,9086,1,0,0:0:0:0:
329,192,9186,1,0,0:0:0:0:
109,192,9186,1,0,0:0:0:0:
402,192,9286,1,0,0:0:0:0:
256,192,9286,1,0,0:0:0:0:
329,192,9386,1,0,0:0:0:0:
182,192,9386,1,0,0:0:0:0:
256,192,9486,1,0,0:0:0:0:
475,192,9486,1,0,0:0:0:0:
109,192,9486,1,0,0:0:0:0:
36,192,9486,1,0,0:0:0:0:
402,192,9586,1,0,0:0:0:0:
182,192,9586,1,0,0:0:0:0:
329,192,9686,1,0,0:0:0:0:
36,192,9686,1,0,0:0:0:0:
402,192,9786,1,0,0:0:0:0:
109,192,9786,1,0,0:0:0:0:
475,192,9886,1,0,0:0:0:0:
256,192,9886,1,0,0:0:0:0:
182,192,9886,1,0,0:0:0:0:
36,192,9886,1,0,0:0:0:0:
329,192,9986,1,0,0:0:0:0:
109,192,9986,1,0,0:0:0:0:
402,192,10086,1,0,0:0:0:0:
256,192,10086,1,0,0:0:0:0:
329,192,10186,1,0,0:0:0:0:
182,192,10186,1,0,0:0:0:0:
256,192,10286,1,0,0:0:0:0:
36,192,10286,1,0,0:0:0:0:
475,192,10286,1,0,0:0:0:0:
109,192,10286,1,0,0:0:0:0:
402,192,10286,1,0,0:0:0:0:
36,192,10436,1,0,0:0:0:0:
109,192,10436,1,0,0:0:0:0:
475,192,10436,1,0,0:0:0:0:
256,192,10436,1,0,0:0:0:0:
402,192,10436,1,0,0:0:0:0:
402,192,10586,1,0,0:0:0:0:
475,192,10586,1,0,0:0:0:0:
109,192,10586,1,0,0:0:0:0:
36,192,10586,1,0,0:0:0:0:
256,192,10586,1,0,0:0:0:0:
109,192,11086,1,0,0:0:0:0:
36,192,11086,1,0,0:0:0:0:
256,192,11086,1,0,0:0:0:0:
402,192,11086,1,0,0:0:0:0:
475,192,11086,1,0,0:0:0:0:
256,192,11236,1,0,0:0:0:0:
109,192,11236,1,0,0:0:0:0:
36,192,11236,1,0,0:0:0:0:
402,192,11236,1,0,0:0:0:0:
475,192,11236,1,0,0:0:0:0:
36,192,11386,1,0,0:0:0:0:
109,192,11386,1,0,0:0:0:0:
256,192,11386,1,0,0:0:0:0:
402,192,11386,1,0,0:0:0:0:
475,192,11386,1,0,0:0:0:0:
36,192,11886,1,0,0:0:0:0:
182,192,11886,1,0,0:0:0:0:
329,192,11886,1,0,0:0:0:0:
402,192,11886,1,0,0:0:0:0:
475,192,11886,1,0,0:0:0:0:
182,192,12019,1,0,0:0:0:0:
475,192,12019,1,0,0:0:0:0:
402,192,12019,1,0,0:0:0:0:
329,192,12019,1,0,0:0:0:0:
36,192,12019,1,0,0:0:0:0:
36,192,12152,1,0,0:0:0:0:
182,192,12152,1,0,0:0:0:0:
402,192,12152,1,0,0:0:0:0:
329,192,12152,1,0,0:0:0:0:
475,192,12152,1,0,0:0:0:0:
109,192,12286,1,0,0:0:0:0:
256,192,12286,1,0,0:0:0:0:
36,192,12286,1,0,0:0:0:0:
475,192,12286,1,0,0:0:0:0:
402,192,12286,1,0,0:0:0:0:
36,192,12419,1,0,0:0:0:0:
109,192,12419,1,0,0:0:0:0:
256,192,12419,1,0,0:0:0:0:
402,192,12419,1,0,0:0:0:0:
475,192,12419,1,0,0:0:0:0:
256,192,12552,1,0,0:0:0:0:
109,192,12552,1,0,0:0:0:0:
36,192,12552,1,0,0:0:0:0:
475,192,12552,1,0,0:0:0:0:
402,192,12552,1,0,0:0:0:0:
109,192,12686,1,0,0:0:0:0:
182,192,12686,1,0,0:0:0:0:
36,192,12686,1,0,0:0:0:0:
329,192,12686,1,0,0:0:0:0:
475,192,12686,1,0,0:0:0:0:
36,192,12819,1,0,0:0:0:0:
109,192,12819,1,0,0:0:0:0:
182,192,12819,1,0,0:0:0:0:
475,192,12819,1,0,0:0:0:0:
329,192,12819,1,0,0:0:0:0:
182,192,12952,1,0,0:0:0:0:
109,192,12952,1,0,0:0:0:0:
36,192,12952,1,0,0:0:0:0:
329,192,12952,1,0,0:0:0:0:
475,192,12952,1,0,0:0:0:0:
256,192,13086,1,0,0:0:0:0:
182,192,13086,1,0,0:0:0:0:
475,192,13086,1,0,0:0:0:0:
36,192,13086,1,0,0:0:0:0:
109,192,13086,1,0,0:0:0:0:
329,192,13086,1,0,0:0:0:0:
402,192,13086,1,0,0:0:0:0:
182,192,13486,1,0,0:0:0:0:
36,192,13486,1,0,0:0:0:0:
402,192,13486,1,0,0:0:0:0:
475,192,13486,1,0,0:0:0:0:
329,192,13586,1,0,0:0:0:0:
256,192,13686,1,0,0:0:0:0:
109,192,13686,1,0,0:0:0:0:
475,192,13686,1,0,0:0:0:0:
329,192,13786,1,0,0:0:0:0:
36,192,13886,1,0,0:0:0:0:
182,192,13886,1,0,0:0:0:0:
402,192,13886,1,0,0:0:0:0:
475,192,13886,1,0,0:0:0:0:
109,192,13986,1,0,0:0:0:0:
329,192,13986,1,0,0:0:0:0:
182,192,14086,1,0,0:0:0:0:
475,192,14086,1,0,0:0:0:0:
36,192,14086,1,0,0:0:0:0:
256,192,14186,1,0,0:0:0:0:
402,192,14186,1,0,0:0:0:0:
109,192,14286,1,0,0:0:0:0:
329,192,14286,1,0,0:0:0:0:
475,192,14286,1,0,0:0:0:0:
36,192,14286,1,0,0:0:0:0:
182,192,14386,1,0,0:0:0:0:
402,192,14386,1,0,0:0:0:0:
256,192,14486,1,0,0:0:0:0:
36,192,14486,1,0,0:0:0:0:
475,192,14486,1,0,0:0:0:0:
329,192,14586,1,0,0:0:0:0:
109,192,14586,1,0,0:0:0:0:
182,192,14686,1,0,0:0:0:0:
402,192,14686,1,0,0:0:0:0:
475,192,14686,1,0,0:0:0:0:
36,192,14686,1,0,0:0:0:0:
256,192,14786,1,0,0:0:0:0:
109,192,14786,1,0,0:0:0:0:
329,192,14886,1,0,0:0:0:0:
36,192,14886,1,0,0:0:0:0:
182,192,14886,1,0,0:0:0:0:
402,192,14986,1,0,0:0:0:0:
256,192,14986,1,0,0:0:0:0:
475,192,15086,1,0,0:0:0:0:
182,192,15086,1,0,0:0:0:0:
36,192,15086,1,0,0:0:0:0:
109,192,15086,1,0,0:0:0:0:
402,192,15186,1,0,0:0:0:0:
256,192,15186,1,0,0:0:0:0:
329,192,15286,1,0,0:0:0:0:
182,192,15286,1,0,0:0:0:0:
36,192,15286,1,0,0:0:0:0:
256,192,15386,1,0,0:0:0:0:
109,192,15386,1,0,0:0:0:0:
402,192,15486,1,0,0:0:0:0:
182,192,15486,1,0,0:0:0:0:
475,192,15486,1,0,0:0:0:0:
36,192,15486,1,0,0:0:0:0:
329,192,15586,1,0,0:0:0:0:
109,192,15586,1,0,0:0:0:0:
256,192,15686,1,0,0:0:0:0:
402,192,15686,1,0,0:0:0:0:
475,192,15686,1,0,0:0:0:0:
182,192,15786,1,0,0:0:0:0:
36,192,15786,1,0,0:0:0:0:
329,192,15886,1,0,0:0:0:0:
109,192,15886,1,0,0:0:0:0:
475,192,15886,1,0,0:0:0:0:
402,192,15886,1,0,0:0:0:0:
256,192,15986,1,0,0:0:0:0:
36,192,15986,1,0,0:0:0:0:
182,192,16086,1,0,0:0:0:0:
402,192,16086,1,0,0:0:0:0:
475,192,16086,1,0,0:0:0:0:
109,192,16186,1,0,0:0:0:0:
329,192,16186,1,0,0:0:0:0:
256,192,16286,1,0,0:0:0:0:
36,192,16286,1,0,0:0:0:0:
475,192,16286,1,0,0:0:0:0:
402,192,16286,1,0,0:0:0:0:
182,192,16386,1,0,0:0:0:0:
329,192,16386,1,0,0:0:0:0:
109,192,16486,1,0,0:0:0:0:
256,192,16486,1,0,0:0:0:0:
475,192,16486,1,0,0:0:0:0:
36,192,16586,1,0,0:0:0:0:
402,192,16586,1,0,0:0:0:0:
256,192,16686,1,0,0:0:0:0:
329,192,16686,1,0,0:0:0:0:
109,192,16686,1,0,0:0:0:0:
475,192,16686,1,0,0:0:0:0:
182,192,16786,1,0,0:0:0:0:
36,192,16786,1,0,0:0:0:0:
329,192,16886,1,0,0:0:0:0:
109,192,16886,1,0,0:0:0:0:
402,192,16886,1,0,0:0:0:0:
256,192,16986,1,0,0:0:0:0:
182,192,16986,1,0,0:0:0:0:
402,192,17086,1,0,0:0:0:0:
36,192,17086,1,0,0:0:0:0:
109,192,17086,1,0,0:0:0:0:
475,192,17086,1,0,0:0:0:0:
329,192,17186,1,0,0:0:0:0:
182,192,17186,1,0,0:0:0:0:
475,192,17286,1,0,0:0:0:0:
256,192,17286,1,0,0:0:0:0:
109,192,17286,1,0,0:0:0:0:
402,192,17386,1,0,0:0:0:0:
36,192,17386,1,0,0:0:0:0:
182,192,17486,1,0,0:0:0:0:
329,192,17486,1,0,0:0:0:0:
109,192,17486,1,0,0:0:0:0:
475,192,17486,1,0,0:0:0:0:
256,192,17586,1,0,0:0:0:0:
402,192,17586,1,0,0:0:0:0:
36,192,17686,1,0,0:0:0:0:
329,192,17686,1,0,0:0:0:0:
475,192,17686,1,0,0:0:0:0:
256,192,17786,1,0,0:0:0:0:
109,192,17786,1,0,0:0:0:0:
36,192,17886,1,0,0:0:0:0:
182,192,17886,1,0,0:0:0:0:
475,192,17886,1,0,0:0:0:0:
329,192,17886,1,0,0:0:0:0:
109,192,17986,1,0,0:0:0:0:
256,192,17986,1,0,0:0:0:0:
182,192,18086,1,0,0:0:0:0:
329,192,18086,1,0,0:0:0:0:
475,192,18086,1,0,0:0:0:0:
256,192,18186,1,0,0:0:0:0:
402,192,18186,1,0,0:0:0:0:
329,192,18286,1,0,0:0:0:0:
475,192,18286,1,0,0:0:0:0:
36,192,18286,1,0,0:0:0:0:
109,192,18286,1,0,0:0:0:0:
402,192,18386,1,0,0:0:0:0:
256,192,18386,1,0,0:0:0:0:
475,192,18486,1,0,0:0:0:0:
182,192,18486,1,0,0:0:0:0:
109,192,18486,1,0,0:0:0:0:
329,192,18586,1,0,0:0:0:0:
36,192,18586,1,0,0:0:0:0:
182,192,18686,1,0,0:0:0:0:
256,192,18686,1,0,0:0:0:0:
475,192,18686,1,0,0:0:0:0:
402,192,18686,1,0,0:0:0:0:
329,192,18786,1,0,0:0:0:0:
109,192,18786,1,0,0:0:0:0:
256,192,18886,1,0,0:0:0:0:
36,192,18886,1,0,0:0:0:0:
475,192,18886,1,0,0:0:0:0:
182,192,18986,1,0,0:0:0:0:
402,192,18986,1,0,0:0:0:0:
36,192,19086,1,0,0:0:0:0:
329,192,19086,1,0,0:0:0:0:
256,192,19086,1,0,0:0:0:0:
109,192,19086,1,0,0:0:0:0:
182,192,19186,1,0,0:0:0:0:
402,192,19186,1,0,0:0:0:0:
109,192,19286,1,0,0:0:0:0:
475,192,19286,1,0,0:0:0:0:
256,192,19286,1,0,0:0:0:0:
36,192,19386,1,0,0:0:0:0:
329,192,19386,1,0,0:0:0:0:
402,192,19486,1,0,0:0:0:0:
109,192,19486,1,0,0:0:0:0:
475,192,19486,1,0,0:0:0:0:
182,192,19486,1,0,0:0:0:0:
329,192,19586,1,0,0:0:0:0:
36,192,19586,1,0,0:0:0:0:
256,192,19686,1,0,0:0:0:0:
109,192,19686,1,0,0:0:0:0:
402,192,19686,1,0,0:0:0:0:
475,192,19686,1,0,0:0:0:0:
182,192,19786,1,0,0:0:0:0:
329,192,19786,1,0,0:0:0:0:
36,192,19886,1,0,0:0:0:0:
256,192,19886,1,0,0:0:0:0:
402,192,19886,1,0,0:0:0:0:
475,192,19886,1,0,0:0:0:0:
182,192,19986,1,0,0:0:0:0:
329,192,19986,1,0,0:0:0:0:
109,192,20086,1,0,0:0:0:0:
36,192,20086,1,0,0:0:0:0:
475,192,20086,1,0,0:0:0:0:
402,192,20186,1,0,0:0:0:0:
256,192,20186,1,0,0:0:0:0:
36,192,20286,1,0,0:0:0:0:
182,192,20286,1,0,0:0:0:0:
329,192,20286,1,0,0:0:0:0:
475,192,20286,1,0,0:0:0:0:
109,192,20386,1,0,0:0:0:0:
402,192,20386,1,0,0:0:0:0:
182,192,20486,1,0,0:0:0:0:
329,192,20486,1,0,0:0:0:0:
475,192,20486,1,0,0:0:0:0:
256,192,20586,1,0,0:0:0:0:
109,192,20586,1,0,0:0:0:0:
182,192,20686,1,0,0:0:0:0:
36,192,20686,1,0,0:0:0:0:
402,192,20686,1,0,0:0:0:0:
475,192,20686,1,0,0:0:0:0:
109,192,20786,1,0,0:0:0:0:
329,192,20786,1,0,0:0:0:0:
256,192,20886,1,0,0:0:0:0:
36,192,20886,1,0,0:0:0:0:
402,192,20886,1,0,0:0:0:0:
329,192,20986,1,0,0:0:0:0:
182,192,20986,1,0,0:0:0:0:
256,192,21086,1,0,0:0:0:0:
402,192,21086,1,0,0:0:0:0:
475,192,21086,1,0,0:0:0:0:
36,192,21086,1,0,0:0:0:0:
182,192,21186,1,0,0:0:0:0:
109,192,21186,1,0,0:0:0:0:
329,192,21286,1,0,0:0:0:0:
256,192,21286,1,0,0:0:0:0:
475,192,21286,1,0,0:0:0:0:
402,192,21386,1,0,0:0:0:0:
182,192,21386,1,0,0:0:0:0:
475,192,21486,1,0,0:0:0:0:
109,192,21486,1,0,0:0:0:0:
256,192,21486,1,0,0:0:0:0:
36,192,21486,1,0,0:0:0:0:
402,192,21586,1,0,0:0:0:0:
182,192,21586,1,0,0:0:0:0:
475,192,21686,1,0,0:0:0:0:
109,192,21686,1,0,0:0:0:0:
36,192,21686,1,0,0:0:0:0:
329,192,21786,1,0,0:0:0:0:
256,192,21786,1,0,0:0:0:0:
402,192,21886,1,0,0:0:0:0:
109,192,21886,1,0,0:0:0:0:
475,192,21886,1,0,0:0:0:0:
36,192,21886,1,0,0:0:0:0:
329,192,21986,1,0,0:0:0:0:
182,192,21986,1,0,0:0:0:0:
256,192,22086,1,0,0:0:0:0:
109,192,22086,1,0,0:0:0:0:
475,192,22086,1,0,0:0:0:0:
182,192,22186,1,0,0:0:0:0:
402,192,22186,1,0,0:0:0:0:
256,192,22286,1,0,0:0:0:0:
329,192,22286,1,0,0:0:0:0:
475,192,22286,1,0,0:0:0:0:
36,192,22286,1,0,0:0:0:0:
109,192,22386,1,0,0:0:0:0:
402,192,22386,1,0,0:0:0:0:
182,192,22486,1,0,0:0:0:0:
329,192,22486,1,0,0:0:0:0:
475,192,22486,1,0,0:0:0:0:
109,192,22586,1,0,0:0:0:0:
256,192,22586,1,0,0:0:0:0:
36,192,22686,1,0,0:0:0:0:
329,192,22686,1,0,0:0:0:0:
475,192,22686,1,0,0:0:0:0:
182,192,22686,1,0,0:0:0:0:
109,192,22786,1,0,0:0:0:0:
256,192,22786,1,0,0:0:0:0:
36,192,22886,1,0,0:0:0:0:
329,192,22886,1,0,0:0:0:0:
402,192,22886,1,0,0:0:0:0:
475,192,22886,1,0,0:0:0:0:
182,192,22986,1,0,0:0:0:0:
256,192,22986,1,0,0:0:0:0:
109,192,23086,1,0,0:0:0:0:
329,192,23086,1,0,0:0:0:0:
475,192,23086,1,0,0:0:0:0:
402,192,23086,1,0,0:0:0:0:
36,192,23186,1,0,0:0:0:0:
256,192,23186,1,0,0:0:0:0:
182,192,23286,1,0,0:0:0:0:
402,192,23286,1,0,0:0:0:0:
475,192,23286,1,0,0:0:0:0:
109,192,23386,1,0,0:0:0:0:
256,192,23386,1,0,0:0:0:0:
329,192,23486,1,0,0:0:0:0:
36,192,23486,1,0,0:0:0:0:
475,192,23486,1,0,0:0:0:0:
182,192,23486,1,0,0:0:0:0:
256,192,23586,1,0,0:0:0:0:
402,192,23586,1,0,0:0:0:0:
182,192,23686,1,0,0:0:0:0:
36,192,23686,1,0,0:0:0:0:
475,192,23686,1,0,0:0:0:0:
329,192,23786,1,0,0:0:0:0:
109,192,23786,1,0,0:0:0:0:
475,192,23886,1,0,0:0:0:0:
256,192,23886,1,0,0:0:0:0:
182,192,23886,1,0,0:0:0:0:
36,192,23886,1,0,0:0:0:0:
402,192,23986,1,0,0:0:0:0:
109,192,23986,1,0,0:0:0:0:
329,192,24086,1,0,0:0:0:0:
475,192,24086,1,0,0:0:0:0:
182,192,24086,1,0,0:0:0:0:
256,192,24186,1,0,0:0:0:0:
36,192,24186,1,0,0:0:0:0:
402,192,24286,1,0,0:0:0:0:
109,192,24286,1,0,0:0:0:0:
182,192,24286,1,0,0:0:0:0:
475,192,24286,1,0,0:0:0:0:
329,192,24386,1,0,0:0:0:0:
36,192,24386,1,0,0:0:0:0:
256,192,24486,1,0,0:0:0:0:
109,192,24486,1,0,0:0:0:0:
475,192,24486,1,0,0:0:0:0:
182,192,24586,1,0,0:0:0:0:
402,192,24586,1,0,0:0:0:0:
329,192,24686,1,0,0:0:0:0:
36,192,24686,1,0,0:0:0:0:
109,192,24686,1,0,0:0:0:0:
256,192,24686,1,0,0:0:0:0:
182,192,24786,1,0,0:0:0:0:
402,192,24786,1,0,0:0:0:0:
256,192,24886,1,0,0:0:0:0:
36,192,24886,1,0,0:0:0:0:
109,192,24886,1,0,0:0:0:0:
475,192,24886,1,0,0:0:0:0:
182,192,24986,1,0,0:0:0:0:
329,192,24986,1,0,0:0:0:0:
109,192,25086,1,0,0:0:0:0:
475,192,25086,1,0,0:0:0:0:
36,192,25086,1,0,0:0:0:0:
256,192,25086,1,0,0:0:0:0:
182,192,25186,1,0,0:0:0:0:
402,192,25186,1,0,0:0:0:0:
329,192,25286,1,0,0:0:0:0:
109,192,25286,1,0,0:0:0:0:
475,192,25286,1,0,0:0:0:0:
256,192,25386,1,0,0:0:0:0:
402,192,25386,1,0,0:0:0:0:
36,192,25486,1,0,0:0:0:0:
182,192,25486,1,0,0:0:0:0:
329,192,25486,1,0,0:0:0:0:
475,192,25486,1,0,0:0:0:0:
109,192,25586,1,0,0:0:0:0:
402,192,25586,1,0,0:0:0:0:
256,192,25686,1,0,0:0:0:0:
36,192,25686,1,0,0:0:0:0:
475,192,25686,1,0,0:0:0:0:
182,192,25786,1,0,0:0:0:0:
402,192,25786,1,0,0:0:0:0:
256,192,25886,1,0,0:0:0:0:
109,192,25886,1,0,0:0:0:0:
36,192,25886,1,0,0:0:0:0:
329,192,25952,1,0,0:0:0:0:
182,192,25986,1,0,0:0:0:0:
402,192,26019,1,0,0:0:0:0:
475,192,26086,1,0,0:0:0:0:
256,192,26086,1,0,0:0:0:0:
36,192,26086,1,0,0:0:0:0:
109,192,26152,1,0,0:0:0:0:
329,192,26186,1,0,0:0:0:0:
182,192,26219,1,0,0:0:0:0:
36,192,26286,1,0,0:0:0:0:
402,192,26286,1,0,0:0:0:0:
256,192,26286,1,0,0:0:0:0:
475,192,26286,1,0,0:0:0:0:
109,192,26286,1,0,0:0:0:0:
329,192,26486,1,0,0:0:0:0:
109,192,26486,1,0,0:0:0:0:
402,192,26486,1,0,0:0:0:0:
182,192,26586,1,0,0:0:0:0:
36,192,26686,1,0,0:0:0:0:
475,192,26686,1,0,0:0:0:0:
256,192,26686,1,0,0:0:0:0:
402,192,26686,1,0,0:0:0:0:
109,192,26686,1,0,0:0:0:0:
182,192,26786,1,0,0:0:0:0:
329,192,26786,1,0,0:0:0:0:
402,192,26886,1,0,0:0:0:0:
475,192,26886,1,0,0:0:0:0:
256,192,26886,1,0,0:0:0:0:
329,192,26986,1,0,0:0:0:0:
109,192,26986,1,0,0:0:0:0:
402,192,27086,1,0,0:0:0:0:
256,192,27086,1,0,0:0:0:0:
475,192,27086,1,0,0:0:0:0:
36,192,27086,1,0,0:0:0:0:
329,192,27186,1,0,0:0:0:0:
182,192,27186,1,0,0:0:0:0:
256,192,27286,1,0,0:0:0:0:
475,192,27286,1,0,0:0:0:0:
109,192,27286,1,0,0:0:0:0:
182,192,27386,1,0,0:0:0:0:
402,192,27386,1,0,0:0:0:0:
475,192,27486,1,0,0:0:0:0:
329,192,27486,1,0,0:0:0:0:
109,192,27486,1,0,0:0:0:0:
36,192,27486,1,0,0:0:0:0:
402,192,27586,1,0,0:0:0:0:
256,192,27586,1,0,0:0:0:0:
329,192,27686,1,0,0:0:0:0:
182,192,27686,1,0,0:0:0:0:
36,192,27686,1,0,0:0:0:0:
256,192,27786,1,0,0:0:0:0:
475,192,27786,1,0,0:0:0:0:
402,192,27886,1,0,0:0:0:0:
329,192,27886,1,0,0:0:0:0:
182,192,27886,1,0,0:0:0:0:
109,192,27886,1,0,0:0:0:0:
36,192,27986,1,0,0:0:0:0:
256,192,27986,1,0,0:0:0:0:
182,192,28086,1,0,0:0:0:0:
329,192,28086,1,0,0:0:0:0:
475,192,28086,1,0,0:0:0:0:
402,192,28186,1,0,0:0:0:0:
109,192,28186,1,0,0:0:0:0:
256,192,28286,1,0,0:0:0:0:
36,192,28286,1,0,0:0:0:0:
475,192,28286,1,0,0:0:0:0:
182,192,28286,1,0,0:0:0:0:
329,192,28386,1,0,0:0:0:0:
402,192,28386,1,0,0:0:0:0:
36,192,28486,1,0,0:0:0:0:
475,192,28486,1,0,0:0:0:0:
256,192,28486,1,0,0:0:0:0:
402,192,28586,1,0,0:0:0:0:
182,192,28586,1,0,0:0:0:0:
329,192,28686,1,0,0:0:0:0:
109,192,28686,1,0,0:0:0:0:
36,192,28686,1,0,0:0:0:0:
256,192,28686,1,0,0:0:0:0:
475,192,28786,1,0,0:0:0:0:
182,192,28786,1,0,0:0:0:0:
329,192,28886,1,0,0:0:0:0:
256,192,28886,1,0,0:0:0:0:
36,192,28886,1,0,0:0:0:0:
402,192,28986,1,0,0:0:0:0:
182,192,28986,1,0,0:0:0:0:
256,192,29086,1,0,0:0:0:0:
109,192,29086,1,0,0:0:0:0:
36,192,29086,1,0,0:0:0:0:
475,192,29086,1,0,0:0:0:0:
402,192,29186,1,0,0:0:0:0:
329,192,29186,1,0,0:0:0:0:
256,192,29286,1,0,0:0:0:0:
182,192,29286,1,0,0:0:0:0:
36,192,29286,1,0,0:0:0:0:
329,192,29386,1,0,0:0:0:0:
109,192,29386,1,0,0:0:0:0:
182,192,29486,1,0,0:0:0:0:
402,192,29486,1,0,0:0:0:0:
475,192,29486,1,0,0:0:0:0:
36,192,29486,1,0,0:0:0:0:
109,192,29586,1,0,0:0:0:0:
329,192,29586,1,0,0:0:0:0:
256,192,29686,1,0,0:0:0:0:
36,192,29686,1,0,0:0:0:0:
475,192,29686,1,0,0:0:0:0:
182,192,29786,1,0,0:0:0:0:
402,192,29786,1,0,0:0:0:0:
109,192,29886,1,0,0:0:0:0:
329,192,29886,1,0,0:0:0:0:
256,192,29886,1,0,0:0:0:0:
475,192,29886,1,0,0:0:0:0:
36,192,29986,1,0,0:0:0:0:
402,192,29986,1,0,0:0:0:0:
182,192,30086,1,0,0:0:0:0:
329,192,30086,1,0,0:0:0:0:
475,192,30086,1,0,0:0:0:0:
109,192,30186,1,0,0:0:0:0:
36,192,30186,1,0,0:0:0:0:
256,192,30286,1,0,0:0:0:0:
182,192,30286,1,0,0:0:0:0:
402,192,30286,1,0,0:0:0:0:
475,192,30286,1,0,0:0:0:0:
329,192,30386,1,0,0:0:0:0:
109,192,30386,1,0,0:0:0:0:
182,192,30486,1,0,0:0:0:0:
36,192,30486,1,0,0:0:0:0:
475,192,30486,1,0,0:0:0:0:
402,192,30586,1,0,0:0:0:0:
256,192,30586,1,0,0:0:0:0:
329,192,30686,1,0,0:0:0:0:
182,192,30686,1,0,0:0:0:0:
36,192,30686,1,0,0:0:0:0:
475,192,30686,1,0,0:0:0:0:
256,192,30786,1,0,0:0:0:0:
109,192,30786,1,0,0:0:0:0:
475,192,30886,1,0,0:0:0:0:
329,192,30886,1,0,0:0:0:0:
182,192,30886,1,0,0:0:0:0:
402,192,30986,1,0,0:0:0:0:
109,192,30986,1,0,0:0:0:0:
256,192,31086,1,0,0:0:0:0:
36,192,31086,1,0,0:0:0:0:
182,192,31086,1,0,0:0:0:0:
475,192,31086,1,0,0:0:0:0:
329,192,31186,1,0,0:0:0:0:
109,192,31186,1,0,0:0:0:0:
402,192,31286,1,0,0:0:0:0:
256,192,31286,1,0,0:0:0:0:
475,192,31286,1,0,0:0:0:0:
182,192,31386,1,0,0:0:0:0:
36,192,31386,1,0,0:0:0:0:
256,192,31486,1,0,0:0:0:0:
402,192,31486,1,0,0:0:0:0:
475,192,31486,1,0,0:0:0:0:
109,192,31486,1,0,0:0:0:0:
329,192,31586,1,0,0:0:0:0:
182,192,31586,1,0,0:0:0:0:
109,192,31686,1,0,0:0:0:0:
256,192,31686,1,0,0:0:0:0:
475,192,31686,1,0,0:0:0:0:
182,192,31786,1,0,0:0:0:0:
402,192,31786,1,0,0:0:0:0:
256,192,31886,1,0,0:0:0:0:
329,192,31886,1,0,0:0:0:0:
475,192,31886,1,0,0:0:0:0:
36,192,31886,1,0,0:0:0:0:
109,192,31986,1,0,0:0:0:0:
182,192,31986,1,0,0:0:0:0:
36,192,32086,1,0,0:0:0:0:
329,192,32086,1,0,0:0:0:0:
475,192,32086,1,0,0:0:0:0:
182,192,32186,1,0,0:0:0:0:
402,192,32186,1,0,0:0:0:0:
109,192,32286,1,0,0:0:0:0:
256,192,32286,1,0,0:0:0:0:
475,192,32286,1,0,0:0:0:0:
36,192,32286,1,0,0:0:0:0:
329,192,32386,1,0,0:0:0:0:
182,192,32386,1,0,0:0:0:0:
256,192,32486,1,0,0:0:0:0:
109,192,32486,1,0,0:0:0:0:
475,192,32486,1,0,0:0:0:0:
36,192,32486,1,0,0:0:0:0:
182,192,32586,1,0,0:0:0:0:
402,192,32586,1,0,0:0:0:0:
109,192,32686,1,0,0:0:0:0:
329,192,32686,1,0,0:0:0:0:
36,192,32686,1,0,0:0:0:0:
475,192,32686,1,0,0:0:0:0:
256,192,32786,1,0,0:0:0:0:
402,192,32786,1,0,0:0:0:0:
182,192,32886,1,0,0:0:0:0:
36,192,32886,1,0,0:0:0:0:
475,192,32886,1,0,0:0:0:0:
329,192,32986,1,0,0:0:0:0:
109,192,32986,1,0,0:0:0:0:
256,192,33086,1,0,0:0:0:0:
402,192,33086,1,0,0:0:0:0:
475,192,33086,1,0,0:0:0:0:
36,192,33086,1,0,0:0:0:0:
329,192,33186,1,0,0:0:0:0:
182,192,33186,1,0,0:0:0:0:
256,192,33286,1,0,0:0:0:0:
109,192,33286,1,0,0:0:0:0:
475,192,33286,1,0,0:0:0:0:
329,192,33386,1,0,0:0:0:0:
182,192,33386,1,0,0:0:0:0:
256,192,33486,1,0,0:0:0:0:
109,192,33486,1,0,0:0:0:0:
402,192,33486,1,0,0:0:0:0:
36,192,33486,1,0,0:0:0:0:
475,192,33586,1,0,0:0:0:0:
182,192,33586,1,0,0:0:0:0:
329,192,33686,1,0,0:0:0:0:
109,192,33686,1,0,0:0:0:0:
36,192,33686,1,0,0:0:0:0:
402,192,33786,1,0,0:0:0:0:
256,192,33786,1,0,0:0:0:0:
182,192,33886,1,0,0:0:0:0:
329,192,33886,1,0,0:0:0:0:
475,192,33886,1,0,0:0:0:0:
109,192,33886,1,0,0:0:0:0:
256,192,33986,1,0,0:0:0:0:
36,192,33986,1,0,0:0:0:0:
329,192,34086,1,0,0:0:0:0:
475,192,34086,1,0,0:0:0:0:
109,192,34086,1,0,0:0:0:0:
182,192,34186,1,0,0:0:0:0:
402,192,34186,1,0,0:0:0:0:
109,192,34286,1,0,0:0:0:0:
329,192,34286,1,0,0:0:0:0:
475,192,34286,1,0,0:0:0:0:
36,192,34286,1,0,0:0:0:0:
256,192,34386,1,0,0:0:0:0:
402,192,34386,1,0,0:0:0:0:
182,192,34486,1,0,0:0:0:0:
36,192,34486,1,0,0:0:0:0:
329,192,34486,1,0,0:0:0:0:
109,192,34586,1,0,0:0:0:0:
475,192,34586,1,0,0:0:0:0:
36,192,34686,1,0,0:0:0:0:
402,192,34686,1,0,0:0:0:0:
256,192,34686,1,0,0:0:0:0:
182,192,34686,1,0,0:0:0:0:
329,192,34786,1,0,0:0:0:0:
109,192,34786,1,0,0:0:0:0:
256,192,34886,1,0,0:0:0:0:
475,192,34886,1,0,0:0:0:0:
36,192,34886,1,0,0:0:0:0:
182,192,34986,1,0,0:0:0:0:
402,192,34986,1,0,0:0:0:0:
109,192,35086,1,0,0:0:0:0:
256,192,35086,1,0,0:0:0:0:
475,192,35086,1,0,0:0:0:0:
36,192,35086,1,0,0:0:0:0:
329,192,35186,1,0,0:0:0:0:
182,192,35186,1,0,0:0:0:0:
256,192,35286,1,0,0:0:0:0:
109,192,35286,1,0,0:0:0:0:
475,192,35286,1,0,0:0:0:0:
182,192,35386,1,0,0:0:0:0:
329,192,35386,1,0,0:0:0:0:
402,192,35486,1,0,0:0:0:0:
256,192,35486,1,0,0:0:0:0:
36,192,35486,1,0,0:0:0:0:
109,192,35486,1,0,0:0:0:0:
475,192,35586,1,0,0:0:0:0:
329,192,35586,1,0,0:0:0:0:
36,192,35686,1,0,0:0:0:0:
256,192,35686,1,0,0:0:0:0:
109,192,35686,1,0,0:0:0:0:
329,192,35786,1,0,0:0:0:0:
182,192,35786,1,0,0:0:0:0:
36,192,35886,1,0,0:0:0:0:
402,192,35886,1,0,0:0:0:0:
256,192,35886,1,0,0:0:0:0:
475,192,35886,1,0,0:0:0:0:
109,192,35986,1,0,0:0:0:0:
182,192,35986,1,0,0:0:0:0:
256,192,36086,1,0,0:0:0:0:
475,192,36086,1,0,0:0:0:0:
402,192,36086,1,0,0:0:0:0:
109,192,36186,1,0,0:0:0:0:
329,192,36186,1,0,0:0:0:0:
182,192,36286,1,0,0:0:0:0:
256,192,36286,1,0,0:0:0:0:
402,192,36286,1,0,0:0:0:0:
36,192,36286,1,0,0:0:0:0:
109,192,36386,1,0,0:0:0:0:
475,192,36386,1,0,0:0:0:0:
256,192,36486,1,0,0:0:0:0:
36,192,36486,1,0,0:0:0:0:
402,192,36486,1,0,0:0:0:0:
329,192,36586,1,0,0:0:0:0:
182,192,36586,1,0,0:0:0:0:
402,192,36686,1,0,0:0:0:0:
256,192,36686,1,0,0:0:0:0:
36,192,36686,1,0,0:0:0:0:
475,192,36686,1,0,0:0:0:0:
109,192,36786,1,0,0:0:0:0:
329,192,36786,1,0,0:0:0:0:
182,192,36886,1,0,0:0:0:0:
36,192,36886,1,0,0:0:0:0:
475,192,36886,1,0,0:0:0:0:
256,192,36986,1,0,0:0:0:0:
402,192,36986,1,0,0:0:0:0:
182,192,37086,1,0,0:0:0:0:
475,192,37086,1,0,0:0:0:0:
109,192,37086,1,0,0:0:0:0:
36,192,37086,1,0,0:0:0:0:
329,192,37186,1,0,0:0:0:0:
402,192,37186,1,0,0:0:0:0:
182,192,37286,1,0,0:0:0:0:
109,192,37286,1,0,0:0:0:0:
475,192,37286,1,0,0:0:0:0:
256,192,37386,1,0,0:0:0:0:
329,192,37386,1,0,0:0:0:0:
475,192,37486,1,0,0:0:0:0:
182,192,37486,1,0,0:0:0:0:
109,192,37486,1,0,0:0:0:0:
36,192,37486,1,0,0:0:0:0:
402,192,37552,1,0,0:0:0:0:
329,192,37619,1,0,0:0:0:0:
256,192,37686,1,0,0:0:0:0:
36,192,37686,1,0,0:0:0:0:
182,192,37752,1,0,0:0:0:0:
109,192,37819,1,0,0:0:0:0:
36,192,37886,1,0,0:0:0:0:
329,192,37886,1,0,0:0:0:0:
475,192,37886,1,0,0:0:0:0:
109,192,37952,1,0,0:0:0:0:
182,192,38019,1,0,0:0:0:0:
256,192,38086,1,0,0:0:0:0:
475,192,38086,1,0,0:0:0:0:
329,192,38152,1,0,0:0:0:0:
402,192,38219,1,0,0:0:0:0:
475,192,38286,1,0,0:0:0:0:
36,192,38286,1,0,0:0:0:0:
109,192,38286,1,0,0:0:0:0:
182,192,38286,1,0,0:0:0:0:
256,192,38286,1,0,0:0:0:0:
182,192,38486,1,0,0:0:0:0:
329,192,38686,1,0,0:0:0:0:
256,192,38686,1,0,0:0:0:0:
475,192,38686,1,0,0:0:0:0:
109,192,38686,1,0,0:0:0:0:
36,192,38686,1,0,0:0:0:0:
329,192,38886,1,0,0:0:0:0:
109,192,39086,1,0,0:0:0:0:
36,192,39086,1,0,0:0:0:0:
256,192,39086,1,0,0:0:0:0:
475,192,39086,1,0,0:0:0:0:
402,192,39186,1,0,0:0:0:0:
329,192,39286,1,0,0:0:0:0:
36,192,39286,1,0,0:0:0:0:
109,192,39386,1,0,0:0:0:0:
182,192,39386,1,0,0:0:0:0:
402,192,39386,1,0,0:0:0:0:
329,192,39486,1,0,0:0:0:0:
475,192,39486,1,0,0:0:0:0:
36,192,39486,1,0,0:0:0:0:
109,192,39586,1,0,0:0:0:0:
182,192,39686,1,0,0:0:0:0:
256,192,39686,1,0,0:0:0:0:
402,192,39686,1,0,0:0:0:0:
109,192,39786,1,0,0:0:0:0:
256,192,39886,1,0,0:0:0:0:
329,192,39886,1,0,0:0:0:0:
36,192,39886,1,0,0:0:0:0:
475,192,39886,1,0,0:0:0:0:
182,192,39986,1,0,0:0:0:0:
109,192,40086,1,0,0:0:0:0:
256,192,40086,1,0,0:0:0:0:
329,192,40186,1,0,0:0:0:0:
402,192,40186,1,0,0:0:0:0:
36,192,40186,1,0,0:0:0:0:
256,192,40286,1,0,0:0:0:0:
182,192,40286,1,0,0:0:0:0:
475,192,40286,1,0,0:0:0:0:
109,192,40386,1,0,0:0:0:0:
402,192,40486,1,0,0:0:0:0:
256,192,40486,1,0,0:0:0:0:
36,192,40486,1,0,0:0:0:0:
329,192,40586,1,0,0:0:0:0:
109,192,40686,1,0,0:0:0:0:
36,192,40686,1,0,0:0:0:0:
256,192,40686,1,0,0:0:0:0:
475,192,40686,1,0,0:0:0:0:
402,192,40786,1,0,0:0:0:0:
329,192,40886,1,0,0:0:0:0:
109,192,40886,1,0,0:0:0:0:
182,192,40986,1,0,0:0:0:0:
256,192,41086,1,0,0:0:0:0:
329,192,41086,1,0,0:0:0:0:
475,192,41086,1,0,0:0:0:0:
36,192,41086,1,0,0:0:0:0:
182,192,41186,1,0,0:0:0:0:
109,192,41286,1,0,0:0:0:0:
402,192,41286,1,0,0:0:0:0:
329,192,41386,1,0,0:0:0:0:
256,192,41486,1,0,0:0:0:0:
182,192,41486,1,0,0:0:0:0:
36,192,41486,1,0,0:0:0:0:
475,192,41486,1,0,0:0:0:0:
109,192,41586,1,0,0:0:0:0:
402,192,41686,1,0,0:0:0:0:
329,192,41686,1,0,0:0:0:0:
182,192,41686,1,0,0:0:0:0:
109,192,41786,1,0,0:0:0:0:
402,192,41886,1,0,0:0:0:0:
475,192,41886,1,0,0:0:0:0:
36,192,41886,1,0,0:0:0:0:
256,192,41886,1,0,0:0:0:0:
182,192,41986,1,0,0:0:0:0:
329,192,42086,1,0,0:0:0:0:
109,192,42086,1,0,0:0:0:0:
475,192,42086,1,0,0:0:0:0:
256,192,42186,1,0,0:0:0:0:
109,192,42286,1,0,0:0:0:0:
182,192,42286,1,0,0:0:0:0:
36,192,42286,1,0,0:0:0:0:
402,192,42286,1,0,0:0:0:0:
329,192,42386,1,0,0:0:0:0:
402,192,42486,1,0,0:0:0:0:
475,192,42486,1,0,0:0:0:0:
182,192,42586,1,0,0:0:0:0:
256,192,42586,1,0,0:0:0:0:
36,192,42586,1,0,0:0:0:0:
109,192,42686,1,0,0:0:0:0:
329,192,42686,1,0,0:0:0:0:
475,192,42686,1,0,0:0:0:0:
182,192,42786,1,0,0:0:0:0:
256,192,42886,1,0,0:0:0:0:
475,192,42886,1,0,0:0:0:0:
402,192,42886,1,0,0:0:0:0:
182,192,42986,1,0,0:0:0:0:
329,192,43086,1,0,0:0:0:0:
402,192,43086,1,0,0:0:0:0:
109,192,43086,1,0,0:0:0:0:
36,192,43086,1,0,0:0:0:0:
256,192,43186,1,0,0:0:0:0:
182,192,43286,1,0,0:0:0:0:
329,192,43286,1,0,0:0:0:0:
402,192,43386,1,0,0:0:0:0:
475,192,43386,1,0,0:0:0:0:
256,192,43386,1,0,0:0:0:0:
36,192,43486,1,0,0:0:0:0:
329,192,43486,1,0,0:0:0:0:
109,192,43486,1,0,0:0:0:0:
182,192,43586,1,0,0:0:0:0:
36,192,43686,1,0,0:0:0:0:
402,192,43686,1,0,0:0:0:0:
329,192,43686,1,0,0:0:0:0:
256,192,43786,1,0,0:0:0:0:
109,192,43886,1,0,0:0:0:0:
182,192,43886,1,0,0:0:0:0:
402,192,43886,1,0,0:0:0:0:
475,192,43886,1,0,0:0:0:0:
329,192,43986,1,0,0:0:0:0:
256,192,44086,1,0,0:0:0:0:
109,192,44086,1,0,0:0:0:0:
182,192,44186,1,0,0:0:0:0:
402,192,44286,1,0,0:0:0:0:
475,192,44286,1,0,0:0:0:0:
36,192,44286,1,0,0:0:0:0:
329,192,44286,1,0,0:0:0:0:
256,192,44386,1,0,0:0:0:0:
182,192,44486,1,0,0:0:0:0:
402,192,44486,1,0,0:0:0:0:
256,192,44586,1,0,0:0:0:0:
329,192,44686,1,0,0:0:0:0:
402,192,44686,1,0,0:0:0:0:
109,192,44686,1,0,0:0:0:0:
36,192,44686,1,0,0:0:0:0:
182,192,44786,1,0,0:0:0:0:
256,192,44886,1,0,0:0:0:0:
475,192,44886,1,0,0:0:0:0:
402,192,44986,1,0,0:0:0:0:
329,192,45086,1,0,0:0:0:0:
256,192,45086,1,0,0:0:0:0:
182,192,45086,1,0,0:0:0:0:
36,192,45086,1,0,0:0:0:0:
109,192,45186,1,0,0:0:0:0:
182,192,45286,1,0,0:0:0:0:
329,192,45286,1,0,0:0:0:0:
402,192,45386,1,0,0:0:0:0:
36,192,45486,1,0,0:0:0:0:
182,192,45486,1,0,0:0:0:0:
329,192,45486,1,0,0:0:0:0:
475,192,45486,1,0,0:0:0:0:
256,192,45586,1,0,0:0:0:0:
182,192,45686,1,0,0:0:0:0:
402,192,45686,1,0,0:0:0:0:
36,192,45786,1,0,0:0:0:0:
109,192,45786,1,0,0:0:0:0:
329,192,45786,1,0,0:0:0:0:
256,192,45886,1,0,0:0:0:0:
475,192,45886,1,0,0:0:0:0:
402,192,45886,1,0,0:0:0:0:
329,192,45986,1,0,0:0:0:0:
256,192,46086,1,0,0:0:0:0:
402,192,46086,1,0,0:0:0:0:
36,192,46086,1,0,0:0:0:0:
109,192,46186,1,0,0:0:0:0:
329,192,46286,1,0,0:0:0:0:
475,192,46286,1,0,0:0:0:0:
36,192,46286,1,0,0:0:0:0:
256,192,46286,1,0,0:0:0:0:
182,192,46386,1,0,0:0:0:0:
109,192,46486,1,0,0:0:0:0:
329,192,46486,1,0,0:0:0:0:
402,192,46586,1,0,0:0:0:0:
475,192,46586,1,0,0:0:0:0:
256,192,46586,1,0,0:0:0:0:
182,192,46686,1,0,0:0:0:0:
36,192,46686,1,0,0:0:0:0:
329,192,46686,1,0,0:0:0:0:
256,192,46786,1,0,0:0:0:0:
109,192,46886,1,0,0:0:0:0:
182,192,46886,1,0,0:0:0:0:
475,192,46886,1,0,0:0:0:0:
402,192,46986,1,0,0:0:0:0:
182,192,47086,1,0,0:0:0:0:
36,192,47086,1,0,0:0:0:0:
475,192,47086,1,0,0:0:0:0:
256,192,47086,1,0,0:0:0:0:
329,192,47186,1,0,0:0:0:0:
402,192,47286,1,0,0:0:0:0:
475,192,47286,1,0,0:0:0:0:
182,192,47386,1,0,0:0:0:0:
329,192,47386,1,0,0:0:0:0:
36,192,47386,1,0,0:0:0:0:
256,192,47486,1,0,0:0:0:0:
109,192,47486,1,0,0:0:0:0:
402,192,47486,1,0,0:0:0:0:
329,192,47586,1,0,0:0:0:0:
36,192,47686,1,0,0:0:0:0:
182,192,47686,1,0,0:0:0:0:
402,192,47686,1,0,0:0:0:0:
256,192,47786,1,0,0:0:0:0:
329,192,47886,1,0,0:0:0:0:
475,192,47886,1,0,0:0:0:0:
109,192,47886,1,0,0:0:0:0:
36,192,47886,1,0,0:0:0:0:
182,192,47986,1,0,0:0:0:0:
256,192,48086,1,0,0:0:0:0:
109,192,48086,1,0,0:0:0:0:
329,192,48186,1,0,0:0:0:0:
402,192,48186,1,0,0:0:0:0:
182,192,48186,1,0,0:0:0:0:
256,192,48286,1,0,0:0:0:0:
475,192,48286,1,0,0:0:0:0:
36,192,48286,1,0,0:0:0:0:
109,192,48386,1,0,0:0:0:0:
329,192,48486,1,0,0:0:0:0:
475,192,48486,1,0,0:0:0:0:
182,192,48486,1,0,0:0:0:0:
109,192,48586,1,0,0:0:0:0:
402,192,48686,1,0,0:0:0:0:
475,192,48686,1,0,0:0:0:0:
36,192,48686,1,0,0:0:0:0:
256,192,48686,1,0,0:0:0:0:
329,192,48786,1,0,0:0:0:0:
182,192,48886,1,0,0:0:0:0:
109,192,48886,1,0,0:0:0:0:
256,192,48986,1,0,0:0:0:0:
329,192,49086,1,0,0:0:0:0:
475,192,49086,1,0,0:0:0:0:
36,192,49086,1,0,0:0:0:0:
256,192,49186,1,0,0:0:0:0:
182,192,49286,1,0,0:0:0:0:
402,192,49286,1,0,0:0:0:0:
329,192,49386,1,0,0:0:0:0:
256,192,49486,1,0,0:0:0:0:
475,192,49486,1,0,0:0:0:0:
36,192,49486,1,0,0:0:0:0:
402,192,49586,1,0,0:0:0:0:
329,192,49686,1,0,0:0:0:0:
109,192,49686,1,0,0:0:0:0:
256,192,49786,1,0,0:0:0:0:
329,192,49886,1,0,0:0:0:0:
402,192,49886,1,0,0:0:0:0:
182,192,49886,1,0,0:0:0:0:
36,192,49886,1,0,0:0:0:0:
256,192,49986,1,0,0:0:0:0:
329,192,50086,1,0,0:0:0:0:
109,192,50086,1,0,0:0:0:0:
36,192,50186,1,0,0:0:0:0:
256,192,50286,1,0,0:0:0:0:
402,192,50286,1,0,0:0:0:0:
182,192,50286,1,0,0:0:0:0:
475,192,50286,1,0,0:0:0:0:
109,192,50386,1,0,0:0:0:0:
36,192,50486,1,0,0:0:0:0:
182,192,50486,1,0,0:0:0:0:
329,192,50586,1,0,0:0:0:0:
475,192,50586,1,0,0:0:0:0:
256,192,50586,1,0,0:0:0:0:
402,192,50686,1,0,0:0:0:0:
182,192,50686,1,0,0:0:0:0:
36,192,50686,1,0,0:0:0:0:
329,192,50786,1,0,0:0:0:0:
256,192,50886,1,0,0:0:0:0:
402,192,50886,1,0,0:0:0:0:
109,192,50886,1,0,0:0:0:0:
182,192,50986,1,0,0:0:0:0:
329,192,51086,1,0,0:0:0:0:
402,192,51086,1,0,0:0:0:0:
256,192,51086,1,0,0:0:0:0:
36,192,51086,1,0,0:0:0:0:
109,192,51186,1,0,0:0:0:0:
475,192,51286,1,0,0:0:0:0:
182,192,51286,1,0,0:0:0:0:
329,192,51286,1,0,0:0:0:0:
256,192,51386,1,0,0:0:0:0:
36,192,51486,1,0,0:0:0:0:
182,192,51486,1,0,0:0:0:0:
475,192,51486,1,0,0:0:0:0:
402,192,51486,1,0,0:0:0:0:
329,192,51586,1,0,0:0:0:0:
109,192,51686,1,0,0:0:0:0:
256,192,51686,1,0,0:0:0:0:
475,192,51686,1,0,0:0:0:0:
402,192,51686,1,0,0:0:0:0:
329,192,51786,1,0,0:0:0:0:
182,192,51886,1,0,0:0:0:0:
256,192,51886,1,0,0:0:0:0:
36,192,51886,1,0,0:0:0:0:
475,192,51886,1,0,0:0:0:0:
402,192,51986,1,0,0:0:0:0:
182,192,52086,1,0,0:0:0:0:
36,192,52086,1,0,0:0:0:0:
256,192,52186,1,0,0:0:0:0:
329,192,52186,1,0,0:0:0:0:
475,192,52186,1,0,0:0:0:0:
36,192,52286,1,0,0:0:0:0:
402,192,52286,1,0,0:0:0:0:
182,192,52286,1,0,0:0:0:0:
256,192,52386,1,0,0:0:0:0:
329,192,52486,1,0,0:0:0:0:
109,192,52486,1,0,0:0:0:0:
475,192,52486,1,0,0:0:0:0:
182,192,52586,1,0,0:0:0:0:
402,192,52686,1,0,0:0:0:0:
475,192,52686,1,0,0:0:0:0:
256,192,52686,1,0,0:0:0:0:
36,192,52686,1,0,0:0:0:0:
182,192,52786,1,0,0:0:0:0:
109,192,52886,1,0,0:0:0:0:
256,192,52886,1,0,0:0:0:0:
329,192,52986,1,0,0:0:0:0:
402,192,52986,1,0,0:0:0:0:
182,192,52986,1,0,0:0:0:0:
36,192,53086,1,0,0:0:0:0:
475,192,53086,1,0,0:0:0:0:
256,192,53086,1,0,0:0:0:0:
402,192,53186,1,0,0:0:0:0:
329,192,53286,1,0,0:0:0:0:
256,192,53286,1,0,0:0:0:0:
109,192,53286,1,0,0:0:0:0:
402,192,53386,1,0,0:0:0:0:
256,192,53486,1,0,0:0:0:0:
475,192,53486,1,0,0:0:0:0:
36,192,53486,1,0,0:0:0:0:
109,192,53486,1,0,0:0:0:0:
329,192,53586,1,0,0:0:0:0:
402,192,53686,1,0,0:0:0:0:
182,192,53686,1,0,0:0:0:0:
256,192,53786,1,0,0:0:0:0:
475,192,53886,1,0,0:0:0:0:
109,192,53886,1,0,0:0:0:0:
329,192,53886,1,0,0:0:0:0:
36,192,53886,1,0,0:0:0:0:
256,192,53986,1,0,0:0:0:0:
182,192,54086,1,0,0:0:0:0:
402,192,54086,1,0,0:0:0:0:
329,192,54186,1,0,0:0:0:0:
256,192,54286,1,0,0:0:0:0:
109,192,54286,1,0,0:0:0:0:
475,192,54286,1,0,0:0:0:0:
36,192,54286,1,0,0:0:0:0:
329,192,54386,1,0,0:0:0:0:
402,192,54486,1,0,0:0:0:0:
182,192,54486,1,0,0:0:0:0:
109,192,54486,1,0,0:0:0:0:
256,192,54586,1,0,0:0:0:0:
329,192,54686,1,0,0:0:0:0:
475,192,54686,1,0,0:0:0:0:
109,192,54686,1,0,0:0:0:0:
36,192,54686,1,0,0:0:0:0:
182,192,54786,1,0,0:0:0:0:
402,192,54886,1,0,0:0:0:0:
256,192,54886,1,0,0:0:0:0:
109,192,54886,1,0,0:0:0:0:
329,192,54986,1,0,0:0:0:0:
109,192,55086,1,0,0:0:0:0:
36,192,55086,1,0,0:0:0:0:
256,192,55086,1,0,0:0:0:0:
402,192,55086,1,0,0:0:0:0:
329,192,55186,1,0,0:0:0:0:
256,192,55286,1,0,0:0:0:0:
475,192,55286,1,0,0:0:0:0:
109,192,55386,1,0,0:0:0:0:
182,192,55386,1,0,0:0:0:0:
402,192,55386,1,0,0:0:0:0:
329,192,55486,1,0,0:0:0:0:
256,192,55486,1,0,0:0:0:0:
36,192,55486,1,0,0:0:0:0:
402,192,55586,1,0,0:0:0:0:
182,192,55686,1,0,0:0:0:0:
36,192,55686,1,0,0:0:0:0:
475,192,55686,1,0,0:0:0:0:
402,192,55786,1,0,0:0:0:0:
256,192,55886,1,0,0:0:0:0:
329,192,55886,1,0,0:0:0:0:
109,192,55886,1,0,0:0:0:0:
36,192,55886,1,0,0:0:0:0:
182,192,55986,1,0,0:0:0:0:
256,192,56086,1,0,0:0:0:0:
109,192,56086,1,0,0:0:0:0:
329,192,56186,1,0,0:0:0:0:
402,192,56186,1,0,0:0:0:0:
182,192,56186,1,0,0:0:0:0:
256,192,56286,1,0,0:0:0:0:
475,192,56286,1,0,0:0:0:0:
36,192,56286,1,0,0:0:0:0:
329,192,56386,1,0,0:0:0:0:
402,192,56486,1,0,0:0:0:0:
475,192,56486,1,0,0:0:0:0:
256,192,56486,1,0,0:0:0:0:
109,192,56486,1,0,0:0:0:0:
329,192,56586,1,0,0:0:0:0:
109,192,56686,1,0,0:0:0:0:
36,192,56686,1,0,0:0:0:0:
256,192,56686,1,0,0:0:0:0:
475,192,56686,1,0,0:0:0:0:
329,192,56786,1,0,0:0:0:0:
402,192,56886,1,0,0:0:0:0:
182,192,56886,1,0,0:0:0:0:
256,192,56986,1,0,0:0:0:0:
329,192,57086,1,0,0:0:0:0:
402,192,57086,1,0,0:0:0:0:
109,192,57086,1,0,0:0:0:0:
36,192,57086,1,0,0:0:0:0:
256,192,57186,1,0,0:0:0:0:
182,192,57286,1,0,0:0:0:0:
402,192,57286,1,0,0:0:0:0:
109,192,57386,1,0,0:0:0:0:
329,192,57486,1,0,0:0:0:0:
256,192,57486,1,0,0:0:0:0:
475,192,57486,1,0,0:0:0:0:
36,192,57486,1,0,0:0:0:0:
402,192,57586,1,0,0:0:0:0:
182,192,57686,1,0,0:0:0:0:
329,192,57686,1,0,0:0:0:0:
402,192,57786,1,0,0:0:0:0:
256,192,57886,1,0,0:0:0:0:
182,192,57886,1,0,0:0:0:0:
475,192,57886,1,0,0:0:0:0:
109,192,57886,1,0,0:0:0:0:
329,192,57986,1,0,0:0:0:0:
256,192,58086,1,0,0:0:0:0:
36,192,58086,1,0,0:0:0:0:
402,192,58186,1,0,0:0:0:0:
36,192,58286,1,0,0:0:0:0:
329,192,58286,1,0,0:0:0:0:
182,192,58286,1,0,0:0:0:0:
109,192,58286,1,0,0:0:0:0:
256,192,58386,1,0,0:0:0:0:
329,192,58486,1,0,0:0:0:0:
475,192,58486,1,0,0:0:0:0:
36,192,58586,1,0,0:0:0:0:
182,192,58586,1,0,0:0:0:0:
256,192,58586,1,0,0:0:0:0:
402,192,58686,1,0,0:0:0:0:
475,192,58686,1,0,0:0:0:0:
109,192,58686,1,0,0:0:0:0:
329,192,58686,1,0,0:0:0:0:
256,192,58786,1,0,0:0:0:0:
36,192,58886,1,0,0:0:0:0:
182,192,58886,1,0,0:0:0:0:
402,192,58886,1,0,0:0:0:0:
256,192,58986,1,0,0:0:0:0:
329,192,59086,1,0,0:0:0:0:
475,192,59086,1,0,0:0:0:0:
109,192,59086,1,0,0:0:0:0:
36,192,59086,1,0,0:0:0:0:
182,192,59186,1,0,0:0:0:0:
256,192,59286,1,0,0:0:0:0:
329,192,59286,1,0,0:0:0:0:
402,192,59386,1,0,0:0:0:0:
475,192,59386,1,0,0:0:0:0:
182,192,59386,1,0,0:0:0:0:
36,192,59486,1,0,0:0:0:0:
109,192,59486,1,0,0:0:0:0:
329,192,59486,1,0,0:0:0:0:
182,192,59586,1,0,0:0:0:0:
329,192,59686,1,0,0:0:0:0:
475,192,59686,1,0,0:0:0:0:
256,192,59686,1,0,0:0:0:0:
36,192,59786,1,0,0:0:0:0:
182,192,59886,1,0,0:0:0:0:
109,192,59886,1,0,0:0:0:0:
329,192,59886,1,0,0:0:0:0:
475,192,59886,1,0,0:0:0:0:
256,192,59986,1,0,0:0:0:0:
402,192,60086,1,0,0:0:0:0:
475,192,60086,1,0,0:0:0:0:
36,192,60186,1,0,0:0:0:0:
182,192,60186,1,0,0:0:0:0:
329,192,60186,1,0,0:0:0:0:
256,192,60286,1,0,0:0:0:0:
109,192,60286,1,0,0:0:0:0:
402,192,60286,1,0,0:0:0:0:
329,192,60386,1,0,0:0:0:0:
109,192,60486,1,0,0:0:0:0:
256,192,60486,1,0,0:0:0:0:
475,192,60486,1,0,0:0:0:0:
36,192,60586,1,0,0:0:0:0:
329,192,60686,1,0,0:0:0:0:
402,192,60686,1,0,0:0:0:0:
182,192,60686,1,0,0:0:0:0:
109,192,60686,1,0,0:0:0:0:
256,192,60786,1,0,0:0:0:0:
182,192,60886,1,0,0:0:0:0:
36,192,60886,1,0,0:0:0:0:
329,192,60986,1,0,0:0:0:0:
475,192,60986,1,0,0:0:0:0:
256,192,60986,1,0,0:0:0:0:
182,192,61086,1,0,0:0:0:0:
402,192,61086,1,0,0:0:0:0:
36,192,61086,1,0,0:0:0:0:
256,192,61186,1,0,0:0:0:0:
402,192,61286,1,0,0:0:0:0:
182,192,61286,1,0,0:0:0:0:
109,192,61286,1,0,0:0:0:0:
256,192,61386,1,0,0:0:0:0:
475,192,61486,1,0,0:0:0:0:
329,192,61486,1,0,0:0:0:0:
109,192,61486,1,0,0:0:0:0:
36,192,61486,1,0,0:0:0:0:
182,192,61586,1,0,0:0:0:0:
256,192,61686,1,0,0:0:0:0:
402,192,61686,1,0,0:0:0:0:
182,192,61786,1,0,0:0:0:0:
109,192,61886,1,0,0:0:0:0:
329,192,61886,1,0,0:0:0:0:
256,192,61886,1,0,0:0:0:0:
36,192,61986,1,0,0:0:0:0:
109,192,62086,1,0,0:0:0:0:
402,192,62086,1,0,0:0:0:0:
182,192,62186,1,0,0:0:0:0:
256,192,62286,1,0,0:0:0:0:
402,192,62286,1,0,0:0:0:0:
475,192,62286,1,0,0:0:0:0:
182,192,62386,1,0,0:0:0:0:
109,192,62486,1,0,0:0:0:0:
329,192,62486,1,0,0:0:0:0:
36,192,62586,1,0,0:0:0:0:
109,192,62686,1,0,0:0:0:0:
256,192,62686,1,0,0:0:0:0:
402,192,62686,1,0,0:0:0:0:
182,192,62786,1,0,0:0:0:0:
256,192,62886,1,0,0:0:0:0:
329,192,62886,1,0,0:0:0:0:
182,192,62986,1,0,0:0:0:0:
36,192,63086,1,0,0:0:0:0:
109,192,63086,1,0,0:0:0:0:
329,192,63086,1,0,0:0:0:0:
402,192,63086,1,0,0:0:0:0:
256,192,63186,1,0,0:0:0:0:
109,192,63286,1,0,0:0:0:0:
182,192,63286,1,0,0:0:0:0:
402,192,63286,1,0,0:0:0:0:
475,192,63286,1,0,0:0:0:0:
329,192,63386,1,0,0:0:0:0:
182,192,63486,1,0,0:0:0:0:
256,192,63486,1,0,0:0:0:0:
36,192,63486,1,0,0:0:0:0:
475,192,63486,1,0,0:0:0:0:
402,192,63586,1,0,0:0:0:0:
256,192,63686,5,0,0:0:0:0:
329,192,63686,1,0,0:0:0:0:
109,192,63686,1,0,0:0:0:0:
36,192,63686,1,0,0:0:0:0:
182,192,63786,1,0,0:0:0:0:
402,192,63886,1,0,0:0:0:0:
475,192,63886,1,0,0:0:0:0:
256,192,63886,1,0,0:0:0:0:
36,192,63886,1,0,0:0:0:0:
182,192,63986,1,0,0:0:0:0:
402,192,64086,1,0,0:0:0:0:
329,192,64086,1,0,0:0:0:0:
109,192,64086,1,0,0:0:0:0:
36,192,64086,1,0,0:0:0:0:
182,192,64186,1,0,0:0:0:0:
256,192,64286,1,0,0:0:0:0:
402,192,64286,1,0,0:0:0:0:
475,192,64286,1,0,0:0:0:0:
36,192,64286,1,0,0:0:0:0:
329,192,64386,1,0,0:0:0:0:
109,192,64386,1,0,0:0:0:0:
256,192,64486,1,0,0:0:0:0:
182,192,64486,1,0,0:0:0:0:
36,192,64486,1,0,0:0:0:0:
402,192,64486,1,0,0:0:0:0:
329,192,64586,1,0,0:0:0:0:
475,192,64586,1,0,0:0:0:0:
182,192,64686,1,0,0:0:0:0:
109,192,64686,1,0,0:0:0:0:
256,192,64686,1,0,0:0:0:0:
402,192,64686,1,0,0:0:0:0:
36,192,64686,1,0,0:0:0:0:
329,192,64786,1,0,0:0:0:0:
256,192,64886,1,0,0:0:0:0:
109,192,64886,1,0,0:0:0:0:
475,192,64886,1,0,0:0:0:0:
402,192,64986,1,0,0:0:0:0:
329,192,65086,1,0,0:0:0:0:
256,192,65086,1,0,0:0:0:0:
182,192,65086,1,0,0:0:0:0:
36,192,65086,1,0,0:0:0:0:
109,192,65086,1,0,0:0:0:0:
475,192,65086,1,0,0:0:0:0:
402,192,65186,1,0,0:0:0:0:
329,192,65286,1,0,0:0:0:0:
182,192,65286,1,0,0:0:0:0:
36,192,65286,1,0,0:0:0:0:
256,192,65386,1,0,0:0:0:0:
36,192,65486,1,0,0:0:0:0:
109,192,65486,1,0,0:0:0:0:
182,192,65486,1,0,0:0:0:0:
402,192,65486,1,0,0:0:0:0:
329,192,65486,1,0,0:0:0:0:
475,192,65486,1,0,0:0:0:0:
256,192,65586,1,0,0:0:0:0:
182,192,65686,1,0,0:0:0:0:
402,192,65686,1,0,0:0:0:0:
475,192,65686,1,0,0:0:0:0:
109,192,65786,1,0,0:0:0:0:
36,192,65886,1,0,0:0:0:0:
256,192,65886,1,0,0:0:0:0:
182,192,65886,1,0,0:0:0:0:
402,192,65886,1,0,0:0:0:0:
475,192,65886,1,0,0:0:0:0:
329,192,65886,1,0,0:0:0:0:
109,192,65986,1,0,0:0:0:0:
329,192,66086,1,0,0:0:0:0:
475,192,66086,1,0,0:0:0:0:
256,192,66086,1,0,0:0:0:0:
182,192,66186,1,0,0:0:0:0:
109,192,66286,1,0,0:0:0:0:
36,192,66286,1,0,0:0:0:0:
256,192,66286,1,0,0:0:0:0:
402,192,66286,1,0,0:0:0:0:
475,192,66286,1,0,0:0:0:0:
329,192,66286,1,0,0:0:0:0:
182,192,66386,1,0,0:0:0:0:
109,192,66486,1,0,0:0:0:0:
256,192,66486,1,0,0:0:0:0:
475,192,66486,1,0,0:0:0:0:
402,192,66586,1,0,0:0:0:0:
256,192,66686,1,0,0:0:0:0:
329,192,66686,1,0,0:0:0:0:
475,192,66686,1,0,0:0:0:0:
182,192,66686,1,0,0:0:0:0:
36,192,66686,1,0,0:0:0:0:
109,192,66686,1,0,0:0:0:0:
402,192,66786,1,0,0:0:0:0:
256,192,66886,1,0,0:0:0:0:
109,192,66886,1,0,0:0:0:0:
329,192,66886,1,0,0:0:0:0:
182,192,66986,1,0,0:0:0:0:
36,192,67086,1,0,0:0:0:0:
256,192,67086,1,0,0:0:0:0:
402,192,67086,1,0,0:0:0:0:
475,192,67086,1,0,0:0:0:0:
329,192,67086,1,0,0:0:0:0:
109,192,67086,1,0,0:0:0:0:
182,192,67186,1,0,0:0:0:0:
256,192,67286,1,0,0:0:0:0:
109,192,67286,1,0,0:0:0:0:
402,192,67286,1,0,0:0:0:0:
329,192,67386,1,0,0:0:0:0:
256,192,67486,1,0,0:0:0:0:
182,192,67486,1,0,0:0:0:0:
109,192,67486,1,0,0:0:0:0:
36,192,67486,1,0,0:0:0:0:
402,192,67486,1,0,0:0:0:0:
475,192,67486,1,0,0:0:0:0:
329,192,67586,1,0,0:0:0:0:
256,192,67686,1,0,0:0:0:0:
36,192,67686,1,0,0:0:0:0:
109,192,67686,1,0,0:0:0:0:
182,192,67786,1,0,0:0:0:0:
256,192,67886,1,0,0:0:0:0:
402,192,67886,1,0,0:0:0:0:
475,192,67886,1,0,0:0:0:0:
109,192,67886,1,0,0:0:0:0:
329,192,67986,1,0,0:0:0:0:
402,192,68086,1,0,0:0:0:0:
182,192,68086,1,0,0:0:0:0:
36,192,68086,1,0,0:0:0:0:
475,192,68186,1,0,0:0:0:0:
402,192,68286,1,0,0:0:0:0:
329,192,68286,1,0,0:0:0:0:
256,192,68286,1,0,0:0:0:0:
182,192,68286,1,0,0:0:0:0:
109,192,68286,1,0,0:0:0:0:
36,192,68286,1,0,0:0:0:0:
475,192,68386,1,0,0:0:0:0:
402,192,68486,1,0,0:0:0:0:
182,192,68486,1,0,0:0:0:0:
109,192,68486,1,0,0:0:0:0:
256,192,68586,1,0,0:0:0:0:
329,192,68686,1,0,0:0:0:0:
402,192,68686,1,0,0:0:0:0:
475,192,68686,1,0,0:0:0:0:
182,192,68686,1,0,0:0:0:0:
109,192,68686,1,0,0:0:0:0:
36,192,68686,1,0,0:0:0:0:
256,192,68786,1,0,0:0:0:0:
182,192,68886,1,0,0:0:0:0:
475,192,68886,1,0,0:0:0:0:
402,192,68886,1,0,0:0:0:0:
329,192,68986,1,0,0:0:0:0:
256,192,69086,1,0,0:0:0:0:
182,192,69086,1,0,0:0:0:0:
109,192,69086,1,0,0:0:0:0:
36,192,69086,1,0,0:0:0:0:
402,192,69086,1,0,0:0:0:0:
475,192,69086,1,0,0:0:0:0:
329,192,69186,1,0,0:0:0:0:
36,192,69286,1,0,0:0:0:0:
402,192,69286,1,0,0:0:0:0:
256,192,69286,1,0,0:0:0:0:
182,192,69386,1,0,0:0:0:0:
109,192,69486,1,0,0:0:0:0:
36,192,69486,1,0,0:0:0:0:
329,192,69486,1,0,0:0:0:0:
256,192,69486,1,0,0:0:0:0:
402,192,69486,1,0,0:0:0:0:
475,192,69486,1,0,0:0:0:0:
182,192,69586,1,0,0:0:0:0:
109,192,69686,1,0,0:0:0:0:
475,192,69686,1,0,0:0:0:0:
256,192,69686,1,0,0:0:0:0:
402,192,69786,1,0,0:0:0:0:
36,192,69886,1,0,0:0:0:0:
256,192,69886,1,0,0:0:0:0:
109,192,69886,1,0,0:0:0:0:
329,192,69886,1,0,0:0:0:0:
182,192,69886,1,0,0:0:0:0:
475,192,69886,1,0,0:0:0:0:
402,192,69986,1,0,0:0:0:0:
329,192,70086,1,0,0:0:0:0:
256,192,70086,1,0,0:0:0:0:
109,192,70086,1,0,0:0:0:0:
182,192,70186,1,0,0:0:0:0:
109,192,70286,1,0,0:0:0:0:
36,192,70286,1,0,0:0:0:0:
256,192,70286,1,0,0:0:0:0:
329,192,70286,1,0,0:0:0:0:
475,192,70286,1,0,0:0:0:0:
402,192,70286,1,0,0:0:0:0:
182,192,70386,1,0,0:0:0:0:
109,192,70486,1,0,0:0:0:0:
402,192,70486,1,0,0:0:0:0:
329,192,70486,1,0,0:0:0:0:
256,192,70586,1,0,0:0:0:0:
182,192,70686,1,0,0:0:0:0:
109,192,70686,1,0,0:0:0:0:
36,192,70686,1,0,0:0:0:0:
475,192,70686,1,0,0:0:0:0:
402,192,70686,1,0,0:0:0:0:
329,192,70686,1,0,0:0:0:0:
256,192,70786,1,0,0:0:0:0:
182,192,70886,1,0,0:0:0:0:
36,192,70886,1,0,0:0:0:0:
402,192,70886,1,0,0:0:0:0:
475,192,70886,1,0,0:0:0:0:
329,192,70986,1,0,0:0:0:0:
256,192,71086,1,0,0:0:0:0:
36,192,71086,1,0,0:0:0:0:
475,192,71086,1,0,0:0:0:0:
402,192,71086,1,0,0:0:0:0:
182,192,71186,1,0,0:0:0:0:
329,192,71286,1,0,0:0:0:0:
475,192,71286,1,0,0:0:0:0:
109,192,71286,1,0,0:0:0:0:
182,192,71386,1,0,0:0:0:0:
109,192,71486,1,0,0:0:0:0:
36,192,71486,1,0,0:0:0:0:
256,192,71486,1,0,0:0:0:0:
329,192,71486,1,0,0:0:0:0:
475,192,71486,1,0,0:0:0:0:
402,192,71486,1,0,0:0:0:0:
182,192,71586,1,0,0:0:0:0:
109,192,71686,1,0,0:0:0:0:
329,192,71686,1,0,0:0:0:0:
475,192,71686,1,0,0:0:0:0:
256,192,71786,1,0,0:0:0:0:
109,192,71886,1,0,0:0:0:0:
182,192,71886,1,0,0:0:0:0:
36,192,71886,1,0,0:0:0:0:
329,192,71886,1,0,0:0:0:0:
402,192,71886,1,0,0:0:0:0:
475,192,71886,1,0,0:0:0:0:
256,192,71986,1,0,0:0:0:0:
182,192,72086,1,0,0:0:0:0:
402,192,72086,1,0,0:0:0:0:
475,192,72086,1,0,0:0:0:0:
329,192,72186,1,0,0:0:0:0:
109,192,72286,1,0,0:0:0:0:
36,192,72286,1,0,0:0:0:0:
256,192,72286,1,0,0:0:0:0:
182,192,72286,1,0,0:0:0:0:
475,192,72286,1,0,0:0:0:0:
402,192,72286,1,0,0:0:0:0:
329,192,72386,1,0,0:0:0:0:
109,192,72486,1,0,0:0:0:0:
36,192,72486,1,0,0:0:0:0:
256,192,72486,1,0,0:0:0:0:
182,192,72586,1,0,0:0:0:0:
109,192,72686,1,0,0:0:0:0:
36,192,72686,1,0,0:0:0:0:
329,192,72686,1,0,0:0:0:0:
256,192,72686,1,0,0:0:0:0:
475,192,72686,1,0,0:0:0:0:
402,192,72686,1,0,0:0:0:0:
182,192,72786,1,0,0:0:0:0:
475,192,72886,1,0,0:0:0:0:
109,192,72886,1,0,0:0:0:0:
329,192,72886,1,0,0:0:0:0:
402,192,72986,1,0,0:0:0:0:
329,192,73086,1,0,0:0:0:0:
475,192,73086,1,0,0:0:0:0:
256,192,73086,1,0,0:0:0:0:
182,192,73086,1,0,0:0:0:0:
109,192,73086,1,0,0:0:0:0:
36,192,73086,1,0,0:0:0:0:
402,192,73186,1,0,0:0:0:0:
256,192,73286,1,0,0:0:0:0:
182,192,73286,1,0,0:0:0:0:
36,192,73286,1,0,0:0:0:0:
329,192,73386,1,0,0:0:0:0:
402,192,73486,1,0,0:0:0:0:
475,192,73486,1,0,0:0:0:0:
256,192,73486,1,0,0:0:0:0:
182,192,73486,1,0,0:0:0:0:
109,192,73486,1,0,0:0:0:0:
36,192,73486,1,0,0:0:0:0:
329,192,73586,1,0,0:0:0:0:
109,192,73686,1,0,0:0:0:0:
36,192,73686,1,0,0:0:0:0:
402,192,73686,1,0,0:0:0:0:
182,192,73786,1,0,0:0:0:0:
109,192,73886,1,0,0:0:0:0:
36,192,73886,1,0,0:0:0:0:
256,192,73886,1,0,0:0:0:0:
329,192,73886,1,0,0:0:0:0:
402,192,73886,1,0,0:0:0:0:
475,192,73886,1,0,0:0:0:0:
182,192,73986,1,0,0:0:0:0:
256,192,74086,1,0,0:0:0:0:
402,192,74086,1,0,0:0:0:0:
36,192,74086,1,0,0:0:0:0:
109,192,74186,1,0,0:0:0:0:
36,192,74286,1,0,0:0:0:0:
256,192,74286,1,0,0:0:0:0:
475,192,74286,1,0,0:0:0:0:
329,192,74286,1,0,0:0:0:0:
402,192,74286,1,0,0:0:0:0:
182,192,74286,1,0,0:0:0:0:
109,192,74386,1,0,0:0:0:0:
182,192,74486,1,0,0:0:0:0:
402,192,74486,1,0,0:0:0:0:
475,192,74486,1,0,0:0:0:0:
329,192,74586,1,0,0:0:0:0:
256,192,74686,1,0,0:0:0:0:
109,192,74686,1,0,0:0:0:0:
36,192,74686,1,0,0:0:0:0:
402,192,74686,1,0,0:0:0:0:
475,192,74686,1,0,0:0:0:0:
182,192,74786,1,0,0:0:0:0:
36,192,74886,1,0,0:0:0:0:
402,192,74886,1,0,0:0:0:0:
329,192,74886,1,0,0:0:0:0:
475,192,74886,1,0,0:0:0:0:
109,192,74886,1,0,0:0:0:0:
256,192,74986,1,0,0:0:0:0:
182,192,75086,1,0,0:0:0:0:
109,192,75086,1,0,0:0:0:0:
36,192,75086,1,0,0:0:0:0:
402,192,75086,1,0,0:0:0:0:
475,192,75086,1,0,0:0:0:0:
329,192,75086,1,0,0:0:0:0:
256,192,75186,1,0,0:0:0:0:
182,192,75286,1,0,0:0:0:0:
36,192,75286,1,0,0:0:0:0:
402,192,75286,1,0,0:0:0:0:
329,192,75386,1,0,0:0:0:0:
256,192,75486,1,0,0:0:0:0:
109,192,75486,1,0,0:0:0:0:
36,192,75486,1,0,0:0:0:0:
402,192,75486,1,0,0:0:0:0:
475,192,75486,1,0,0:0:0:0:
329,192,75586,1,0,0:0:0:0:
402,192,75686,1,0,0:0:0:0:
182,192,75686,1,0,0:0:0:0:
36,192,75686,1,0,0:0:0:0:
256,192,75786,1,0,0:0:0:0:
329,192,75886,1,0,0:0:0:0:
402,192,75886,1,0,0:0:0:0:
475,192,75886,1,0,0:0:0:0:
109,192,75886,1,0,0:0:0:0:
182,192,75886,1,0,0:0:0:0:
36,192,75886,1,0,0:0:0:0:
256,192,75986,1,0,0:0:0:0:
182,192,76086,1,0,0:0:0:0:
36,192,76086,1,0,0:0:0:0:
402,192,76086,1,0,0:0:0:0:
329,192,76186,1,0,0:0:0:0:
256,192,76286,1,0,0:0:0:0:
109,192,76286,1,0,0:0:0:0:
475,192,76286,1,0,0:0:0:0:
402,192,76286,1,0,0:0:0:0:
36,192,76286,1,0,0:0:0:0:
182,192,76386,1,0,0:0:0:0:
109,192,76486,1,0,0:0:0:0:
36,192,76486,1,0,0:0:0:0:
329,192,76486,1,0,0:0:0:0:
402,192,76486,1,0,0:0:0:0:
475,192,76486,1,0,0:0:0:0:
182,192,76586,1,0,0:0:0:0:
109,192,76686,1,0,0:0:0:0:
36,192,76686,1,0,0:0:0:0:
329,192,76686,1,0,0:0:0:0:
256,192,76686,1,0,0:0:0:0:
475,192,76686,1,0,0:0:0:0:
402,192,76686,1,0,0:0:0:0:
182,192,76786,1,0,0:0:0:0:
256,192,76886,1,0,0:0:0:0:
36,192,76886,1,0,0:0:0:0:
475,192,76886,1,0,0:0:0:0:
329,192,76952,1,0,0:0:0:0:
402,192,77019,1,0,0:0:0:0:
475,192,77086,1,0,0:0:0:0:
182,192,77086,1,0,0:0:0:0:
36,192,77086,1,0,0:0:0:0:
256,192,77086,1,0,0:0:0:0:
109,192,77086,1,0,0:0:0:0:
329,192,77186,1,0,0:0:0:0:
402,192,77286,1,0,0:0:0:0:
475,192,77286,1,0,0:0:0:0:
182,192,77286,1,0,0:0:0:0:
109,192,77286,1,0,0:0:0:0:
36,192,77286,1,0,0:0:0:0:
256,192,77386,1,0,0:0:0:0:
329,192,77486,1,0,0:0:0:0:
402,192,77486,1,0,0:0:0:0:
475,192,77486,1,0,0:0:0:0:
36,192,77486,1,0,0:0:0:0:
182,192,77486,1,0,0:0:0:0:
256,192,77586,1,0,0:0:0:0:
109,192,77686,1,0,0:0:0:0:
329,192,77686,1,0,0:0:0:0:
36,192,77686,1,0,0:0:0:0:
475,192,77786,1,0,0:0:0:0:
329,192,77886,1,0,0:0:0:0:
402,192,77886,1,0,0:0:0:0:
182,192,77886,1,0,0:0:0:0:
109,192,77886,1,0,0:0:0:0:
36,192,77886,1,0,0:0:0:0:
256,192,77986,1,0,0:0:0:0:
475,192,77986,1,0,0:0:0:0:
109,192,78086,1,0,0:0:0:0:
329,192,78086,1,0,0:0:0:0:
182,192,78186,1,0,0:0:0:0:
402,192,78186,1,0,0:0:0:0:
256,192,78286,1,0,0:0:0:0:
475,192,78286,1,0,0:0:0:0:
109,192,78286,1,0,0:0:0:0:
36,192,78286,1,0,0:0:0:0:
329,192,78286,1,0,0:0:0:0:
182,192,78386,1,0,0:0:0:0:
402,192,78386,1,0,0:0:0:0:
36,192,78486,1,0,0:0:0:0:
329,192,78486,1,0,0:0:0:0:
256,192,78586,1,0,0:0:0:0:
109,192,78586,1,0,0:0:0:0:
182,192,78686,1,0,0:0:0:0:
36,192,78686,1,0,0:0:0:0:
329,192,78686,1,0,0:0:0:0:
402,192,78686,1,0,0:0:0:0:
475,192,78686,1,0,0:0:0:0:
256,192,78786,1,0,0:0:0:0:
109,192,78786,1,0,0:0:0:0:
182,192,78886,1,0,0:0:0:0:
402,192,78886,1,0,0:0:0:0:
329,192,78986,1,0,0:0:0:0:
36,192,78986,1,0,0:0:0:0:
109,192,79086,1,0,0:0:0:0:
182,192,79086,1,0,0:0:0:0:
256,192,79086,1,0,0:0:0:0:
402,192,79086,1,0,0:0:0:0:
475,192,79086,1,0,0:0:0:0:
329,192,79186,1,0,0:0:0:0:
36,192,79186,1,0,0:0:0:0:
256,192,79286,1,0,0:0:0:0:
475,192,79286,1,0,0:0:0:0:
402,192,79386,1,0,0:0:0:0:
182,192,79386,1,0,0:0:0:0:
329,192,79486,1,0,0:0:0:0:
109,192,79486,1,0,0:0:0:0:
36,192,79486,1,0,0:0:0:0:
256,192,79486,1,0,0:0:0:0:
475,192,79486,1,0,0:0:0:0:
182,192,79586,1,0,0:0:0:0:
402,192,79586,1,0,0:0:0:0:
36,192,79686,1,0,0:0:0:0:
256,192,79686,1,0,0:0:0:0:
109,192,79786,1,0,0:0:0:0:
329,192,79786,1,0,0:0:0:0:
182,192,79886,1,0,0:0:0:0:
402,192,79886,1,0,0:0:0:0:
475,192,79886,1,0,0:0:0:0:
256,192,79886,1,0,0:0:0:0:
36,192,79886,1,0,0:0:0:0:
109,192,79986,1,0,0:0:0:0:
329,192,79986,1,0,0:0:0:0:
256,192,80086,1,0,0:0:0:0:
475,192,80086,1,0,0:0:0:0:
402,192,80186,1,0,0:0:0:0:
182,192,80186,1,0,0:0:0:0:
329,192,80286,1,0,0:0:0:0:
109,192,80286,1,0,0:0:0:0:
36,192,80286,1,0,0:0:0:0:
256,192,80286,1,0,0:0:0:0:
475,192,80286,1,0,0:0:0:0:
182,192,80386,1,0,0:0:0:0:
402,192,80386,1,0,0:0:0:0:
329,192,80486,1,0,0:0:0:0:
36,192,80486,1,0,0:0:0:0:
402,192,80586,1,0,0:0:0:0:
109,192,80586,1,0,0:0:0:0:
329,192,80686,1,0,0:0:0:0:
256,192,80686,1,0,0:0:0:0:
475,192,80686,1,0,0:0:0:0:
36,192,80686,1,0,0:0:0:0:
109,192,80786,1,0,0:0:0:0:
402,192,80786,1,0,0:0:0:0:
329,192,80886,1,0,0:0:0:0:
182,192,80886,1,0,0:0:0:0:
256,192,80986,1,0,0:0:0:0:
36,192,80986,1,0,0:0:0:0:
109,192,81086,1,0,0:0:0:0:
182,192,81086,1,0,0:0:0:0:
329,192,81086,1,0,0:0:0:0:
475,192,81086,1,0,0:0:0:0:
402,192,81086,1,0,0:0:0:0:
256,192,81186,1,0,0:0:0:0:
36,192,81186,1,0,0:0:0:0:
182,192,81286,1,0,0:0:0:0:
402,192,81286,1,0,0:0:0:0:
109,192,81386,1,0,0:0:0:0:
329,192,81386,1,0,0:0:0:0:
256,192,81486,1,0,0:0:0:0:
182,192,81486,1,0,0:0:0:0:
36,192,81486,1,0,0:0:0:0:
475,192,81486,1,0,0:0:0:0:
402,192,81486,1,0,0:0:0:0:
329,192,81586,1,0,0:0:0:0:
109,192,81586,1,0,0:0:0:0:
182,192,81686,1,0,0:0:0:0:
475,192,81686,1,0,0:0:0:0:
402,192,81786,1,0,0:0:0:0:
256,192,81786,1,0,0:0:0:0:
36,192,81886,1,0,0:0:0:0:
109,192,81886,1,0,0:0:0:0:
182,192,81886,1,0,0:0:0:0:
329,192,81886,1,0,0:0:0:0:
475,192,81886,1,0,0:0:0:0:
256,192,81986,1,0,0:0:0:0:
402,192,81986,1,0,0:0:0:0:
182,192,82086,1,0,0:0:0:0:
36,192,82086,1,0,0:0:0:0:
109,192,82186,1,0,0:0:0:0:
329,192,82186,1,0,0:0:0:0:
256,192,82286,1,0,0:0:0:0:
475,192,82286,1,0,0:0:0:0:
402,192,82286,1,0,0:0:0:0:
182,192,82286,1,0,0:0:0:0:
36,192,82286,1,0,0:0:0:0:
109,192,82386,1,0,0:0:0:0:
329,192,82386,1,0,0:0:0:0:
256,192,82486,1,0,0:0:0:0:
475,192,82486,1,0,0:0:0:0:
402,192,82586,1,0,0:0:0:0:
182,192,82586,1,0,0:0:0:0:
329,192,82686,1,0,0:0:0:0:
256,192,82686,1,0,0:0:0:0:
109,192,82686,1,0,0:0:0:0:
36,192,82686,1,0,0:0:0:0:
475,192,82686,1,0,0:0:0:0:
182,192,82786,1,0,0:0:0:0:
402,192,82786,1,0,0:0:0:0:
256,192,82886,1,0,0:0:0:0:
475,192,82886,1,0,0:0:0:0:
36,192,82986,1,0,0:0:0:0:
329,192,82986,1,0,0:0:0:0:
109,192,83086,1,0,0:0:0:0:
182,192,83086,1,0,0:0:0:0:
256,192,83086,1,0,0:0:0:0:
402,192,83086,1,0,0:0:0:0:
475,192,83086,1,0,0:0:0:0:
329,192,83186,1,0,0:0:0:0:
36,192,83186,1,0,0:0:0:0:
256,192,83286,1,0,0:0:0:0:
475,192,83286,1,0,0:0:0:0:
402,192,83386,1,0,0:0:0:0:
182,192,83386,1,0,0:0:0:0:
329,192,83486,1,0,0:0:0:0:
109,192,83486,1,0,0:0:0:0:
36,192,83486,1,0,0:0:0:0:
256,192,83486,1,0,0:0:0:0:
475,192,83486,1,0,0:0:0:0:
182,192,83586,1,0,0:0:0:0:
402,192,83586,1,0,0:0:0:0:
329,192,83686,1,0,0:0:0:0:
475,192,83686,1,0,0:0:0:0:
109,192,83786,1,0,0:0:0:0:
256,192,83786,1,0,0:0:0:0:
182,192,83886,1,0,0:0:0:0:
36,192,83886,1,0,0:0:0:0:
475,192,83886,1,0,0:0:0:0:
402,192,83886,1,0,0:0:0:0:
256,192,83986,1,0,0:0:0:0:
109,192,83986,1,0,0:0:0:0:
182,192,84086,1,0,0:0:0:0:
402,192,84086,1,0,0:0:0:0:
329,192,84186,1,0,0:0:0:0:
36,192,84186,1,0,0:0:0:0:
256,192,84286,1,0,0:0:0:0:
402,192,84286,1,0,0:0:0:0:
475,192,84286,1,0,0:0:0:0:
182,192,84286,1,0,0:0:0:0:
109,192,84286,1,0,0:0:0:0:
36,192,84386,1,0,0:0:0:0:
329,192,84386,1,0,0:0:0:0:
256,192,84486,1,0,0:0:0:0:
109,192,84486,1,0,0:0:0:0:
182,192,84586,1,0,0:0:0:0:
402,192,84586,1,0,0:0:0:0:
329,192,84686,1,0,0:0:0:0:
475,192,84686,1,0,0:0:0:0:
256,192,84686,1,0,0:0:0:0:
109,192,84686,1,0,0:0:0:0:
36,192,84686,1,0,0:0:0:0:
182,192,84786,1,0,0:0:0:0:
402,192,84786,1,0,0:0:0:0:
109,192,84886,1,0,0:0:0:0:
329,192,84886,1,0,0:0:0:0:
256,192,84986,1,0,0:0:0:0:
475,192,84986,1,0,0:0:0:0:
402,192,85086,1,0,0:0:0:0:
329,192,85086,1,0,0:0:0:0:
182,192,85086,1,0,0:0:0:0:
109,192,85086,1,0,0:0:0:0:
36,192,85086,1,0,0:0:0:0:
256,192,85186,1,0,0:0:0:0:
475,192,85186,1,0,0:0:0:0:
36,192,85286,1,0,0:0:0:0:
329,192,85286,1,0,0:0:0:0:
109,192,85386,1,0,0:0:0:0:
402,192,85386,1,0,0:0:0:0:
182,192,85486,1,0,0:0:0:0:
256,192,85486,1,0,0:0:0:0:
329,192,85486,1,0,0:0:0:0:
475,192,85486,1,0,0:0:0:0:
36,192,85486,1,0,0:0:0:0:
109,192,85586,1,0,0:0:0:0:
402,192,85586,1,0,0:0:0:0:
182,192,85686,1,0,0:0:0:0:
475,192,85686,1,0,0:0:0:0:
256,192,85786,1,0,0:0:0:0:
36,192,85786,1,0,0:0:0:0:
182,192,85886,1,0,0:0:0:0:
109,192,85886,1,0,0:0:0:0:
329,192,85886,1,0,0:0:0:0:
475,192,85886,1,0,0:0:0:0:
402,192,85886,1,0,0:0:0:0:
256,192,85986,1,0,0:0:0:0:
36,192,85986,1,0,0:0:0:0:
182,192,86086,1,0,0:0:0:0:
402,192,86086,1,0,0:0:0:0:
329,192,86186,1,0,0:0:0:0:
475,192,86186,1,0,0:0:0:0:
256,192,86286,1,0,0:0:0:0:
402,192,86286,1,0,0:0:0:0:
182,192,86286,1,0,0:0:0:0:
36,192,86286,1,0,0:0:0:0:
109,192,86286,1,0,0:0:0:0:
329,192,86386,1,0,0:0:0:0:
475,192,86386,1,0,0:0:0:0:
36,192,86486,1,0,0:0:0:0:
256,192,86486,1,0,0:0:0:0:
109,192,86586,1,0,0:0:0:0:
329,192,86586,1,0,0:0:0:0:
475,192,86686,1,0,0:0:0:0:
36,192,86686,1,0,0:0:0:0:
182,192,86686,1,0,0:0:0:0:
256,192,86686,1,0,0:0:0:0:
402,192,86686,1,0,0:0:0:0:
329,192,86786,1,0,0:0:0:0:
402,192,86886,1,0,0:0:0:0:
109,192,86886,1,0,0:0:0:0:
182,192,86986,1,0,0:0:0:0:
256,192,86986,1,0,0:0:0:0:
329,192,87086,1,0,0:0:0:0:
109,192,87086,1,0,0:0:0:0:
36,192,87086,1,0,0:0:0:0:
402,192,87086,1,0,0:0:0:0:
475,192,87086,1,0,0:0:0:0:
256,192,87186,1,0,0:0:0:0:
182,192,87186,1,0,0:0:0:0:
109,192,87286,1,0,0:0:0:0:
329,192,87286,1,0,0:0:0:0:
475,192,87286,1,0,0:0:0:0:
402,192,87386,1,0,0:0:0:0:
256,192,87386,1,0,0:0:0:0:
329,192,87486,1,0,0:0:0:0:
109,192,87486,1,0,0:0:0:0:
36,192,87486,1,0,0:0:0:0:
475,192,87486,1,0,0:0:0:0:
402,192,87586,1,0,0:0:0:0:
182,192,87586,1,0,0:0:0:0:
36,192,87686,1,0,0:0:0:0:
109,192,87686,1,0,0:0:0:0:
256,192,87686,1,0,0:0:0:0:
182,192,87786,1,0,0:0:0:0:
329,192,87786,1,0,0:0:0:0:
36,192,87886,1,0,0:0:0:0:
402,192,87886,1,0,0:0:0:0:
475,192,87886,1,0,0:0:0:0:
256,192,87886,1,0,0:0:0:0:
182,192,87986,1,0,0:0:0:0:
109,192,87986,1,0,0:0:0:0:
475,192,88086,1,0,0:0:0:0:
402,192,88086,1,0,0:0:0:0:
256,192,88086,1,0,0:0:0:0:
329,192,88186,1,0,0:0:0:0:
182,192,88186,1,0,0:0:0:0:
109,192,88286,1,0,0:0:0:0:
256,192,88286,1,0,0:0:0:0:
475,192,88286,1,0,0:0:0:0:
36,192,88286,1,0,0:0:0:0:
329,192,88386,1,0,0:0:0:0:
402,192,88386,1,0,0:0:0:0:
256,192,88486,1,0,0:0:0:0:
109,192,88486,1,0,0:0:0:0:
36,192,88486,1,0,0:0:0:0:
182,192,88586,1,0,0:0:0:0:
329,192,88586,1,0,0:0:0:0:
475,192,88686,1,0,0:0:0:0:
402,192,88752,1,0,0:0:0:0:
329,192,88819,1,0,0:0:0:0:
256,192,88886,1,0,0:0:0:0:
36,192,88886,1,0,0:0:0:0:
109,192,88952,1,0,0:0:0:0:
182,192,89019,1,0,0:0:0:0:
256,192,89086,1,0,0:0:0:0:
475,192,89086,1,0,0:0:0:0:
329,192,89152,5,0,0:0:0:0:
402,192,89219,1,0,0:0:0:0:
36,192,89286,1,0,0:0:0:0:
475,192,89286,1,0,0:0:0:0:
109,192,89352,1,0,0:0:0:0:
182,192,89419,1,0,0:0:0:0:
256,192,89486,1,0,0:0:0:0:
329,192,89486,1,0,0:0:0:0:
402,192,89486,1,0,0:0:0:0:
475,192,89486,1,0,0:0:0:0:
256,192,89686,1,0,0:0:0:0:
402,192,89886,1,0,0:0:0:0:
475,192,89886,1,0,0:0:0:0:
36,192,89886,1,0,0:0:0:0:
329,192,89886,1,0,0:0:0:0:
256,192,89886,1,0,0:0:0:0:
109,192,89952,1,0,0:0:0:0:
182,192,90019,1,0,0:0:0:0:
256,192,90086,1,0,0:0:0:0:
329,192,90152,1,0,0:0:0:0:
402,192,90219,1,0,0:0:0:0:
256,192,90286,5,0,0:0:0:0:
475,192,90286,1,0,0:0:0:0:
36,192,90286,1,0,0:0:0:0:
182,192,90286,1,0,0:0:0:0:
109,192,90386,1,0,0:0:0:0:
329,192,90386,1,0,0:0:0:0:
182,192,90486,1,0,0:0:0:0:
475,192,90486,1,0,0:0:0:0:
36,192,90586,1,0,0:0:0:0:
402,192,90586,1,0,0:0:0:0:
109,192,90686,1,0,0:0:0:0:
329,192,90686,1,0,0:0:0:0:
475,192,90686,1,0,0:0:0:0:
256,192,90686,1,0,0:0:0:0:
182,192,90786,1,0,0:0:0:0:
402,192,90786,1,0,0:0:0:0:
36,192,90886,1,0,0:0:0:0:
329,192,90886,1,0,0:0:0:0:
109,192,90986,1,0,0:0:0:0:
256,192,90986,1,0,0:0:0:0:
182,192,91086,1,0,0:0:0:0:
402,192,91086,1,0,0:0:0:0:
475,192,91086,1,0,0:0:0:0:
329,192,91086,1,0,0:0:0:0:
36,192,91186,1,0,0:0:0:0:
256,192,91186,1,0,0:0:0:0:
109,192,91286,1,0,0:0:0:0:
329,192,91286,1,0,0:0:0:0:
182,192,91386,1,0,0:0:0:0:
402,192,91386,1,0,0:0:0:0:
36,192,91486,1,0,0:0:0:0:
329,192,91486,1,0,0:0:0:0:
475,192,91486,1,0,0:0:0:0:
109,192,91586,1,0,0:0:0:0:
256,192,91586,1,0,0:0:0:0:
182,192,91686,1,0,0:0:0:0:
402,192,91686,1,0,0:0:0:0:
256,192,91786,1,0,0:0:0:0:
182,192,91886,1,0,0:0:0:0:
329,192,91886,1,0,0:0:0:0:
109,192,91886,1,0,0:0:0:0:
475,192,91886,1,0,0:0:0:0:
36,192,91986,1,0,0:0:0:0:
256,192,92086,1,0,0:0:0:0:
402,192,92086,1,0,0:0:0:0:
475,192,92086,1,0,0:0:0:0:
182,192,92186,1,0,0:0:0:0:
109,192,92286,1,0,0:0:0:0:
329,192,92286,1,0,0:0:0:0:
475,192,92286,1,0,0:0:0:0:
36,192,92286,1,0,0:0:0:0:
256,192,92386,1,0,0:0:0:0:
402,192,92386,1,0,0:0:0:0:
329,192,92486,1,0,0:0:0:0:
182,192,92486,1,0,0:0:0:0:
109,192,92586,1,0,0:0:0:0:
36,192,92586,1,0,0:0:0:0:
256,192,92686,1,0,0:0:0:0:
402,192,92686,1,0,0:0:0:0:
475,192,92686,1,0,0:0:0:0:
329,192,92686,1,0,0:0:0:0:
182,192,92786,1,0,0:0:0:0:
109,192,92886,1,0,0:0:0:0:
329,192,92886,1,0,0:0:0:0:
475,192,92886,1,0,0:0:0:0:
256,192,92986,1,0,0:0:0:0:
182,192,93086,1,0,0:0:0:0:
36,192,93086,1,0,0:0:0:0:
402,192,93086,1,0,0:0:0:0:
475,192,93086,1,0,0:0:0:0:
329,192,93186,1,0,0:0:0:0:
256,192,93286,1,0,0:0:0:0:
109,192,93286,1,0,0:0:0:0:
36,192,93286,1,0,0:0:0:0:
329,192,93386,1,0,0:0:0:0:
475,192,93486,1,0,0:0:0:0:
182,192,93486,1,0,0:0:0:0:
36,192,93486,1,0,0:0:0:0:
256,192,93486,1,0,0:0:0:0:
402,192,93586,1,0,0:0:0:0:
109,192,93586,1,0,0:0:0:0:
329,192,93686,1,0,0:0:0:0:
36,192,93686,1,0,0:0:0:0:
475,192,93786,1,0,0:0:0:0:
182,192,93786,1,0,0:0:0:0:
402,192,93886,1,0,0:0:0:0:
109,192,93886,1,0,0:0:0:0:
256,192,93886,1,0,0:0:0:0:
36,192,93886,1,0,0:0:0:0:
182,192,93986,1,0,0:0:0:0:
36,192,94086,1,0,0:0:0:0:
329,192,94086,1,0,0:0:0:0:
475,192,94086,1,0,0:0:0:0:
109,192,94186,1,0,0:0:0:0:
256,192,94186,1,0,0:0:0:0:
182,192,94286,1,0,0:0:0:0:
402,192,94286,1,0,0:0:0:0:
475,192,94286,1,0,0:0:0:0:
329,192,94286,1,0,0:0:0:0:
109,192,94386,1,0,0:0:0:0:
36,192,94386,1,0,0:0:0:0:
402,192,94486,1,0,0:0:0:0:
256,192,94486,1,0,0:0:0:0:
182,192,94586,1,0,0:0:0:0:
402,192,94686,1,0,0:0:0:0:
475,192,94686,1,0,0:0:0:0:
36,192,94686,1,0,0:0:0:0:
256,192,94686,1,0,0:0:0:0:
109,192,94786,1,0,0:0:0:0:
329,192,94786,1,0,0:0:0:0:
182,192,94886,1,0,0:0:0:0:
475,192,94886,1,0,0:0:0:0:
36,192,94986,1,0,0:0:0:0:
402,192,94986,1,0,0:0:0:0:
182,192,95086,1,0,0:0:0:0:
329,192,95086,1,0,0:0:0:0:
109,192,95086,1,0,0:0:0:0:
256,192,95086,1,0,0:0:0:0:
402,192,95186,1,0,0:0:0:0:
182,192,95286,1,0,0:0:0:0:
36,192,95286,1,0,0:0:0:0:
256,192,95286,1,0,0:0:0:0:
329,192,95386,1,0,0:0:0:0:
402,192,95486,1,0,0:0:0:0:
475,192,95486,1,0,0:0:0:0:
36,192,95486,1,0,0:0:0:0:
109,192,95486,1,0,0:0:0:0:
182,192,95586,1,0,0:0:0:0:
256,192,95686,1,0,0:0:0:0:
109,192,95686,1,0,0:0:0:0:
182,192,95786,1,0,0:0:0:0:
329,192,95786,1,0,0:0:0:0:
256,192,95886,1,0,0:0:0:0:
402,192,95886,1,0,0:0:0:0:
475,192,95886,1,0,0:0:0:0:
36,192,95886,1,0,0:0:0:0:
182,192,95986,1,0,0:0:0:0:
109,192,96086,1,0,0:0:0:0:
475,192,96086,1,0,0:0:0:0:
329,192,96086,1,0,0:0:0:0:
256,192,96186,1,0,0:0:0:0:
329,192,96286,1,0,0:0:0:0:
182,192,96286,1,0,0:0:0:0:
109,192,96286,1,0,0:0:0:0:
36,192,96286,1,0,0:0:0:0:
402,192,96419,1,0,0:0:0:0:
475,192,96486,1,0,0:0:0:0:
36,192,96486,1,0,0:0:0:0:
182,192,96486,1,0,0:0:0:0:
256,192,96552,1,0,0:0:0:0:
329,192,96619,1,0,0:0:0:0:
475,192,96686,1,0,0:0:0:0:
109,192,96686,1,0,0:0:0:0:
36,192,96686,1,0,0:0:0:0:
256,192,96686,1,0,0:0:0:0:
402,192,96786,1,0,0:0:0:0:
182,192,96786,1,0,0:0:0:0:
329,192,96886,1,0,0:0:0:0:
109,192,96886,1,0,0:0:0:0:
475,192,96986,1,0,0:0:0:0:
256,192,96986,1,0,0:0:0:0:
182,192,97086,1,0,0:0:0:0:
36,192,97086,1,0,0:0:0:0:
402,192,97086,1,0,0:0:0:0:
109,192,97086,1,0,0:0:0:0:
329,192,97186,1,0,0:0:0:0:
256,192,97186,1,0,0:0:0:0:
475,192,97286,1,0,0:0:0:0:
109,192,97286,1,0,0:0:0:0:
402,192,97386,1,0,0:0:0:0:
182,192,97386,1,0,0:0:0:0:
329,192,97486,1,0,0:0:0:0:
256,192,97486,1,0,0:0:0:0:
36,192,97486,1,0,0:0:0:0:
109,192,97486,1,0,0:0:0:0:
475,192,97586,1,0,0:0:0:0:
182,192,97586,1,0,0:0:0:0:
402,192,97686,1,0,0:0:0:0:
36,192,97686,1,0,0:0:0:0:
329,192,97786,1,0,0:0:0:0:
182,192,97786,1,0,0:0:0:0:
475,192,97886,1,0,0:0:0:0:
109,192,97886,1,0,0:0:0:0:
36,192,97886,1,0,0:0:0:0:
256,192,97886,1,0,0:0:0:0:
402,192,97986,1,0,0:0:0:0:
182,192,97986,1,0,0:0:0:0:
329,192,98086,1,0,0:0:0:0:
109,192,98086,1,0,0:0:0:0:
182,192,98186,1,0,0:0:0:0:
36,192,98286,1,0,0:0:0:0:
256,192,98286,1,0,0:0:0:0:
402,192,98286,1,0,0:0:0:0:
182,192,98386,1,0,0:0:0:0:
109,192,98486,1,0,0:0:0:0:
329,192,98486,1,0,0:0:0:0:
475,192,98486,1,0,0:0:0:0:
256,192,98586,1,0,0:0:0:0:
182,192,98686,1,0,0:0:0:0:
36,192,98686,1,0,0:0:0:0:
475,192,98686,1,0,0:0:0:0:
256,192,98819,1,0,0:0:0:0:
329,192,98819,1,0,0:0:0:0:
402,192,98819,1,0,0:0:0:0:
182,192,98886,1,0,0:0:0:0:
109,192,99019,1,0,0:0:0:0:
329,192,99019,1,0,0:0:0:0:
402,192,99019,1,0,0:0:0:0:
36,192,99086,1,0,0:0:0:0:
256,192,99086,1,0,0:0:0:0:
475,192,99086,1,0,0:0:0:0:
109,192,99186,1,0,0:0:0:0:
182,192,99286,1,0,0:0:0:0:
329,192,99286,1,0,0:0:0:0:
109,192,99386,1,0,0:0:0:0:
256,192,99386,1,0,0:0:0:0:
402,192,99386,1,0,0:0:0:0:
36,192,99486,1,0,0:0:0:0:
329,192,99486,1,0,0:0:0:0:
475,192,99486,1,0,0:0:0:0:
256,192,99619,1,0,0:0:0:0:
182,192,99619,1,0,0:0:0:0:
109,192,99686,1,0,0:0:0:0:
36,192,99686,1,0,0:0:0:0:
475,192,99686,1,0,0:0:0:0:
402,192,99686,1,0,0:0:0:0:
256,192,99786,1,0,0:0:0:0:
329,192,99786,1,0,0:0:0:0:
109,192,99886,1,0,0:0:0:0:
36,192,99886,1,0,0:0:0:0:
475,192,99886,1,0,0:0:0:0:
182,192,99886,1,0,0:0:0:0:
256,192,100019,1,0,0:0:0:0:
402,192,100019,1,0,0:0:0:0:
329,192,100086,1,0,0:0:0:0:
109,192,100086,1,0,0:0:0:0:
36,192,100086,1,0,0:0:0:0:
256,192,100219,1,0,0:0:0:0:
182,192,100219,1,0,0:0:0:0:
475,192,100286,1,0,0:0:0:0:
36,192,100286,1,0,0:0:0:0:
402,192,100286,1,0,0:0:0:0:
109,192,100286,1,0,0:0:0:0:
182,192,100419,1,0,0:0:0:0:
329,192,100419,1,0,0:0:0:0:
402,192,100486,1,0,0:0:0:0:
36,192,100486,1,0,0:0:0:0:
475,192,100486,1,0,0:0:0:0:
109,192,100586,1,0,0:0:0:0:
256,192,100586,1,0,0:0:0:0:
402,192,100686,1,0,0:0:0:0:
182,192,100686,1,0,0:0:0:0:
36,192,100686,1,0,0:0:0:0:
329,192,100686,1,0,0:0:0:0:
256,192,100819,1,0,0:0:0:0:
475,192,100819,1,0,0:0:0:0:
329,192,100886,1,0,0:0:0:0:
109,192,100886,1,0,0:0:0:0:
36,192,100886,1,0,0:0:0:0:
182,192,100986,1,0,0:0:0:0:
402,192,100986,1,0,0:0:0:0:
256,192,101086,1,0,0:0:0:0:
475,192,101086,1,0,0:0:0:0:
329,192,101086,1,0,0:0:0:0:
36,192,101086,1,0,0:0:0:0:
109,192,101219,1,0,0:0:0:0:
402,192,101219,1,0,0:0:0:0:
329,192,101286,1,0,0:0:0:0:
182,192,101286,1,0,0:0:0:0:
36,192,101286,1,0,0:0:0:0:
109,192,101419,1,0,0:0:0:0:
475,192,101419,1,0,0:0:0:0:
402,192,101486,1,0,0:0:0:0:
256,192,101486,1,0,0:0:0:0:
182,192,101486,1,0,0:0:0:0:
329,192,101486,1,0,0:0:0:0:
109,192,101619,1,0,0:0:0:0:
36,192,101619,1,0,0:0:0:0:
329,192,101686,1,0,0:0:0:0:
475,192,101686,1,0,0:0:0:0:
256,192,101819,1,0,0:0:0:0:
182,192,101886,1,0,0:0:0:0:
109,192,101886,1,0,0:0:0:0:
36,192,101886,1,0,0:0:0:0:
475,192,101886,1,0,0:0:0:0:
329,192,102019,1,0,0:0:0:0:
402,192,102019,1,0,0:0:0:0:
36,192,102086,1,0,0:0:0:0:
182,192,102086,1,0,0:0:0:0:
256,192,102086,1,0,0:0:0:0:
402,192,102186,1,0,0:0:0:0:
475,192,102186,1,0,0:0:0:0:
182,192,102286,1,0,0:0:0:0:
329,192,102286,1,0,0:0:0:0:
109,192,102286,1,0,0:0:0:0:
36,192,102286,1,0,0:0:0:0:
402,192,102386,1,0,0:0:0:0:
475,192,102386,1,0,0:0:0:0:
182,192,102486,1,0,0:0:0:0:
256,192,102486,1,0,0:0:0:0:
329,192,102486,1,0,0:0:0:0:
109,192,102586,1,0,0:0:0:0:
36,192,102586,1,0,0:0:0:0:
256,192,102686,1,0,0:0:0:0:
402,192,102686,1,0,0:0:0:0:
475,192,102686,1,0,0:0:0:0:
329,192,102686,1,0,0:0:0:0:
182,192,102819,1,0,0:0:0:0:
36,192,102819,1,0,0:0:0:0:
402,192,102886,1,0,0:0:0:0:
475,192,102886,1,0,0:0:0:0:
329,192,102886,1,0,0:0:0:0:
256,192,103019,1,0,0:0:0:0:
109,192,103019,1,0,0:0:0:0:
182,192,103086,1,0,0:0:0:0:
36,192,103086,1,0,0:0:0:0:
402,192,103086,1,0,0:0:0:0:
475,192,103086,1,0,0:0:0:0:
329,192,103186,1,0,0:0:0:0:
109,192,103186,1,0,0:0:0:0:
256,192,103286,1,0,0:0:0:0:
475,192,103286,1,0,0:0:0:0:
402,192,103386,1,0,0:0:0:0:
182,192,103386,1,0,0:0:0:0:
329,192,103486,1,0,0:0:0:0:
36,192,103486,1,0,0:0:0:0:
475,192,103486,1,0,0:0:0:0:
109,192,103486,1,0,0:0:0:0:
182,192,103586,1,0,0:0:0:0:
256,192,103586,1,0,0:0:0:0:
109,192,103686,1,0,0:0:0:0:
36,192,103686,1,0,0:0:0:0:
402,192,103686,1,0,0:0:0:0:
475,192,103686,1,0,0:0:0:0:
329,192,103786,1,0,0:0:0:0:
256,192,103886,1,0,0:0:0:0:
182,192,103886,1,0,0:0:0:0:
475,192,103886,1,0,0:0:0:0:
36,192,103886,1,0,0:0:0:0:
329,192,104019,1,0,0:0:0:0:
402,192,104019,1,0,0:0:0:0:
182,192,104086,1,0,0:0:0:0:
109,192,104086,1,0,0:0:0:0:
256,192,104219,1,0,0:0:0:0:
329,192,104286,1,0,0:0:0:0:
475,192,104286,1,0,0:0:0:0:
36,192,104286,1,0,0:0:0:0:
109,192,104352,1,0,0:0:0:0:
182,192,104419,1,0,0:0:0:0:
256,192,104486,1,0,0:0:0:0:
402,192,104486,1,0,0:0:0:0:
475,192,104486,1,0,0:0:0:0:
329,192,104619,1,0,0:0:0:0:
36,192,104686,1,0,0:0:0:0:
109,192,104686,1,0,0:0:0:0:
475,192,104686,1,0,0:0:0:0:
256,192,104686,1,0,0:0:0:0:
182,192,104819,1,0,0:0:0:0:
402,192,104819,1,0,0:0:0:0:
329,192,104886,1,0,0:0:0:0:
109,192,104886,1,0,0:0:0:0:
256,192,105019,1,0,0:0:0:0:
36,192,105019,1,0,0:0:0:0:
182,192,105086,1,0,0:0:0:0:
329,192,105086,1,0,0:0:0:0:
475,192,105086,1,0,0:0:0:0:
402,192,105086,1,0,0:0:0:0:
109,192,105219,1,0,0:0:0:0:
256,192,105219,1,0,0:0:0:0:
36,192,105286,1,0,0:0:0:0:
475,192,105286,1,0,0:0:0:0:
182,192,105419,1,0,0:0:0:0:
402,192,105419,1,0,0:0:0:0:
329,192,105486,1,0,0:0:0:0:
109,192,105486,1,0,0:0:0:0:
36,192,105486,1,0,0:0:0:0:
475,192,105486,1,0,0:0:0:0:
256,192,105619,1,0,0:0:0:0:
402,192,105619,1,0,0:0:0:0:
182,192,105686,1,0,0:0:0:0:
329,192,105686,1,0,0:0:0:0:
256,192,105819,1,0,0:0:0:0:
109,192,105819,1,0,0:0:0:0:
182,192,105886,1,0,0:0:0:0:
36,192,105886,1,0,0:0:0:0:
402,192,105886,1,0,0:0:0:0:
475,192,105886,1,0,0:0:0:0:
109,192,106019,1,0,0:0:0:0:
329,192,106019,1,0,0:0:0:0:
402,192,106086,1,0,0:0:0:0:
182,192,106086,1,0,0:0:0:0:
109,192,106219,1,0,0:0:0:0:
329,192,106219,1,0,0:0:0:0:
256,192,106286,1,0,0:0:0:0:
475,192,106286,1,0,0:0:0:0:
36,192,106286,1,0,0:0:0:0:
402,192,106286,1,0,0:0:0:0:
182,192,106419,1,0,0:0:0:0:
329,192,106486,1,0,0:0:0:0:
109,192,106486,1,0,0:0:0:0:
256,192,106552,1,0,0:0:0:0:
182,192,106619,1,0,0:0:0:0:
36,192,106686,1,0,0:0:0:0:
402,192,106686,1,0,0:0:0:0:
329,192,106686,1,0,0:0:0:0:
475,192,106686,1,0,0:0:0:0:
256,192,106819,1,0,0:0:0:0:
182,192,106886,1,0,0:0:0:0:
402,192,106886,1,0,0:0:0:0:
109,192,106952,1,0,0:0:0:0:
36,192,107019,1,0,0:0:0:0:
256,192,107086,1,0,0:0:0:0:
329,192,107086,1,0,0:0:0:0:
475,192,107086,1,0,0:0:0:0:
182,192,107086,1,0,0:0:0:0:
109,192,107219,1,0,0:0:0:0:
402,192,107219,1,0,0:0:0:0:
36,192,107286,1,0,0:0:0:0:
329,192,107286,1,0,0:0:0:0:
182,192,107419,1,0,0:0:0:0:
475,192,107419,1,0,0:0:0:0:
256,192,107486,1,0,0:0:0:0:
402,192,107486,1,0,0:0:0:0:
109,192,107486,1,0,0:0:0:0:
36,192,107486,1,0,0:0:0:0:
329,192,107619,1,0,0:0:0:0:
475,192,107619,1,0,0:0:0:0:
36,192,107686,1,0,0:0:0:0:
182,192,107686,1,0,0:0:0:0:
109,192,107819,1,0,0:0:0:0:
256,192,107819,1,0,0:0:0:0:
182,192,107886,1,0,0:0:0:0:
329,192,107886,1,0,0:0:0:0:
402,192,107886,1,0,0:0:0:0:
475,192,107886,1,0,0:0:0:0:
109,192,107986,1,0,0:0:0:0:
256,192,107986,1,0,0:0:0:0:
36,192,108086,1,0,0:0:0:0:
402,192,108086,1,0,0:0:0:0:
182,192,108186,1,0,0:0:0:0:
329,192,108186,1,0,0:0:0:0:
109,192,108286,1,0,0:0:0:0:
475,192,108286,1,0,0:0:0:0:
36,192,108286,1,0,0:0:0:0:
402,192,108286,1,0,0:0:0:0:
256,192,108386,1,0,0:0:0:0:
182,192,108486,1,0,0:0:0:0:
402,192,108486,1,0,0:0:0:0:
475,192,108486,1,0,0:0:0:0:
329,192,108586,1,0,0:0:0:0:
256,192,108686,1,0,0:0:0:0:
36,192,108686,1,0,0:0:0:0:
475,192,108686,1,0,0:0:0:0:
182,192,108686,1,0,0:0:0:0:
402,192,108819,1,0,0:0:0:0:
256,192,108886,1,0,0:0:0:0:
109,192,108886,1,0,0:0:0:0:
329,192,108952,1,0,0:0:0:0:
402,192,109019,1,0,0:0:0:0:
36,192,109086,1,0,0:0:0:0:
109,192,109086,1,0,0:0:0:0:
256,192,109086,1,0,0:0:0:0:
475,192,109086,1,0,0:0:0:0:
329,192,109186,1,0,0:0:0:0:
402,192,109286,1,0,0:0:0:0:
109,192,109286,1,0,0:0:0:0:
182,192,109286,1,0,0:0:0:0:
475,192,109286,1,0,0:0:0:0:
256,192,109386,1,0,0:0:0:0:
329,192,109486,1,0,0:0:0:0:
402,192,109486,1,0,0:0:0:0:
475,192,109486,1,0,0:0:0:0:
36,192,109486,1,0,0:0:0:0:
256,192,109586,1,0,0:0:0:0:
109,192,109586,1,0,0:0:0:0:
402,192,109686,1,0,0:0:0:0:
182,192,109686,1,0,0:0:0:0:
329,192,109786,1,0,0:0:0:0:
109,192,109786,1,0,0:0:0:0:
256,192,109886,1,0,0:0:0:0:
36,192,109886,1,0,0:0:0:0:
475,192,109886,1,0,0:0:0:0:
402,192,109886,1,0,0:0:0:0:
182,192,109986,1,0,0:0:0:0:
329,192,109986,1,0,0:0:0:0:
109,192,110086,1,0,0:0:0:0:
475,192,110086,1,0,0:0:0:0:
256,192,110186,1,0,0:0:0:0:
402,192,110186,1,0,0:0:0:0:
182,192,110286,1,0,0:0:0:0:
475,192,110286,1,0,0:0:0:0:
36,192,110286,1,0,0:0:0:0:
109,192,110286,1,0,0:0:0:0:
329,192,110352,1,0,0:0:0:0:
256,192,110419,1,0,0:0:0:0:
182,192,110486,1,0,0:0:0:0:
475,192,110486,1,0,0:0:0:0:
109,192,110486,1,0,0:0:0:0:
402,192,110552,1,0,0:0:0:0:
329,192,110619,1,0,0:0:0:0:
256,192,110686,1,0,0:0:0:0:
36,192,110686,1,0,0:0:0:0:
475,192,110686,1,0,0:0:0:0:
402,192,110686,1,0,0:0:0:0:
109,192,110752,1,0,0:0:0:0:
182,192,110819,1,0,0:0:0:0:
256,192,110886,1,0,0:0:0:0:
329,192,110886,1,0,0:0:0:0:
402,192,110886,1,0,0:0:0:0:
109,192,110986,1,0,0:0:0:0:
182,192,111086,1,0,0:0:0:0:
36,192,111086,1,0,0:0:0:0:
329,192,111086,1,0,0:0:0:0:
475,192,111086,1,0,0:0:0:0:
256,192,111219,1,0,0:0:0:0:
402,192,111219,1,0,0:0:0:0:
182,192,111286,1,0,0:0:0:0:
109,192,111286,1,0,0:0:0:0:
329,192,111286,1,0,0:0:0:0:
256,192,111419,1,0,0:0:0:0:
402,192,111419,1,0,0:0:0:0:
475,192,111486,1,0,0:0:0:0:
329,192,111486,1,0,0:0:0:0:
109,192,111486,1,0,0:0:0:0:
36,192,111486,1,0,0:0:0:0:
256,192,111619,1,0,0:0:0:0:
182,192,111619,1,0,0:0:0:0:
109,192,111686,1,0,0:0:0:0:
329,192,111686,1,0,0:0:0:0:
475,192,111686,1,0,0:0:0:0:
256,192,111819,1,0,0:0:0:0:
36,192,111819,1,0,0:0:0:0:
182,192,111886,1,0,0:0:0:0:
109,192,111886,1,0,0:0:0:0:
402,192,111886,1,0,0:0:0:0:
475,192,111886,1,0,0:0:0:0:
329,192,112019,1,0,0:0:0:0:
36,192,112019,1,0,0:0:0:0:
256,192,112086,1,0,0:0:0:0:
109,192,112086,1,0,0:0:0:0:
402,192,112086,1,0,0:0:0:0:
182,192,112219,1,0,0:0:0:0:
36,192,112219,1,0,0:0:0:0:
109,192,112286,1,0,0:0:0:0:
402,192,112286,1,0,0:0:0:0:
329,192,112286,1,0,0:0:0:0:
475,192,112286,1,0,0:0:0:0:
256,192,112419,1,0,0:0:0:0:
182,192,112419,1,0,0:0:0:0:
402,192,112486,1,0,0:0:0:0:
475,192,112486,1,0,0:0:0:0:
36,192,112486,1,0,0:0:0:0:
329,192,112586,1,0,0:0:0:0:
256,192,112586,1,0,0:0:0:0:
182,192,112686,1,0,0:0:0:0:
109,192,112686,1,0,0:0:0:0:
36,192,112686,1,0,0:0:0:0:
475,192,112686,1,0,0:0:0:0:
256,192,112819,1,0,0:0:0:0:
402,192,112819,1,0,0:0:0:0:
329,192,112886,1,0,0:0:0:0:
109,192,112886,1,0,0:0:0:0:
36,192,112886,1,0,0:0:0:0:
182,192,113019,1,0,0:0:0:0:
402,192,113019,1,0,0:0:0:0:
256,192,113086,1,0,0:0:0:0:
475,192,113086,1,0,0:0:0:0:
36,192,113086,1,0,0:0:0:0:
109,192,113086,1,0,0:0:0:0:
182,192,113219,1,0,0:0:0:0:
402,192,113219,1,0,0:0:0:0:
329,192,113286,1,0,0:0:0:0:
475,192,113286,1,0,0:0:0:0:
36,192,113286,1,0,0:0:0:0:
109,192,113419,1,0,0:0:0:0:
256,192,113419,1,0,0:0:0:0:
182,192,113486,1,0,0:0:0:0:
402,192,113486,1,0,0:0:0:0:
475,192,113486,1,0,0:0:0:0:
36,192,113486,1,0,0:0:0:0:
329,192,113619,1,0,0:0:0:0:
256,192,113652,1,0,0:0:0:0:
182,192,113686,1,0,0:0:0:0:
109,192,113686,1,0,0:0:0:0:
475,192,113686,1,0,0:0:0:0:
402,192,113819,1,0,0:0:0:0:
329,192,113819,1,0,0:0:0:0:
256,192,113886,1,0,0:0:0:0:
182,192,113886,1,0,0:0:0:0:
109,192,113886,1,0,0:0:0:0:
36,192,113886,1,0,0:0:0:0:
402,192,114019,1,0,0:0:0:0:
475,192,114019,1,0,0:0:0:0:
109,192,114086,1,0,0:0:0:0:
256,192,114086,1,0,0:0:0:0:
36,192,114086,1,0,0:0:0:0:
182,192,114219,1,0,0:0:0:0:
329,192,114219,1,0,0:0:0:0:
256,192,114286,1,0,0:0:0:0:
475,192,114286,1,0,0:0:0:0:
402,192,114286,1,0,0:0:0:0:
36,192,114286,1,0,0:0:0:0:
109,192,114352,1,0,0:0:0:0:
182,192,114419,1,0,0:0:0:0:
36,192,114486,1,0,0:0:0:0:
475,192,114486,1,0,0:0:0:0:
109,192,114552,1,0,0:0:0:0:
402,192,114552,1,0,0:0:0:0:
182,192,114619,1,0,0:0:0:0:
329,192,114619,1,0,0:0:0:0:
36,192,114686,1,0,0:0:0:0:
475,192,114686,1,0,0:0:0:0:
109,192,114752,1,0,0:0:0:0:
402,192,114752,1,0,0:0:0:0:
182,192,114819,1,0,0:0:0:0:
329,192,114819,1,0,0:0:0:0:
36,192,114886,1,0,0:0:0:0:
256,192,114886,1,0,0:0:0:0:
109,192,114952,1,0,0:0:0:0:
329,192,114952,1,0,0:0:0:0:
182,192,115019,1,0,0:0:0:0:
402,192,115019,1,0,0:0:0:0:
256,192,115086,1,0,0:0:0:0:
475,192,115086,1,0,0:0:0:0:
36,192,115086,1,0,0:0:0:0:
109,192,115086,1,0,0:0:0:0:
182,192,115286,1,0,0:0:0:0:
329,192,115286,1,0,0:0:0:0:
256,192,115486,1,0,0:0:0:0:
402,192,115486,1,0,0:0:0:0:
475,192,115486,1,0,0:0:0:0:
109,192,115486,1,0,0:0:0:0:
182,192,115686,1,0,0:0:0:0:
329,192,115686,1,0,0:0:0:0:
402,192,115886,5,0,0:0:0:0:
475,192,115886,1,0,0:0:0:0:
256,192,115886,1,0,0:0:0:0:
36,192,115886,1,0,0:0:0:0:
109,192,115986,1,0,0:0:0:0:
182,192,116086,1,0,0:0:0:0:
475,192,116086,1,0,0:0:0:0:
402,192,116186,1,0,0:0:0:0:
329,192,116186,1,0,0:0:0:0:
109,192,116186,1,0,0:0:0:0:
182,192,116286,1,0,0:0:0:0:
36,192,116286,1,0,0:0:0:0:
475,192,116286,1,0,0:0:0:0:
402,192,116386,1,0,0:0:0:0:
329,192,116486,1,0,0:0:0:0:
256,192,116486,1,0,0:0:0:0:
109,192,116486,1,0,0:0:0:0:
36,192,116486,1,0,0:0:0:0:
402,192,116586,1,0,0:0:0:0:
256,192,116686,1,0,0:0:0:0:
182,192,116686,1,0,0:0:0:0:
475,192,116686,1,0,0:0:0:0:
36,192,116686,1,0,0:0:0:0:
329,192,116786,1,0,0:0:0:0:
402,192,116886,1,0,0:0:0:0:
256,192,116886,1,0,0:0:0:0:
182,192,116986,1,0,0:0:0:0:
109,192,116986,1,0,0:0:0:0:
475,192,116986,1,0,0:0:0:0:
256,192,117086,1,0,0:0:0:0:
329,192,117086,1,0,0:0:0:0:
36,192,117086,1,0,0:0:0:0:
402,192,117186,1,0,0:0:0:0:
36,192,117286,1,0,0:0:0:0:
475,192,117286,1,0,0:0:0:0:
329,192,117286,1,0,0:0:0:0:
256,192,117286,1,0,0:0:0:0:
182,192,117386,1,0,0:0:0:0:
109,192,117386,1,0,0:0:0:0:
402,192,117486,1,0,0:0:0:0:
475,192,117486,1,0,0:0:0:0:
36,192,117486,1,0,0:0:0:0:
329,192,117486,1,0,0:0:0:0:
256,192,117486,1,0,0:0:0:0:
109,192,117586,1,0,0:0:0:0:
182,192,117686,1,0,0:0:0:0:
475,192,117686,1,0,0:0:0:0:
36,192,117686,1,0,0:0:0:0:
329,192,117786,1,0,0:0:0:0:
402,192,117786,1,0,0:0:0:0:
256,192,117786,1,0,0:0:0:0:
182,192,117886,1,0,0:0:0:0:
36,192,117886,1,0,0:0:0:0:
475,192,117886,1,0,0:0:0:0:
109,192,117886,1,0,0:0:0:0:
329,192,117986,1,0,0:0:0:0:
402,192,118086,1,0,0:0:0:0:
109,192,118086,1,0,0:0:0:0:
182,192,118186,1,0,0:0:0:0:
256,192,118286,1,0,0:0:0:0:
329,192,118286,1,0,0:0:0:0:
475,192,118286,1,0,0:0:0:0:
36,192,118286,1,0,0:0:0:0:
402,192,118386,1,0,0:0:0:0:
109,192,118486,1,0,0:0:0:0:
182,192,118486,1,0,0:0:0:0:
329,192,118486,1,0,0:0:0:0:
256,192,118486,1,0,0:0:0:0:
402,192,118586,1,0,0:0:0:0:
109,192,118686,1,0,0:0:0:0:
36,192,118686,1,0,0:0:0:0:
475,192,118686,1,0,0:0:0:0:
256,192,118686,1,0,0:0:0:0:
329,192,118786,1,0,0:0:0:0:
109,192,118886,1,0,0:0:0:0:
182,192,118886,1,0,0:0:0:0:
402,192,118886,1,0,0:0:0:0:
36,192,118886,1,0,0:0:0:0:
256,192,118986,1,0,0:0:0:0:
402,192,119086,1,0,0:0:0:0:
329,192,119086,1,0,0:0:0:0:
475,192,119086,1,0,0:0:0:0:
109,192,119086,1,0,0:0:0:0:
36,192,119086,1,0,0:0:0:0:
182,192,119186,1,0,0:0:0:0:
109,192,119286,1,0,0:0:0:0:
36,192,119286,1,0,0:0:0:0:
329,192,119386,1,0,0:0:0:0:
256,192,119386,1,0,0:0:0:0:
475,192,119386,1,0,0:0:0:0:
402,192,119486,1,0,0:0:0:0:
109,192,119486,1,0,0:0:0:0:
182,192,119486,1,0,0:0:0:0:
329,192,119586,1,0,0:0:0:0:
256,192,119686,1,0,0:0:0:0:
182,192,119686,1,0,0:0:0:0:
475,192,119686,1,0,0:0:0:0:
36,192,119686,1,0,0:0:0:0:
329,192,119786,1,0,0:0:0:0:
182,192,119886,1,0,0:0:0:0:
109,192,119886,1,0,0:0:0:0:
402,192,119886,1,0,0:0:0:0:
475,192,119886,1,0,0:0:0:0:
256,192,119986,1,0,0:0:0:0:
329,192,120086,1,0,0:0:0:0:
182,192,120086,1,0,0:0:0:0:
109,192,120186,1,0,0:0:0:0:
36,192,120186,1,0,0:0:0:0:
256,192,120186,1,0,0:0:0:0:
329,192,120286,1,0,0:0:0:0:
475,192,120286,1,0,0:0:0:0:
182,192,120286,1,0,0:0:0:0:
109,192,120386,1,0,0:0:0:0:
475,192,120486,1,0,0:0:0:0:
402,192,120486,1,0,0:0:0:0:
36,192,120486,1,0,0:0:0:0:
182,192,120486,1,0,0:0:0:0:
329,192,120486,1,0,0:0:0:0:
256,192,120586,1,0,0:0:0:0:
402,192,120686,1,0,0:0:0:0:
329,192,120686,1,0,0:0:0:0:
109,192,120686,1,0,0:0:0:0:
36,192,120686,1,0,0:0:0:0:
475,192,120686,1,0,0:0:0:0:
182,192,120786,1,0,0:0:0:0:
256,192,120886,1,0,0:0:0:0:
109,192,120886,1,0,0:0:0:0:
36,192,120886,1,0,0:0:0:0:
329,192,120986,1,0,0:0:0:0:
402,192,120986,1,0,0:0:0:0:
475,192,120986,1,0,0:0:0:0:
109,192,121086,1,0,0:0:0:0:
36,192,121086,1,0,0:0:0:0:
182,192,121086,1,0,0:0:0:0:
256,192,121086,1,0,0:0:0:0:
329,192,121186,1,0,0:0:0:0:
109,192,121286,1,0,0:0:0:0:
402,192,121286,1,0,0:0:0:0:
475,192,121286,1,0,0:0:0:0:
36,192,121286,1,0,0:0:0:0:
182,192,121286,1,0,0:0:0:0:
256,192,121386,1,0,0:0:0:0:
182,192,121486,1,0,0:0:0:0:
402,192,121486,1,0,0:0:0:0:
475,192,121486,1,0,0:0:0:0:
329,192,121586,1,0,0:0:0:0:
36,192,121586,1,0,0:0:0:0:
109,192,121586,1,0,0:0:0:0:
256,192,121586,1,0,0:0:0:0:
402,192,121686,1,0,0:0:0:0:
182,192,121686,1,0,0:0:0:0:
109,192,121786,1,0,0:0:0:0:
475,192,121886,1,0,0:0:0:0:
36,192,121886,1,0,0:0:0:0:
402,192,121886,1,0,0:0:0:0:
256,192,121886,1,0,0:0:0:0:
182,192,121986,1,0,0:0:0:0:
475,192,122086,1,0,0:0:0:0:
329,192,122086,1,0,0:0:0:0:
109,192,122086,1,0,0:0:0:0:
256,192,122186,1,0,0:0:0:0:
475,192,122286,1,0,0:0:0:0:
329,192,122286,1,0,0:0:0:0:
182,192,122286,1,0,0:0:0:0:
36,192,122286,1,0,0:0:0:0:
402,192,122286,1,0,0:0:0:0:
256,192,122386,1,0,0:0:0:0:
329,192,122486,1,0,0:0:0:0:
109,192,122486,1,0,0:0:0:0:
475,192,122586,1,0,0:0:0:0:
402,192,122586,1,0,0:0:0:0:
182,192,122586,1,0,0:0:0:0:
256,192,122586,1,0,0:0:0:0:
36,192,122686,1,0,0:0:0:0:
109,192,122686,1,0,0:0:0:0:
329,192,122686,1,0,0:0:0:0:
182,192,122786,1,0,0:0:0:0:
475,192,122886,1,0,0:0:0:0:
329,192,122886,1,0,0:0:0:0:
256,192,122886,1,0,0:0:0:0:
109,192,122886,1,0,0:0:0:0:
402,192,122986,1,0,0:0:0:0:
182,192,123086,1,0,0:0:0:0:
36,192,123086,1,0,0:0:0:0:
475,192,123086,1,0,0:0:0:0:
256,192,123086,1,0,0:0:0:0:
329,192,123186,1,0,0:0:0:0:
402,192,123286,1,0,0:0:0:0:
182,192,123286,1,0,0:0:0:0:
109,192,123386,1,0,0:0:0:0:
36,192,123386,1,0,0:0:0:0:
256,192,123386,1,0,0:0:0:0:
329,192,123486,1,0,0:0:0:0:
475,192,123486,1,0,0:0:0:0:
182,192,123486,1,0,0:0:0:0:
256,192,123586,1,0,0:0:0:0:
182,192,123686,1,0,0:0:0:0:
36,192,123686,1,0,0:0:0:0:
402,192,123686,1,0,0:0:0:0:
329,192,123686,1,0,0:0:0:0:
109,192,123786,1,0,0:0:0:0:
329,192,123886,1,0,0:0:0:0:
475,192,123886,1,0,0:0:0:0:
36,192,123886,1,0,0:0:0:0:
256,192,123886,1,0,0:0:0:0:
402,192,123886,1,0,0:0:0:0:
182,192,123986,1,0,0:0:0:0:
109,192,124086,1,0,0:0:0:0:
36,192,124086,1,0,0:0:0:0:
329,192,124186,1,0,0:0:0:0:
182,192,124186,1,0,0:0:0:0:
475,192,124186,1,0,0:0:0:0:
256,192,124286,1,0,0:0:0:0:
402,192,124286,1,0,0:0:0:0:
36,192,124286,1,0,0:0:0:0:
109,192,124286,1,0,0:0:0:0:
182,192,124386,1,0,0:0:0:0:
475,192,124486,1,0,0:0:0:0:
329,192,124486,1,0,0:0:0:0:
109,192,124486,1,0,0:0:0:0:
36,192,124486,1,0,0:0:0:0:
402,192,124486,1,0,0:0:0:0:
256,192,124586,1,0,0:0:0:0:
182,192,124686,1,0,0:0:0:0:
36,192,124686,1,0,0:0:0:0:
402,192,124686,1,0,0:0:0:0:
475,192,124686,1,0,0:0:0:0:
109,192,124686,1,0,0:0:0:0:
329,192,124786,1,0,0:0:0:0:
256,192,124886,1,0,0:0:0:0:
402,192,124886,1,0,0:0:0:0:
182,192,124986,1,0,0:0:0:0:
109,192,124986,1,0,0:0:0:0:
329,192,124986,1,0,0:0:0:0:
256,192,125086,1,0,0:0:0:0:
36,192,125086,1,0,0:0:0:0:
475,192,125086,1,0,0:0:0:0:
402,192,125186,1,0,0:0:0:0:
182,192,125286,1,0,0:0:0:0:
36,192,125286,1,0,0:0:0:0:
329,192,125286,1,0,0:0:0:0:
402,192,125386,1,0,0:0:0:0:
109,192,125486,1,0,0:0:0:0:
36,192,125486,1,0,0:0:0:0:
475,192,125486,1,0,0:0:0:0:
256,192,125486,1,0,0:0:0:0:
329,192,125486,1,0,0:0:0:0:
182,192,125586,1,0,0:0:0:0:
329,192,125686,1,0,0:0:0:0:
109,192,125686,1,0,0:0:0:0:
402,192,125686,1,0,0:0:0:0:
256,192,125786,1,0,0:0:0:0:
182,192,125886,1,0,0:0:0:0:
36,192,125886,1,0,0:0:0:0:
475,192,125886,1,0,0:0:0:0:
402,192,125886,1,0,0:0:0:0:
256,192,125986,1,0,0:0:0:0:
329,192,126086,1,0,0:0:0:0:
109,192,126086,1,0,0:0:0:0:
36,192,126086,1,0,0:0:0:0:
182,192,126186,1,0,0:0:0:0:
256,192,126286,1,0,0:0:0:0:
36,192,126286,1,0,0:0:0:0:
475,192,126286,1,0,0:0:0:0:
402,192,126286,1,0,0:0:0:0:
329,192,126286,1,0,0:0:0:0:
109,192,126386,1,0,0:0:0:0:
182,192,126486,1,0,0:0:0:0:
402,192,126486,1,0,0:0:0:0:
36,192,126486,1,0,0:0:0:0:
256,192,126586,1,0,0:0:0:0:
182,192,126686,1,0,0:0:0:0:
109,192,126686,1,0,0:0:0:0:
329,192,126686,1,0,0:0:0:0:
475,192,126686,1,0,0:0:0:0:
256,192,126786,1,0,0:0:0:0:
182,192,126886,1,0,0:0:0:0:
36,192,126886,1,0,0:0:0:0:
402,192,126886,1,0,0:0:0:0:
475,192,126986,1,0,0:0:0:0:
256,192,127086,1,0,0:0:0:0:
109,192,127086,1,0,0:0:0:0:
329,192,127086,1,0,0:0:0:0:
36,192,127086,1,0,0:0:0:0:
182,192,127086,1,0,0:0:0:0:
329,192,127219,1,0,0:0:0:0:
256,192,127219,1,0,0:0:0:0:
182,192,127219,1,0,0:0:0:0:
36,192,127219,1,0,0:0:0:0:
109,192,127219,1,0,0:0:0:0:
36,192,127352,1,0,0:0:0:0:
109,192,127352,1,0,0:0:0:0:
182,192,127352,1,0,0:0:0:0:
256,192,127352,1,0,0:0:0:0:
329,192,127352,1,0,0:0:0:0:
182,192,127486,1,0,0:0:0:0:
256,192,127486,1,0,0:0:0:0:
329,192,127486,1,0,0:0:0:0:
402,192,127486,1,0,0:0:0:0:
475,192,127486,1,0,0:0:0:0:
475,192,127619,1,0,0:0:0:0:
402,192,127619,1,0,0:0:0:0:
182,192,127619,1,0,0:0:0:0:
329,192,127619,1,0,0:0:0:0:
256,192,127619,1,0,0:0:0:0:
182,192,127752,1,0,0:0:0:0:
256,192,127752,1,0,0:0:0:0:
329,192,127752,1,0,0:0:0:0:
402,192,127752,1,0,0:0:0:0:
475,192,127752,1,0,0:0:0:0:
36,192,127886,1,0,0:0:0:0:
109,192,127886,1,0,0:0:0:0:
256,192,127886,1,0,0:0:0:0:
402,192,127886,1,0,0:0:0:0:
475,192,127886,1,0,0:0:0:0:
36,192,128019,1,0,0:0:0:0:
109,192,128019,1,0,0:0:0:0:
256,192,128019,1,0,0:0:0:0:
402,192,128019,1,0,0:0:0:0:
475,192,128019,1,0,0:0:0:0:
475,192,128152,1,0,0:0:0:0:
402,192,128152,1,0,0:0:0:0:
256,192,128152,1,0,0:0:0:0:
109,192,128152,1,0,0:0:0:0:
36,192,128152,1,0,0:0:0:0:
36,192,128286,1,0,0:0:0:0:
109,192,128286,1,0,0:0:0:0:
182,192,128286,1,0,0:0:0:0:
256,192,128286,1,0,0:0:0:0:
329,192,128286,1,0,0:0:0:0:
402,192,128286,1,0,0:0:0:0:
475,192,128286,1,0,0:0:0:0:
329,192,128686,1,0,0:0:0:0:
256,192,128686,1,0,0:0:0:0:
475,192,128686,1,0,0:0:0:0:
36,192,128686,1,0,0:0:0:0:
109,192,128786,1,0,0:0:0:0:
329,192,128886,1,0,0:0:0:0:
475,192,128886,1,0,0:0:0:0:
256,192,128986,1,0,0:0:0:0:
182,192,128986,1,0,0:0:0:0:
36,192,128986,1,0,0:0:0:0:
402,192,129086,1,0,0:0:0:0:
475,192,129086,1,0,0:0:0:0:
109,192,129086,1,0,0:0:0:0:
329,192,129086,1,0,0:0:0:0:
256,192,129186,1,0,0:0:0:0:
182,192,129286,1,0,0:0:0:0:
109,192,129286,1,0,0:0:0:0:
402,192,129286,1,0,0:0:0:0:
36,192,129286,1,0,0:0:0:0:
329,192,129386,1,0,0:0:0:0:
109,192,129486,1,0,0:0:0:0:
36,192,129486,1,0,0:0:0:0:
256,192,129486,1,0,0:0:0:0:
475,192,129486,1,0,0:0:0:0:
329,192,129586,1,0,0:0:0:0:
402,192,129686,1,0,0:0:0:0:
256,192,129686,1,0,0:0:0:0:
182,192,129786,1,0,0:0:0:0:
109,192,129786,1,0,0:0:0:0:
329,192,129786,1,0,0:0:0:0:
402,192,129886,1,0,0:0:0:0:
475,192,129886,1,0,0:0:0:0:
36,192,129886,1,0,0:0:0:0:
256,192,129886,1,0,0:0:0:0:
109,192,129986,1,0,0:0:0:0:
182,192,130086,1,0,0:0:0:0:
256,192,130086,1,0,0:0:0:0:
402,192,130086,1,0,0:0:0:0:
475,192,130086,1,0,0:0:0:0:
109,192,130186,1,0,0:0:0:0:
256,192,130286,1,0,0:0:0:0:
36,192,130286,1,0,0:0:0:0:
475,192,130286,1,0,0:0:0:0:
402,192,130286,1,0,0:0:0:0:
182,192,130386,1,0,0:0:0:0:
109,192,130486,1,0,0:0:0:0:
329,192,130486,1,0,0:0:0:0:
256,192,130586,1,0,0:0:0:0:
182,192,130686,1,0,0:0:0:0:
36,192,130686,1,0,0:0:0:0:
402,192,130686,1,0,0:0:0:0:
475,192,130686,1,0,0:0:0:0:
256,192,130786,1,0,0:0:0:0:
329,192,130886,1,0,0:0:0:0:
109,192,130886,1,0,0:0:0:0:
36,192,130886,1,0,0:0:0:0:
182,192,130986,1,0,0:0:0:0:
329,192,131086,1,0,0:0:0:0:
256,192,131086,1,0,0:0:0:0:
402,192,131086,1,0,0:0:0:0:
475,192,131086,1,0,0:0:0:0:
182,192,131186,1,0,0:0:0:0:
36,192,131286,1,0,0:0:0:0:
109,192,131286,1,0,0:0:0:0:
329,192,131286,1,0,0:0:0:0:
475,192,131286,1,0,0:0:0:0:
256,192,131386,1,0,0:0:0:0:
182,192,131486,1,0,0:0:0:0:
36,192,131486,1,0,0:0:0:0:
402,192,131486,1,0,0:0:0:0:
475,192,131486,1,0,0:0:0:0:
329,192,131586,1,0,0:0:0:0:
109,192,131686,1,0,0:0:0:0:
36,192,131686,1,0,0:0:0:0:
256,192,131686,1,0,0:0:0:0:
402,192,131686,1,0,0:0:0:0:
182,192,131786,1,0,0:0:0:0:
402,192,131886,1,0,0:0:0:0:
475,192,131886,1,0,0:0:0:0:
256,192,131886,1,0,0:0:0:0:
109,192,131886,1,0,0:0:0:0:
182,192,131986,1,0,0:0:0:0:
256,192,132086,1,0,0:0:0:0:
36,192,132086,1,0,0:0:0:0:
402,192,132186,1,0,0:0:0:0:
329,192,132186,1,0,0:0:0:0:
109,192,132186,1,0,0:0:0:0:
182,192,132286,1,0,0:0:0:0:
256,192,132286,1,0,0:0:0:0:
475,192,132286,1,0,0:0:0:0:
36,192,132286,1,0,0:0:0:0:
109,192,132386,1,0,0:0:0:0:
329,192,132486,1,0,0:0:0:0:
256,192,132486,1,0,0:0:0:0:
475,192,132486,1,0,0:0:0:0:
36,192,132486,1,0,0:0:0:0:
109,192,132586,1,0,0:0:0:0:
256,192,132686,1,0,0:0:0:0:
182,192,132686,1,0,0:0:0:0:
402,192,132686,1,0,0:0:0:0:
475,192,132686,1,0,0:0:0:0:
329,192,132786,1,0,0:0:0:0:
256,192,132886,1,0,0:0:0:0:
402,192,132886,1,0,0:0:0:0:
182,192,132986,1,0,0:0:0:0:
109,192,132986,1,0,0:0:0:0:
329,192,132986,1,0,0:0:0:0:
256,192,133086,1,0,0:0:0:0:
475,192,133086,1,0,0:0:0:0:
36,192,133086,1,0,0:0:0:0:
402,192,133086,1,0,0:0:0:0:
182,192,133186,1,0,0:0:0:0:
109,192,133286,1,0,0:0:0:0:
36,192,133286,1,0,0:0:0:0:
256,192,133286,1,0,0:0:0:0:
402,192,133286,1,0,0:0:0:0:
182,192,133386,1,0,0:0:0:0:
402,192,133486,1,0,0:0:0:0:
475,192,133486,1,0,0:0:0:0:
256,192,133486,1,0,0:0:0:0:
36,192,133486,1,0,0:0:0:0:
182,192,133586,1,0,0:0:0:0:
109,192,133686,1,0,0:0:0:0:
329,192,133686,1,0,0:0:0:0:
475,192,133686,1,0,0:0:0:0:
256,192,133786,1,0,0:0:0:0:
182,192,133886,1,0,0:0:0:0:
109,192,133886,1,0,0:0:0:0:
402,192,133886,1,0,0:0:0:0:
475,192,133886,1,0,0:0:0:0:
256,192,133986,1,0,0:0:0:0:
329,192,134086,1,0,0:0:0:0:
36,192,134086,1,0,0:0:0:0:
109,192,134086,1,0,0:0:0:0:
475,192,134186,1,0,0:0:0:0:
182,192,134286,1,0,0:0:0:0:
256,192,134286,1,0,0:0:0:0:
402,192,134286,1,0,0:0:0:0:
36,192,134286,1,0,0:0:0:0:
109,192,134386,1,0,0:0:0:0:
329,192,134486,1,0,0:0:0:0:
475,192,134486,1,0,0:0:0:0:
182,192,134486,1,0,0:0:0:0:
109,192,134586,1,0,0:0:0:0:
256,192,134686,1,0,0:0:0:0:
329,192,134686,1,0,0:0:0:0:
36,192,134686,1,0,0:0:0:0:
402,192,134686,1,0,0:0:0:0:
182,192,134786,1,0,0:0:0:0:
256,192,134886,1,0,0:0:0:0:
475,192,134886,1,0,0:0:0:0:
36,192,134886,1,0,0:0:0:0:
109,192,134986,1,0,0:0:0:0:
402,192,135086,1,0,0:0:0:0:
475,192,135086,1,0,0:0:0:0:
182,192,135086,1,0,0:0:0:0:
329,192,135086,1,0,0:0:0:0:
256,192,135186,1,0,0:0:0:0:
182,192,135286,1,0,0:0:0:0:
36,192,135286,1,0,0:0:0:0:
475,192,135386,1,0,0:0:0:0:
329,192,135386,1,0,0:0:0:0:
256,192,135386,1,0,0:0:0:0:
109,192,135486,1,0,0:0:0:0:
36,192,135486,1,0,0:0:0:0:
402,192,135486,1,0,0:0:0:0:
182,192,135486,1,0,0:0:0:0:
256,192,135586,1,0,0:0:0:0:
402,192,135686,1,0,0:0:0:0:
475,192,135686,1,0,0:0:0:0:
329,192,135686,1,0,0:0:0:0:
109,192,135686,1,0,0:0:0:0:
256,192,135786,1,0,0:0:0:0:
182,192,135886,1,0,0:0:0:0:
36,192,135886,1,0,0:0:0:0:
402,192,135886,1,0,0:0:0:0:
475,192,135886,1,0,0:0:0:0:
329,192,135986,1,0,0:0:0:0:
256,192,136086,1,0,0:0:0:0:
475,192,136086,1,0,0:0:0:0:
182,192,136086,1,0,0:0:0:0:
109,192,136186,1,0,0:0:0:0:
36,192,136186,1,0,0:0:0:0:
329,192,136186,1,0,0:0:0:0:
475,192,136286,1,0,0:0:0:0:
402,192,136286,1,0,0:0:0:0:
256,192,136286,1,0,0:0:0:0:
182,192,136286,1,0,0:0:0:0:
329,192,136386,1,0,0:0:0:0:
182,192,136486,1,0,0:0:0:0:
36,192,136486,1,0,0:0:0:0:
256,192,136486,1,0,0:0:0:0:
109,192,136486,1,0,0:0:0:0:
475,192,136586,1,0,0:0:0:0:
329,192,136686,1,0,0:0:0:0:
402,192,136686,1,0,0:0:0:0:
182,192,136686,1,0,0:0:0:0:
36,192,136686,1,0,0:0:0:0:
256,192,136786,1,0,0:0:0:0:
109,192,136886,1,0,0:0:0:0:
36,192,136886,1,0,0:0:0:0:
475,192,136986,1,0,0:0:0:0:
329,192,136986,1,0,0:0:0:0:
182,192,136986,1,0,0:0:0:0:
256,192,137086,1,0,0:0:0:0:
402,192,137086,1,0,0:0:0:0:
36,192,137086,1,0,0:0:0:0:
109,192,137086,1,0,0:0:0:0:
182,192,137186,1,0,0:0:0:0:
329,192,137286,1,0,0:0:0:0:
402,192,137286,1,0,0:0:0:0:
256,192,137286,1,0,0:0:0:0:
36,192,137286,1,0,0:0:0:0:
475,192,137386,1,0,0:0:0:0:
182,192,137486,1,0,0:0:0:0:
109,192,137486,1,0,0:0:0:0:
329,192,137486,1,0,0:0:0:0:
402,192,137486,1,0,0:0:0:0:
256,192,137586,1,0,0:0:0:0:
109,192,137686,1,0,0:0:0:0:
329,192,137686,1,0,0:0:0:0:
475,192,137686,1,0,0:0:0:0:
182,192,137786,1,0,0:0:0:0:
36,192,137786,1,0,0:0:0:0:
256,192,137786,1,0,0:0:0:0:
329,192,137886,1,0,0:0:0:0:
109,192,137886,1,0,0:0:0:0:
402,192,137886,1,0,0:0:0:0:
475,192,137886,1,0,0:0:0:0:
256,192,137986,1,0,0:0:0:0:
109,192,138086,1,0,0:0:0:0:
36,192,138086,1,0,0:0:0:0:
329,192,138086,1,0,0:0:0:0:
475,192,138086,1,0,0:0:0:0:
256,192,138186,1,0,0:0:0:0:
109,192,138286,1,0,0:0:0:0:
36,192,138286,1,0,0:0:0:0:
182,192,138286,1,0,0:0:0:0:
402,192,138286,1,0,0:0:0:0:
475,192,138286,1,0,0:0:0:0:
329,192,138386,1,0,0:0:0:0:
256,192,138486,1,0,0:0:0:0:
109,192,138486,1,0,0:0:0:0:
36,192,138486,1,0,0:0:0:0:
475,192,138486,1,0,0:0:0:0:
329,192,138586,1,0,0:0:0:0:
402,192,138686,1,0,0:0:0:0:
182,192,138686,1,0,0:0:0:0:
256,192,138686,1,0,0:0:0:0:
475,192,138786,1,0,0:0:0:0:
402,192,138886,1,0,0:0:0:0:
182,192,138886,1,0,0:0:0:0:
36,192,138886,1,0,0:0:0:0:
109,192,138886,1,0,0:0:0:0:
329,192,138986,1,0,0:0:0:0:
256,192,139086,1,0,0:0:0:0:
109,192,139086,1,0,0:0:0:0:
36,192,139086,1,0,0:0:0:0:
329,192,139186,1,0,0:0:0:0:
402,192,139286,1,0,0:0:0:0:
182,192,139286,1,0,0:0:0:0:
109,192,139286,1,0,0:0:0:0:
475,192,139386,1,0,0:0:0:0:
402,192,139486,1,0,0:0:0:0:
256,192,139486,1,0,0:0:0:0:
109,192,139486,1,0,0:0:0:0:
329,192,139586,1,0,0:0:0:0:
256,192,139686,1,0,0:0:0:0:
109,192,139686,1,0,0:0:0:0:
36,192,139686,1,0,0:0:0:0:
329,192,139786,1,0,0:0:0:0:
475,192,139886,1,0,0:0:0:0:
402,192,139886,1,0,0:0:0:0:
182,192,139886,1,0,0:0:0:0:
109,192,139886,1,0,0:0:0:0:
402,192,140019,1,0,0:0:0:0:
475,192,140019,1,0,0:0:0:0:
182,192,140086,1,0,0:0:0:0:
256,192,140086,1,0,0:0:0:0:
475,192,140152,1,0,0:0:0:0:
402,192,140152,1,0,0:0:0:0:
109,192,140286,1,0,0:0:0:0:
36,192,140286,1,0,0:0:0:0:
256,192,140286,1,0,0:0:0:0:
329,192,140286,1,0,0:0:0:0:
36,192,140419,1,0,0:0:0:0:
109,192,140419,1,0,0:0:0:0:
329,192,140486,1,0,0:0:0:0:
402,192,140486,1,0,0:0:0:0:
109,192,140552,1,0,0:0:0:0:
36,192,140552,1,0,0:0:0:0:
329,192,140686,1,0,0:0:0:0:
402,192,140686,1,0,0:0:0:0:
475,192,140686,1,0,0:0:0:0:
36,192,140686,1,0,0:0:0:0:
109,192,140686,1,0,0:0:0:0:
475,192,140819,1,0,0:0:0:0:
402,192,140819,1,0,0:0:0:0:
329,192,140819,1,0,0:0:0:0:
109,192,140886,1,0,0:0:0:0:
182,192,140886,1,0,0:0:0:0:
329,192,140952,1,0,0:0:0:0:
402,192,140952,1,0,0:0:0:0:
475,192,140952,1,0,0:0:0:0:
256,192,141086,1,0,0:0:0:0:
329,192,141086,1,0,0:0:0:0:
475,192,141086,1,0,0:0:0:0:
402,192,141086,1,0,0:0:0:0:
109,192,141086,1,0,0:0:0:0:
36,192,141086,1,0,0:0:0:0:
182,192,141486,1,0,0:0:0:0:
36,192,141486,1,0,0:0:0:0:
256,192,141486,1,0,0:0:0:0:
475,192,141486,1,0,0:0:0:0:
402,192,141586,1,0,0:0:0:0:
329,192,141686,1,0,0:0:0:0:
109,192,141686,1,0,0:0:0:0:
256,192,141786,1,0,0:0:0:0:
402,192,141886,1,0,0:0:0:0:
475,192,141886,1,0,0:0:0:0:
329,192,141886,1,0,0:0:0:0:
182,192,141886,1,0,0:0:0:0:
36,192,141886,1,0,0:0:0:0:
256,192,141986,1,0,0:0:0:0:
109,192,141986,1,0,0:0:0:0:
182,192,142086,1,0,0:0:0:0:
329,192,142086,1,0,0:0:0:0:
402,192,142086,1,0,0:0:0:0:
256,192,142186,1,0,0:0:0:0:
329,192,142286,1,0,0:0:0:0:
182,192,142286,1,0,0:0:0:0:
475,192,142286,1,0,0:0:0:0:
36,192,142286,1,0,0:0:0:0:
109,192,142286,1,0,0:0:0:0:
402,192,142386,1,0,0:0:0:0:
256,192,142386,1,0,0:0:0:0:
109,192,142486,1,0,0:0:0:0:
329,192,142486,1,0,0:0:0:0:
36,192,142486,1,0,0:0:0:0:
182,192,142586,1,0,0:0:0:0:
36,192,142686,1,0,0:0:0:0:
256,192,142686,1,0,0:0:0:0:
109,192,142686,1,0,0:0:0:0:
402,192,142686,1,0,0:0:0:0:
475,192,142686,1,0,0:0:0:0:
329,192,142786,1,0,0:0:0:0:
182,192,142786,1,0,0:0:0:0:
256,192,142886,1,0,0:0:0:0:
109,192,142886,1,0,0:0:0:0:
475,192,142886,1,0,0:0:0:0:
402,192,142986,1,0,0:0:0:0:
475,192,143086,1,0,0:0:0:0:
182,192,143086,1,0,0:0:0:0:
329,192,143086,1,0,0:0:0:0:
36,192,143086,1,0,0:0:0:0:
109,192,143086,1,0,0:0:0:0:
256,192,143186,1,0,0:0:0:0:
402,192,143186,1,0,0:0:0:0:
109,192,143286,1,0,0:0:0:0:
475,192,143286,1,0,0:0:0:0:
36,192,143286,1,0,0:0:0:0:
182,192,143386,1,0,0:0:0:0:
329,192,143386,1,0,0:0:0:0:
256,192,143486,1,0,0:0:0:0:
36,192,143486,1,0,0:0:0:0:
475,192,143486,1,0,0:0:0:0:
402,192,143486,1,0,0:0:0:0:
182,192,143586,1,0,0:0:0:0:
109,192,143686,1,0,0:0:0:0:
402,192,143686,1,0,0:0:0:0:
329,192,143686,1,0,0:0:0:0:
36,192,143686,1,0,0:0:0:0:
256,192,143786,1,0,0:0:0:0:
36,192,143886,1,0,0:0:0:0:
329,192,143886,1,0,0:0:0:0:
402,192,143886,1,0,0:0:0:0:
475,192,143886,1,0,0:0:0:0:
182,192,143886,1,0,0:0:0:0:
256,192,143986,1,0,0:0:0:0:
109,192,143986,1,0,0:0:0:0:
182,192,144086,1,0,0:0:0:0:
329,192,144086,1,0,0:0:0:0:
475,192,144086,1,0,0:0:0:0:
402,192,144186,1,0,0:0:0:0:
256,192,144186,1,0,0:0:0:0:
329,192,144286,1,0,0:0:0:0:
36,192,144286,1,0,0:0:0:0:
475,192,144286,1,0,0:0:0:0:
109,192,144286,1,0,0:0:0:0:
402,192,144386,1,0,0:0:0:0:
182,192,144386,1,0,0:0:0:0:
109,192,144486,1,0,0:0:0:0:
36,192,144486,1,0,0:0:0:0:
256,192,144486,1,0,0:0:0:0:
329,192,144586,1,0,0:0:0:0:
402,192,144686,1,0,0:0:0:0:
475,192,144686,1,0,0:0:0:0:
182,192,144686,1,0,0:0:0:0:
109,192,144686,1,0,0:0:0:0:
256,192,144786,1,0,0:0:0:0:
329,192,144886,1,0,0:0:0:0:
109,192,144886,1,0,0:0:0:0:
402,192,144886,1,0,0:0:0:0:
182,192,144986,1,0,0:0:0:0:
256,192,145086,1,0,0:0:0:0:
402,192,145086,1,0,0:0:0:0:
475,192,145086,1,0,0:0:0:0:
109,192,145086,1,0,0:0:0:0:
36,192,145086,1,0,0:0:0:0:
182,192,145186,1,0,0:0:0:0:
329,192,145186,1,0,0:0:0:0:
256,192,145286,1,0,0:0:0:0:
402,192,145286,1,0,0:0:0:0:
36,192,145286,1,0,0:0:0:0:
329,192,145386,1,0,0:0:0:0:
36,192,145486,1,0,0:0:0:0:
109,192,145486,1,0,0:0:0:0:
256,192,145486,1,0,0:0:0:0:
475,192,145486,1,0,0:0:0:0:
402,192,145486,1,0,0:0:0:0:
182,192,145586,1,0,0:0:0:0:
329,192,145586,1,0,0:0:0:0:
475,192,145686,1,0,0:0:0:0:
256,192,145686,1,0,0:0:0:0:
109,192,145686,1,0,0:0:0:0:
182,192,145786,1,0,0:0:0:0:
402,192,145886,1,0,0:0:0:0:
475,192,145886,1,0,0:0:0:0:
109,192,145886,1,0,0:0:0:0:
36,192,145886,1,0,0:0:0:0:
256,192,145886,1,0,0:0:0:0:
182,192,145986,1,0,0:0:0:0:
329,192,145986,1,0,0:0:0:0:
402,192,146086,1,0,0:0:0:0:
256,192,146086,1,0,0:0:0:0:
36,192,146086,1,0,0:0:0:0:
329,192,146186,1,0,0:0:0:0:
256,192,146286,1,0,0:0:0:0:
402,192,146286,1,0,0:0:0:0:
475,192,146286,1,0,0:0:0:0:
109,192,146286,1,0,0:0:0:0:
36,192,146286,1,0,0:0:0:0:
329,192,146386,1,0,0:0:0:0:
182,192,146386,1,0,0:0:0:0:
109,192,146486,1,0,0:0:0:0:
256,192,146486,1,0,0:0:0:0:
475,192,146486,1,0,0:0:0:0:
402,192,146586,1,0,0:0:0:0:
182,192,146586,1,0,0:0:0:0:
475,192,146686,1,0,0:0:0:0:
36,192,146686,1,0,0:0:0:0:
329,192,146686,1,0,0:0:0:0:
109,192,146686,1,0,0:0:0:0:
182,192,146786,1,0,0:0:0:0:
36,192,146886,1,0,0:0:0:0:
256,192,146886,1,0,0:0:0:0:
329,192,146886,1,0,0:0:0:0:
402,192,146886,1,0,0:0:0:0:
182,192,146986,1,0,0:0:0:0:
109,192,147086,1,0,0:0:0:0:
36,192,147086,1,0,0:0:0:0:
256,192,147086,1,0,0:0:0:0:
402,192,147086,1,0,0:0:0:0:
475,192,147086,1,0,0:0:0:0:
182,192,147186,1,0,0:0:0:0:
329,192,147186,1,0,0:0:0:0:
256,192,147286,1,0,0:0:0:0:
109,192,147286,1,0,0:0:0:0:
475,192,147286,1,0,0:0:0:0:
182,192,147386,1,0,0:0:0:0:
402,192,147386,1,0,0:0:0:0:
475,192,147486,1,0,0:0:0:0:
329,192,147486,1,0,0:0:0:0:
36,192,147486,1,0,0:0:0:0:
109,192,147486,1,0,0:0:0:0:
402,192,147586,1,0,0:0:0:0:
256,192,147586,1,0,0:0:0:0:
182,192,147686,1,0,0:0:0:0:
109,192,147686,1,0,0:0:0:0:
36,192,147686,1,0,0:0:0:0:
329,192,147786,1,0,0:0:0:0:
256,192,147886,1,0,0:0:0:0:
36,192,147886,1,0,0:0:0:0:
475,192,147886,1,0,0:0:0:0:
402,192,147886,1,0,0:0:0:0:
182,192,147986,1,0,0:0:0:0:
109,192,148086,1,0,0:0:0:0:
329,192,148086,1,0,0:0:0:0:
475,192,148086,1,0,0:0:0:0:
256,192,148186,1,0,0:0:0:0:
182,192,148286,1,0,0:0:0:0:
36,192,148286,1,0,0:0:0:0:
329,192,148286,1,0,0:0:0:0:
402,192,148286,1,0,0:0:0:0:
475,192,148286,1,0,0:0:0:0:
109,192,148386,1,0,0:0:0:0:
256,192,148386,1,0,0:0:0:0:
402,192,148486,1,0,0:0:0:0:
182,192,148486,1,0,0:0:0:0:
36,192,148486,1,0,0:0:0:0:
329,192,148586,1,0,0:0:0:0:
256,192,148686,1,0,0:0:0:0:
109,192,148686,1,0,0:0:0:0:
36,192,148686,1,0,0:0:0:0:
475,192,148686,1,0,0:0:0:0:
402,192,148686,1,0,0:0:0:0:
182,192,148786,1,0,0:0:0:0:
329,192,148786,1,0,0:0:0:0:
109,192,148886,1,0,0:0:0:0:
475,192,148886,1,0,0:0:0:0:
256,192,148886,1,0,0:0:0:0:
402,192,148986,1,0,0:0:0:0:
109,192,149086,1,0,0:0:0:0:
329,192,149086,1,0,0:0:0:0:
475,192,149086,1,0,0:0:0:0:
182,192,149086,1,0,0:0:0:0:
36,192,149086,1,0,0:0:0:0:
402,192,149186,1,0,0:0:0:0:
256,192,149186,1,0,0:0:0:0:
109,192,149286,1,0,0:0:0:0:
329,192,149286,1,0,0:0:0:0:
36,192,149286,1,0,0:0:0:0:
256,192,149386,1,0,0:0:0:0:
182,192,149486,1,0,0:0:0:0:
36,192,149486,1,0,0:0:0:0:
329,192,149486,1,0,0:0:0:0:
402,192,149486,1,0,0:0:0:0:
475,192,149486,1,0,0:0:0:0:
256,192,149586,1,0,0:0:0:0:
109,192,149586,1,0,0:0:0:0:
402,192,149686,1,0,0:0:0:0:
182,192,149686,1,0,0:0:0:0:
475,192,149686,1,0,0:0:0:0:
329,192,149786,1,0,0:0:0:0:
256,192,149886,1,0,0:0:0:0:
109,192,149886,1,0,0:0:0:0:
36,192,149886,1,0,0:0:0:0:
475,192,149886,1,0,0:0:0:0:
402,192,149886,1,0,0:0:0:0:
182,192,149986,1,0,0:0:0:0:
329,192,149986,1,0,0:0:0:0:
256,192,150086,1,0,0:0:0:0:
402,192,150086,1,0,0:0:0:0:
36,192,150086,1,0,0:0:0:0:
109,192,150186,1,0,0:0:0:0:
329,192,150286,1,0,0:0:0:0:
36,192,150286,1,0,0:0:0:0:
182,192,150286,1,0,0:0:0:0:
402,192,150286,1,0,0:0:0:0:
475,192,150286,1,0,0:0:0:0:
256,192,150386,1,0,0:0:0:0:
109,192,150386,1,0,0:0:0:0:
329,192,150486,1,0,0:0:0:0:
182,192,150486,1,0,0:0:0:0:
402,192,150486,1,0,0:0:0:0:
256,192,150586,1,0,0:0:0:0:
36,192,150686,1,0,0:0:0:0:
329,192,150686,1,0,0:0:0:0:
402,192,150686,1,0,0:0:0:0:
475,192,150686,1,0,0:0:0:0:
182,192,150686,1,0,0:0:0:0:
109,192,150786,1,0,0:0:0:0:
256,192,150786,1,0,0:0:0:0:
182,192,150886,1,0,0:0:0:0:
36,192,150886,1,0,0:0:0:0:
475,192,150886,1,0,0:0:0:0:
256,192,150986,1,0,0:0:0:0:
36,192,151086,1,0,0:0:0:0:
329,192,151086,1,0,0:0:0:0:
402,192,151086,1,0,0:0:0:0:
475,192,151086,1,0,0:0:0:0:
182,192,151086,1,0,0:0:0:0:
109,192,151186,1,0,0:0:0:0:
256,192,151186,1,0,0:0:0:0:
182,192,151286,1,0,0:0:0:0:
329,192,151286,1,0,0:0:0:0:
475,192,151286,1,0,0:0:0:0:
109,192,151386,1,0,0:0:0:0:
256,192,151386,1,0,0:0:0:0:
402,192,151486,1,0,0:0:0:0:
36,192,151486,1,0,0:0:0:0:
475,192,151486,1,0,0:0:0:0:
182,192,151486,1,0,0:0:0:0:
329,192,151586,1,0,0:0:0:0:
402,192,151686,1,0,0:0:0:0:
475,192,151686,1,0,0:0:0:0:
256,192,151686,1,0,0:0:0:0:
109,192,151686,1,0,0:0:0:0:
182,192,151786,1,0,0:0:0:0:
36,192,151886,1,0,0:0:0:0:
256,192,151886,1,0,0:0:0:0:
402,192,151886,1,0,0:0:0:0:
475,192,151886,1,0,0:0:0:0:
109,192,151886,1,0,0:0:0:0:
329,192,151986,1,0,0:0:0:0:
182,192,151986,1,0,0:0:0:0:
475,192,152086,1,0,0:0:0:0:
109,192,152086,1,0,0:0:0:0:
36,192,152086,1,0,0:0:0:0:
402,192,152186,1,0,0:0:0:0:
256,192,152186,1,0,0:0:0:0:
36,192,152286,1,0,0:0:0:0:
475,192,152286,1,0,0:0:0:0:
329,192,152286,1,0,0:0:0:0:
182,192,152286,1,0,0:0:0:0:
402,192,152386,1,0,0:0:0:0:
256,192,152386,1,0,0:0:0:0:
329,192,152486,1,0,0:0:0:0:
182,192,152486,1,0,0:0:0:0:
109,192,152486,1,0,0:0:0:0:
256,192,152586,1,0,0:0:0:0:
182,192,152686,1,0,0:0:0:0:
36,192,152686,1,0,0:0:0:0:
475,192,152686,1,0,0:0:0:0:
402,192,152686,1,0,0:0:0:0:
256,192,152786,1,0,0:0:0:0:
329,192,152886,1,0,0:0:0:0:
109,192,152886,1,0,0:0:0:0:
475,192,152886,1,0,0:0:0:0:
182,192,152986,1,0,0:0:0:0:
256,192,153086,1,0,0:0:0:0:
402,192,153086,1,0,0:0:0:0:
475,192,153086,1,0,0:0:0:0:
36,192,153086,1,0,0:0:0:0:
109,192,153086,1,0,0:0:0:0:
329,192,153186,1,0,0:0:0:0:
182,192,153186,1,0,0:0:0:0:
109,192,153286,1,0,0:0:0:0:
256,192,153286,1,0,0:0:0:0:
402,192,153286,1,0,0:0:0:0:
329,192,153386,1,0,0:0:0:0:
182,192,153486,1,0,0:0:0:0:
256,192,153486,1,0,0:0:0:0:
402,192,153486,1,0,0:0:0:0:
475,192,153486,1,0,0:0:0:0:
36,192,153486,1,0,0:0:0:0:
109,192,153586,1,0,0:0:0:0:
36,192,153686,1,0,0:0:0:0:
256,192,153686,1,0,0:0:0:0:
329,192,153686,1,0,0:0:0:0:
475,192,153686,1,0,0:0:0:0:
182,192,153786,1,0,0:0:0:0:
109,192,153886,1,0,0:0:0:0:
36,192,153886,1,0,0:0:0:0:
329,192,153886,1,0,0:0:0:0:
402,192,153886,1,0,0:0:0:0:
475,192,153886,1,0,0:0:0:0:
256,192,153986,1,0,0:0:0:0:
182,192,154086,1,0,0:0:0:0:
109,192,154086,1,0,0:0:0:0:
402,192,154086,1,0,0:0:0:0:
475,192,154086,1,0,0:0:0:0:
329,192,154186,1,0,0:0:0:0:
256,192,154286,1,0,0:0:0:0:
182,192,154286,1,0,0:0:0:0:
109,192,154286,1,0,0:0:0:0:
36,192,154286,1,0,0:0:0:0:
475,192,154286,1,0,0:0:0:0:
329,192,154386,1,0,0:0:0:0:
402,192,154486,1,0,0:0:0:0:
182,192,154486,1,0,0:0:0:0:
36,192,154486,1,0,0:0:0:0:
256,192,154586,1,0,0:0:0:0:
182,192,154686,1,0,0:0:0:0:
402,192,154686,1,0,0:0:0:0:
475,192,154686,1,0,0:0:0:0:
329,192,154686,1,0,0:0:0:0:
36,192,154686,1,0,0:0:0:0:
109,192,154786,1,0,0:0:0:0:
256,192,154786,1,0,0:0:0:0:
402,192,154886,1,0,0:0:0:0:
182,192,154886,1,0,0:0:0:0:
475,192,154886,1,0,0:0:0:0:
329,192,154986,1,0,0:0:0:0:
36,192,155086,1,0,0:0:0:0:
109,192,155086,1,0,0:0:0:0:
256,192,155086,1,0,0:0:0:0:
402,192,155086,1,0,0:0:0:0:
475,192,155086,1,0,0:0:0:0:
329,192,155186,1,0,0:0:0:0:
182,192,155186,1,0,0:0:0:0:
402,192,155286,1,0,0:0:0:0:
256,192,155286,1,0,0:0:0:0:
109,192,155286,1,0,0:0:0:0:
182,192,155386,1,0,0:0:0:0:
256,192,155486,1,0,0:0:0:0:
109,192,155486,1,0,0:0:0:0:
36,192,155486,1,0,0:0:0:0:
402,192,155486,1,0,0:0:0:0:
475,192,155486,1,0,0:0:0:0:
182,192,155586,1,0,0:0:0:0:
329,192,155586,1,0,0:0:0:0:
36,192,155686,1,0,0:0:0:0:
109,192,155686,1,0,0:0:0:0:
402,192,155686,1,0,0:0:0:0:
329,192,155786,1,0,0:0:0:0:
256,192,155886,1,0,0:0:0:0:
36,192,155886,1,0,0:0:0:0:
402,192,155886,1,0,0:0:0:0:
475,192,155886,1,0,0:0:0:0:
109,192,155886,1,0,0:0:0:0:
329,192,155986,1,0,0:0:0:0:
182,192,155986,1,0,0:0:0:0:
256,192,156086,1,0,0:0:0:0:
402,192,156086,1,0,0:0:0:0:
475,192,156086,1,0,0:0:0:0:
182,192,156186,1,0,0:0:0:0:
329,192,156186,1,0,0:0:0:0:
475,192,156286,1,0,0:0:0:0:
256,192,156286,1,0,0:0:0:0:
36,192,156286,1,0,0:0:0:0:
109,192,156286,1,0,0:0:0:0:
182,192,156386,1,0,0:0:0:0:
329,192,156486,1,0,0:0:0:0:
109,192,156486,1,0,0:0:0:0:
475,192,156486,1,0,0:0:0:0:
402,192,156486,1,0,0:0:0:0:
182,192,156586,1,0,0:0:0:0:
36,192,156686,1,0,0:0:0:0:
109,192,156686,1,0,0:0:0:0:
256,192,156686,1,0,0:0:0:0:
402,192,156686,1,0,0:0:0:0:
475,192,156686,1,0,0:0:0:0:
329,192,156786,1,0,0:0:0:0:
182,192,156786,1,0,0:0:0:0:
36,192,156886,1,0,0:0:0:0:
475,192,156886,1,0,0:0:0:0:
402,192,156886,1,0,0:0:0:0:
256,192,156986,1,0,0:0:0:0:
109,192,156986,1,0,0:0:0:0:
182,192,157086,1,0,0:0:0:0:
36,192,157086,1,0,0:0:0:0:
475,192,157086,1,0,0:0:0:0:
329,192,157086,1,0,0:0:0:0:
402,192,157186,1,0,0:0:0:0:
256,192,157186,1,0,0:0:0:0:
329,192,157286,1,0,0:0:0:0:
182,192,157286,1,0,0:0:0:0:
36,192,157286,1,0,0:0:0:0:
402,192,157386,1,0,0:0:0:0:
256,192,157486,1,0,0:0:0:0:
109,192,157486,1,0,0:0:0:0:
36,192,157486,1,0,0:0:0:0:
475,192,157486,1,0,0:0:0:0:
329,192,157586,1,0,0:0:0:0:
402,192,157686,1,0,0:0:0:0:
182,192,157686,1,0,0:0:0:0:
109,192,157686,1,0,0:0:0:0:
329,192,157786,1,0,0:0:0:0:
109,192,157886,1,0,0:0:0:0:
256,192,157886,1,0,0:0:0:0:
475,192,157886,1,0,0:0:0:0:
36,192,157886,1,0,0:0:0:0:
402,192,157886,1,0,0:0:0:0:
182,192,157986,1,0,0:0:0:0:
329,192,157986,1,0,0:0:0:0:
402,192,158086,1,0,0:0:0:0:
256,192,158086,1,0,0:0:0:0:
109,192,158086,1,0,0:0:0:0:
329,192,158186,1,0,0:0:0:0:
402,192,158286,1,0,0:0:0:0:
475,192,158286,1,0,0:0:0:0:
256,192,158286,1,0,0:0:0:0:
36,192,158286,1,0,0:0:0:0:
109,192,158286,1,0,0:0:0:0:
329,192,158386,1,0,0:0:0:0:
182,192,158386,1,0,0:0:0:0:
256,192,158486,1,0,0:0:0:0:
402,192,158486,1,0,0:0:0:0:
109,192,158486,1,0,0:0:0:0:
182,192,158586,1,0,0:0:0:0:
256,192,158686,1,0,0:0:0:0:
475,192,158686,1,0,0:0:0:0:
402,192,158686,1,0,0:0:0:0:
109,192,158686,1,0,0:0:0:0:
36,192,158686,1,0,0:0:0:0:
182,192,158786,1,0,0:0:0:0:
329,192,158786,1,0,0:0:0:0:
256,192,158886,1,0,0:0:0:0:
402,192,158886,1,0,0:0:0:0:
36,192,158886,1,0,0:0:0:0:
329,192,158986,1,0,0:0:0:0:
109,192,159086,1,0,0:0:0:0:
36,192,159086,1,0,0:0:0:0:
256,192,159086,1,0,0:0:0:0:
475,192,159086,1,0,0:0:0:0:
402,192,159186,1,0,0:0:0:0:
182,192,159186,1,0,0:0:0:0:
329,192,159286,1,0,0:0:0:0:
475,192,159286,1,0,0:0:0:0:
109,192,159286,1,0,0:0:0:0:
402,192,159386,1,0,0:0:0:0:
256,192,159386,1,0,0:0:0:0:
329,192,159486,1,0,0:0:0:0:
36,192,159486,1,0,0:0:0:0:
182,192,159486,1,0,0:0:0:0:
475,192,159486,1,0,0:0:0:0:
256,192,159586,1,0,0:0:0:0:
182,192,159686,1,0,0:0:0:0:
109,192,159686,1,0,0:0:0:0:
402,192,159686,1,0,0:0:0:0:
475,192,159686,1,0,0:0:0:0:
256,192,159786,1,0,0:0:0:0:
36,192,159886,1,0,0:0:0:0:
329,192,159886,1,0,0:0:0:0:
475,192,159886,1,0,0:0:0:0:
402,192,159886,1,0,0:0:0:0:
182,192,159886,1,0,0:0:0:0:
256,192,159986,1,0,0:0:0:0:
109,192,159986,1,0,0:0:0:0:
182,192,160086,1,0,0:0:0:0:
329,192,160086,1,0,0:0:0:0:
36,192,160086,1,0,0:0:0:0:
402,192,160186,1,0,0:0:0:0:
256,192,160186,1,0,0:0:0:0:
36,192,160286,1,0,0:0:0:0:
475,192,160286,1,0,0:0:0:0:
109,192,160286,1,0,0:0:0:0:
329,192,160286,1,0,0:0:0:0:
402,192,160386,1,0,0:0:0:0:
182,192,160386,1,0,0:0:0:0:
256,192,160486,1,0,0:0:0:0:
109,192,160486,1,0,0:0:0:0:
475,192,160486,1,0,0:0:0:0:
329,192,160586,1,0,0:0:0:0:
256,192,160686,1,0,0:0:0:0:
402,192,160686,1,0,0:0:0:0:
36,192,160686,1,0,0:0:0:0:
475,192,160686,1,0,0:0:0:0:
182,192,160786,1,0,0:0:0:0:
402,192,160886,1,0,0:0:0:0:
256,192,160886,1,0,0:0:0:0:
109,192,160886,1,0,0:0:0:0:
182,192,160986,1,0,0:0:0:0:
402,192,161086,1,0,0:0:0:0:
475,192,161086,1,0,0:0:0:0:
36,192,161086,1,0,0:0:0:0:
256,192,161086,1,0,0:0:0:0:
109,192,161086,1,0,0:0:0:0:
182,192,161186,1,0,0:0:0:0:
329,192,161186,1,0,0:0:0:0:
256,192,161286,1,0,0:0:0:0:
402,192,161286,1,0,0:0:0:0:
36,192,161286,1,0,0:0:0:0:
182,192,161386,1,0,0:0:0:0:
36,192,161486,1,0,0:0:0:0:
109,192,161486,1,0,0:0:0:0:
475,192,161486,1,0,0:0:0:0:
402,192,161486,1,0,0:0:0:0:
256,192,161486,1,0,0:0:0:0:
329,192,161586,1,0,0:0:0:0:
182,192,161586,1,0,0:0:0:0:
402,192,161686,1,0,0:0:0:0:
109,192,161686,1,0,0:0:0:0:
475,192,161686,1,0,0:0:0:0:
182,192,161786,1,0,0:0:0:0:
36,192,161886,1,0,0:0:0:0:
109,192,161886,1,0,0:0:0:0:
402,192,161886,1,0,0:0:0:0:
475,192,161886,1,0,0:0:0:0:
256,192,161886,1,0,0:0:0:0:
182,192,161986,1,0,0:0:0:0:
329,192,161986,1,0,0:0:0:0:
402,192,162086,1,0,0:0:0:0:
256,192,162086,1,0,0:0:0:0:
36,192,162086,1,0,0:0:0:0:
329,192,162186,1,0,0:0:0:0:
109,192,162286,1,0,0:0:0:0:
36,192,162286,1,0,0:0:0:0:
475,192,162286,1,0,0:0:0:0:
402,192,162286,1,0,0:0:0:0:
256,192,162286,1,0,0:0:0:0:
329,192,162386,1,0,0:0:0:0:
182,192,162386,1,0,0:0:0:0:
402,192,162486,1,0,0:0:0:0:
109,192,162486,1,0,0:0:0:0:
36,192,162486,1,0,0:0:0:0:
256,192,162586,1,0,0:0:0:0:
109,192,162686,1,0,0:0:0:0:
36,192,162686,1,0,0:0:0:0:
329,192,162686,1,0,0:0:0:0:
475,192,162686,1,0,0:0:0:0:
182,192,162686,1,0,0:0:0:0:
402,192,162786,1,0,0:0:0:0:
256,192,162786,1,0,0:0:0:0:
109,192,162886,1,0,0:0:0:0:
182,192,162886,1,0,0:0:0:0:
329,192,162886,1,0,0:0:0:0:
402,192,162986,1,0,0:0:0:0:
182,192,163086,1,0,0:0:0:0:
109,192,163086,1,0,0:0:0:0:
36,192,163086,1,0,0:0:0:0:
475,192,163086,1,0,0:0:0:0:
329,192,163086,1,0,0:0:0:0:
402,192,163186,1,0,0:0:0:0:
256,192,163186,1,0,0:0:0:0:
182,192,163286,1,0,0:0:0:0:
109,192,163286,1,0,0:0:0:0:
475,192,163286,1,0,0:0:0:0:
329,192,163386,1,0,0:0:0:0:
256,192,163486,1,0,0:0:0:0:
475,192,163486,1,0,0:0:0:0:
402,192,163486,1,0,0:0:0:0:
36,192,163486,1,0,0:0:0:0:
109,192,163486,1,0,0:0:0:0:
329,192,163586,1,0,0:0:0:0:
182,192,163586,1,0,0:0:0:0:
109,192,163686,1,0,0:0:0:0:
256,192,163686,1,0,0:0:0:0:
475,192,163686,1,0,0:0:0:0:
329,192,163786,1,0,0:0:0:0:
256,192,163886,1,0,0:0:0:0:
475,192,163886,1,0,0:0:0:0:
109,192,163886,1,0,0:0:0:0:
36,192,163886,1,0,0:0:0:0:
402,192,163886,1,0,0:0:0:0:
329,192,163986,1,0,0:0:0:0:
182,192,163986,1,0,0:0:0:0:
402,192,164086,1,0,0:0:0:0:
256,192,164086,1,0,0:0:0:0:
475,192,164086,1,0,0:0:0:0:
329,192,164186,1,0,0:0:0:0:
182,192,164186,1,0,0:0:0:0:
475,192,164286,1,0,0:0:0:0:
256,192,164286,1,0,0:0:0:0:
109,192,164286,1,0,0:0:0:0:
36,192,164286,1,0,0:0:0:0:
402,192,164386,1,0,0:0:0:0:
329,192,164486,1,0,0:0:0:0:
109,192,164486,1,0,0:0:0:0:
182,192,164486,1,0,0:0:0:0:
256,192,164486,1,0,0:0:0:0:
402,192,164586,1,0,0:0:0:0:
475,192,164686,1,0,0:0:0:0:
329,192,164686,1,0,0:0:0:0:
109,192,164686,1,0,0:0:0:0:
36,192,164686,1,0,0:0:0:0:
182,192,164686,1,0,0:0:0:0:
256,192,164786,1,0,0:0:0:0:
402,192,164786,1,0,0:0:0:0:
475,192,164886,1,0,0:0:0:0:
182,192,164886,1,0,0:0:0:0:
36,192,164886,1,0,0:0:0:0:
109,192,164986,1,0,0:0:0:0:
256,192,164986,1,0,0:0:0:0:
475,192,165086,1,0,0:0:0:0:
182,192,165086,1,0,0:0:0:0:
36,192,165086,1,0,0:0:0:0:
402,192,165086,1,0,0:0:0:0:
329,192,165186,1,0,0:0:0:0:
256,192,165286,1,0,0:0:0:0:
475,192,165286,1,0,0:0:0:0:
109,192,165286,1,0,0:0:0:0:
402,192,165386,1,0,0:0:0:0:
475,192,165486,1,0,0:0:0:0:
36,192,165486,1,0,0:0:0:0:
329,192,165486,1,0,0:0:0:0:
182,192,165486,1,0,0:0:0:0:
109,192,165586,1,0,0:0:0:0:
256,192,165586,1,0,0:0:0:0:
36,192,165686,1,0,0:0:0:0:
182,192,165686,1,0,0:0:0:0:
402,192,165686,1,0,0:0:0:0:
329,192,165786,1,0,0:0:0:0:
109,192,165786,1,0,0:0:0:0:
36,192,165886,1,0,0:0:0:0:
256,192,165886,1,0,0:0:0:0:
402,192,165886,1,0,0:0:0:0:
475,192,165886,1,0,0:0:0:0:
182,192,165986,1,0,0:0:0:0:
329,192,166086,1,0,0:0:0:0:
109,192,166086,1,0,0:0:0:0:
402,192,166086,1,0,0:0:0:0:
256,192,166186,1,0,0:0:0:0:
36,192,166286,1,0,0:0:0:0:
402,192,166286,1,0,0:0:0:0:
475,192,166286,1,0,0:0:0:0:
182,192,166286,1,0,0:0:0:0:
329,192,166386,1,0,0:0:0:0:
402,192,166486,1,0,0:0:0:0:
182,192,166486,1,0,0:0:0:0:
109,192,166486,1,0,0:0:0:0:
256,192,166586,1,0,0:0:0:0:
36,192,166686,1,0,0:0:0:0:
475,192,166686,1,0,0:0:0:0:
109,192,166686,1,0,0:0:0:0:
329,192,166686,1,0,0:0:0:0:
402,192,166786,1,0,0:0:0:0:
182,192,166786,1,0,0:0:0:0:
475,192,166886,1,0,0:0:0:0:
256,192,166886,1,0,0:0:0:0:
109,192,166886,1,0,0:0:0:0:
182,192,166986,1,0,0:0:0:0:
329,192,166986,1,0,0:0:0:0:
36,192,167086,1,0,0:0:0:0:
256,192,167086,1,0,0:0:0:0:
475,192,167086,1,0,0:0:0:0:
109,192,167086,1,0,0:0:0:0:
402,192,167086,1,0,0:0:0:0:
182,192,167186,1,0,0:0:0:0:
329,192,167186,1,0,0:0:0:0:
402,192,167286,1,0,0:0:0:0:
256,192,167286,1,0,0:0:0:0:
36,192,167286,1,0,0:0:0:0:
182,192,167386,1,0,0:0:0:0:
256,192,167486,1,0,0:0:0:0:
36,192,167486,1,0,0:0:0:0:
402,192,167486,1,0,0:0:0:0:
475,192,167486,1,0,0:0:0:0:
109,192,167586,1,0,0:0:0:0:
329,192,167586,1,0,0:0:0:0:
36,192,167686,1,0,0:0:0:0:
256,192,167686,1,0,0:0:0:0:
402,192,167686,1,0,0:0:0:0:
475,192,167686,1,0,0:0:0:0:
329,192,167786,1,0,0:0:0:0:
182,192,167786,1,0,0:0:0:0:
475,192,167886,1,0,0:0:0:0:
109,192,167886,1,0,0:0:0:0:
36,192,167886,1,0,0:0:0:0:
256,192,167886,1,0,0:0:0:0:
402,192,167886,1,0,0:0:0:0:
182,192,167986,1,0,0:0:0:0:
329,192,167986,1,0,0:0:0:0:
256,192,168086,1,0,0:0:0:0:
402,192,168086,1,0,0:0:0:0:
475,192,168086,1,0,0:0:0:0:
329,192,168186,1,0,0:0:0:0:
109,192,168186,1,0,0:0:0:0:
475,192,168286,1,0,0:0:0:0:
182,192,168286,1,0,0:0:0:0:
36,192,168286,1,0,0:0:0:0:
402,192,168286,1,0,0:0:0:0:
109,192,168386,1,0,0:0:0:0:
256,192,168386,1,0,0:0:0:0:
182,192,168486,1,0,0:0:0:0:
402,192,168486,1,0,0:0:0:0:
36,192,168486,1,0,0:0:0:0:
256,192,168536,1,0,0:0:0:0:
329,192,168586,1,0,0:0:0:0:
36,192,168686,1,0,0:0:0:0:
109,192,168686,1,0,0:0:0:0:
475,192,168686,1,0,0:0:0:0:
256,192,168686,1,0,0:0:0:0:
329,192,168752,1,0,0:0:0:0:
402,192,168819,1,0,0:0:0:0:
182,192,168886,1,0,0:0:0:0:
475,192,168886,1,0,0:0:0:0:
256,192,168952,1,0,0:0:0:0:
329,192,169019,1,0,0:0:0:0:
109,192,169086,1,0,0:0:0:0:
402,192,169086,1,0,0:0:0:0:
182,192,169152,5,0,0:0:0:0:
256,192,169219,1,0,0:0:0:0:
36,192,169286,1,0,0:0:0:0:
329,192,169286,1,0,0:0:0:0:
109,192,169352,1,0,0:0:0:0:
182,192,169419,1,0,0:0:0:0:
256,192,169486,1,0,0:0:0:0:
36,192,169486,1,0,0:0:0:0:
329,192,169552,1,0,0:0:0:0:
402,192,169619,1,0,0:0:0:0:
475,192,169686,1,0,0:0:0:0:
109,192,169686,1,0,0:0:0:0:
182,192,169752,1,0,0:0:0:0:
256,192,169819,1,0,0:0:0:0:
329,192,169886,1,0,0:0:0:0:
475,192,169886,1,0,0:0:0:0:
402,192,169886,1,0,0:0:0:0:
36,192,169886,1,0,0:0:0:0:
109,192,169886,1,0,0:0:0:0:
182,192,169986,1,0,0:0:0:0:
329,192,170086,1,0,0:0:0:0:
182,192,170186,1,0,0:0:0:0:
109,192,170286,1,0,0:0:0:0:
36,192,170286,1,0,0:0:0:0:
475,192,170286,1,0,0:0:0:0:
402,192,170286,1,0,0:0:0:0:
329,192,170286,1,0,0:0:0:0:
256,192,170286,1,0,0:0:0:0:
182,192,170486,1,0,0:0:0:0:
36,192,170686,1,0,0:0:0:0:
329,192,170686,1,0,0:0:0:0:
475,192,170686,1,0,0:0:0:0:
402,192,170686,1,0,0:0:0:0:
109,192,170786,1,0,0:0:0:0:
182,192,170886,1,0,0:0:0:0:
329,192,170886,1,0,0:0:0:0:
109,192,170986,1,0,0:0:0:0:
36,192,171086,1,0,0:0:0:0:
475,192,171086,1,0,0:0:0:0:
256,192,171086,1,0,0:0:0:0:
182,192,171086,1,0,0:0:0:0:
402,192,171186,1,0,0:0:0:0:
329,192,171286,1,0,0:0:0:0:
182,192,171286,1,0,0:0:0:0:
402,192,171386,1,0,0:0:0:0:
475,192,171486,1,0,0:0:0:0:
109,192,171486,1,0,0:0:0:0:
256,192,171486,1,0,0:0:0:0:
36,192,171486,1,0,0:0:0:0:
182,192,171586,1,0,0:0:0:0:
36,192,171686,1,0,0:0:0:0:
329,192,171686,1,0,0:0:0:0:
109,192,171786,1,0,0:0:0:0:
402,192,171886,1,0,0:0:0:0:
182,192,171886,1,0,0:0:0:0:
475,192,171886,1,0,0:0:0:0:
36,192,171886,1,0,0:0:0:0:
329,192,171986,1,0,0:0:0:0:
475,192,172086,1,0,0:0:0:0:
182,192,172086,1,0,0:0:0:0:
402,192,172186,1,0,0:0:0:0:
256,192,172286,1,0,0:0:0:0:
109,192,172286,1,0,0:0:0:0:
36,192,172286,1,0,0:0:0:0:
329,192,172286,1,0,0:0:0:0:
182,192,172386,1,0,0:0:0:0:
329,192,172486,1,0,0:0:0:0:
36,192,172486,1,0,0:0:0:0:
256,192,172586,1,0,0:0:0:0:
109,192,172686,1,0,0:0:0:0:
402,192,172686,1,0,0:0:0:0:
329,192,172686,1,0,0:0:0:0:
475,192,172686,1,0,0:0:0:0:
36,192,172786,1,0,0:0:0:0:
182,192,172886,1,0,0:0:0:0:
402,192,172886,1,0,0:0:0:0:
109,192,172986,1,0,0:0:0:0:
329,192,173086,1,0,0:0:0:0:
36,192,173086,1,0,0:0:0:0:
475,192,173086,1,0,0:0:0:0:
182,192,173086,1,0,0:0:0:0:
256,192,173186,1,0,0:0:0:0:
182,192,173286,1,0,0:0:0:0:
402,192,173286,1,0,0:0:0:0:
109,192,173386,1,0,0:0:0:0:
256,192,173486,1,0,0:0:0:0:
36,192,173486,1,0,0:0:0:0:
402,192,173486,1,0,0:0:0:0:
329,192,173586,1,0,0:0:0:0:
182,192,173686,1,0,0:0:0:0:
402,192,173686,1,0,0:0:0:0:
256,192,173786,1,0,0:0:0:0:
475,192,173886,1,0,0:0:0:0:
109,192,173886,1,0,0:0:0:0:
36,192,173886,1,0,0:0:0:0:
182,192,173886,1,0,0:0:0:0:
402,192,173986,1,0,0:0:0:0:
329,192,174086,1,0,0:0:0:0:
182,192,174086,1,0,0:0:0:0:
402,192,174186,1,0,0:0:0:0:
475,192,174286,1,0,0:0:0:0:
36,192,174286,1,0,0:0:0:0:
256,192,174286,1,0,0:0:0:0:
329,192,174286,1,0,0:0:0:0:
109,192,174386,1,0,0:0:0:0:
402,192,174486,1,0,0:0:0:0:
182,192,174486,1,0,0:0:0:0:
256,192,174586,1,0,0:0:0:0:
36,192,174686,1,0,0:0:0:0:
402,192,174686,1,0,0:0:0:0:
182,192,174686,1,0,0:0:0:0:
475,192,174686,1,0,0:0:0:0:
329,192,174786,1,0,0:0:0:0:
475,192,174886,1,0,0:0:0:0:
182,192,174886,1,0,0:0:0:0:
402,192,174986,1,0,0:0:0:0:
109,192,175086,1,0,0:0:0:0:
36,192,175086,1,0,0:0:0:0:
329,192,175086,1,0,0:0:0:0:
475,192,175086,1,0,0:0:0:0:
182,192,175186,1,0,0:0:0:0:
256,192,175286,1,0,0:0:0:0:
402,192,175286,1,0,0:0:0:0:
182,192,175386,1,0,0:0:0:0:
109,192,175486,1,0,0:0:0:0:
402,192,175486,1,0,0:0:0:0:
36,192,175486,1,0,0:0:0:0:
475,192,175486,1,0,0:0:0:0:
329,192,175586,1,0,0:0:0:0:
256,192,175686,1,0,0:0:0:0:
109,192,175686,1,0,0:0:0:0:
329,192,175786,1,0,0:0:0:0:
402,192,175886,1,0,0:0:0:0:
182,192,175886,1,0,0:0:0:0:
36,192,175886,1,0,0:0:0:0:
475,192,175886,1,0,0:0:0:0:
256,192,175986,1,0,0:0:0:0:
329,192,176086,1,0,0:0:0:0:
109,192,176086,1,0,0:0:0:0:
256,192,176186,1,0,0:0:0:0:
182,192,176286,1,0,0:0:0:0:
402,192,176286,1,0,0:0:0:0:
475,192,176286,1,0,0:0:0:0:
36,192,176286,1,0,0:0:0:0:
329,192,176386,1,0,0:0:0:0:
475,192,176486,1,0,0:0:0:0:
182,192,176486,1,0,0:0:0:0:
402,192,176586,1,0,0:0:0:0:
109,192,176686,1,0,0:0:0:0:
36,192,176686,1,0,0:0:0:0:
329,192,176686,1,0,0:0:0:0:
182,192,176786,1,0,0:0:0:0:
256,192,176886,1,0,0:0:0:0:
402,192,176886,1,0,0:0:0:0:
36,192,176986,1,0,0:0:0:0:
109,192,177086,1,0,0:0:0:0:
329,192,177086,1,0,0:0:0:0:
402,192,177086,1,0,0:0:0:0:
475,192,177086,1,0,0:0:0:0:
182,192,177186,1,0,0:0:0:0:
36,192,177286,1,0,0:0:0:0:
256,192,177286,1,0,0:0:0:0:
109,192,177386,1,0,0:0:0:0:
329,192,177486,1,0,0:0:0:0:
36,192,177486,1,0,0:0:0:0:
402,192,177486,1,0,0:0:0:0:
475,192,177486,1,0,0:0:0:0:
256,192,177586,1,0,0:0:0:0:
182,192,177686,1,0,0:0:0:0:
109,192,177686,1,0,0:0:0:0:
402,192,177786,1,0,0:0:0:0:
256,192,177886,1,0,0:0:0:0:
109,192,177886,1,0,0:0:0:0:
36,192,177886,1,0,0:0:0:0:
475,192,177886,1,0,0:0:0:0:
329,192,177986,1,0,0:0:0:0:
402,192,178086,1,0,0:0:0:0:
109,192,178086,1,0,0:0:0:0:
475,192,178186,1,0,0:0:0:0:
182,192,178286,1,0,0:0:0:0:
36,192,178286,1,0,0:0:0:0:
256,192,178286,1,0,0:0:0:0:
402,192,178286,1,0,0:0:0:0:
329,192,178386,1,0,0:0:0:0:
182,192,178486,1,0,0:0:0:0:
402,192,178486,1,0,0:0:0:0:
36,192,178586,1,0,0:0:0:0:
182,192,178686,1,0,0:0:0:0:
256,192,178686,1,0,0:0:0:0:
329,192,178686,1,0,0:0:0:0:
475,192,178686,1,0,0:0:0:0:
36,192,178786,1,0,0:0:0:0:
475,192,178886,1,0,0:0:0:0:
256,192,178886,1,0,0:0:0:0:
329,192,178986,1,0,0:0:0:0:
475,192,179086,1,0,0:0:0:0:
182,192,179086,1,0,0:0:0:0:
109,192,179086,1,0,0:0:0:0:
36,192,179086,1,0,0:0:0:0:
256,192,179186,1,0,0:0:0:0:
402,192,179286,1,0,0:0:0:0:
109,192,179286,1,0,0:0:0:0:
256,192,179386,1,0,0:0:0:0:
329,192,179486,1,0,0:0:0:0:
36,192,179486,1,0,0:0:0:0:
109,192,179486,1,0,0:0:0:0:
475,192,179486,1,0,0:0:0:0:
182,192,179586,1,0,0:0:0:0:
329,192,179686,1,0,0:0:0:0:
475,192,179686,1,0,0:0:0:0:
109,192,179786,1,0,0:0:0:0:
256,192,179886,1,0,0:0:0:0:
36,192,179886,1,0,0:0:0:0:
402,192,179886,1,0,0:0:0:0:
475,192,179886,1,0,0:0:0:0:
329,192,179986,1,0,0:0:0:0:
182,192,180086,1,0,0:0:0:0:
402,192,180086,1,0,0:0:0:0:
256,192,180186,1,0,0:0:0:0:
329,192,180286,1,0,0:0:0:0:
36,192,180286,1,0,0:0:0:0:
475,192,180286,1,0,0:0:0:0:
182,192,180386,1,0,0:0:0:0:
329,192,180486,1,0,0:0:0:0:
109,192,180486,1,0,0:0:0:0:
402,192,180486,1,0,0:0:0:0:
256,192,180586,1,0,0:0:0:0:
36,192,180686,1,0,0:0:0:0:
109,192,180686,1,0,0:0:0:0:
475,192,180686,1,0,0:0:0:0:
329,192,180686,1,0,0:0:0:0:
182,192,180786,1,0,0:0:0:0:
109,192,180886,1,0,0:0:0:0:
402,192,180886,1,0,0:0:0:0:
256,192,180986,1,0,0:0:0:0:
329,192,181086,1,0,0:0:0:0:
109,192,181086,1,0,0:0:0:0:
475,192,181086,1,0,0:0:0:0:
182,192,181186,1,0,0:0:0:0:
256,192,181286,1,0,0:0:0:0:
36,192,181286,1,0,0:0:0:0:
329,192,181386,1,0,0:0:0:0:
402,192,181486,1,0,0:0:0:0:
109,192,181486,1,0,0:0:0:0:
182,192,181486,1,0,0:0:0:0:
475,192,181486,1,0,0:0:0:0:
329,192,181586,1,0,0:0:0:0:
36,192,181686,1,0,0:0:0:0:
182,192,181686,1,0,0:0:0:0:
256,192,181786,1,0,0:0:0:0:
475,192,181886,1,0,0:0:0:0:
109,192,181886,1,0,0:0:0:0:
36,192,181886,1,0,0:0:0:0:
329,192,181886,1,0,0:0:0:0:
402,192,181986,5,0,0:0:0:0:
329,192,182086,1,0,0:0:0:0:
182,192,182086,1,0,0:0:0:0:
109,192,182086,1,0,0:0:0:0:
256,192,182186,1,0,0:0:0:0:
109,192,182286,1,0,0:0:0:0:
36,192,182286,1,0,0:0:0:0:
402,192,182286,1,0,0:0:0:0:
475,192,182286,1,0,0:0:0:0:
182,192,182386,1,0,0:0:0:0:
36,192,182486,1,0,0:0:0:0:
329,192,182486,1,0,0:0:0:0:
402,192,182552,1,0,0:0:0:0:
109,192,182586,1,0,0:0:0:0:
475,192,182619,1,0,0:0:0:0:
256,192,182686,1,0,0:0:0:0:
182,192,182686,1,0,0:0:0:0:
36,192,182686,1,0,0:0:0:0:
329,192,182752,1,0,0:0:0:0:
402,192,182819,1,0,0:0:0:0:
182,192,182886,1,0,0:0:0:0:
36,192,182886,1,0,0:0:0:0:
256,192,182952,1,0,0:0:0:0:
329,192,183019,1,0,0:0:0:0:
402,192,183086,1,0,0:0:0:0:
475,192,183086,1,0,0:0:0:0:
109,192,183086,1,0,0:0:0:0:
36,192,183086,1,0,0:0:0:0:
329,192,183286,1,0,0:0:0:0:
182,192,183286,1,0,0:0:0:0:
256,192,183486,1,0,0:0:0:0:
109,192,183486,1,0,0:0:0:0:
475,192,183486,1,0,0:0:0:0:
402,192,183486,1,0,0:0:0:0:
329,192,183586,1,0,0:0:0:0:
182,192,183586,1,0,0:0:0:0:
36,192,183686,1,0,0:0:0:0:
256,192,183686,1,0,0:0:0:0:
109,192,183786,1,0,0:0:0:0:
329,192,183786,1,0,0:0:0:0:
182,192,183886,1,0,0:0:0:0:
402,192,183886,1,0,0:0:0:0:
475,192,183886,1,0,0:0:0:0:
256,192,183886,1,0,0:0:0:0:
109,192,183986,1,0,0:0:0:0:
329,192,183986,1,0,0:0:0:0:
256,192,184086,1,0,0:0:0:0:
475,192,184086,1,0,0:0:0:0:
402,192,184186,1,0,0:0:0:0:
182,192,184186,1,0,0:0:0:0:
329,192,184286,1,0,0:0:0:0:
109,192,184286,1,0,0:0:0:0:
36,192,184286,1,0,0:0:0:0:
475,192,184286,1,0,0:0:0:0:
256,192,184386,1,0,0:0:0:0:
402,192,184386,1,0,0:0:0:0:
182,192,184486,1,0,0:0:0:0:
36,192,184486,1,0,0:0:0:0:
329,192,184586,1,0,0:0:0:0:
475,192,184586,1,0,0:0:0:0:
256,192,184686,1,0,0:0:0:0:
182,192,184686,1,0,0:0:0:0:
109,192,184686,1,0,0:0:0:0:
36,192,184686,1,0,0:0:0:0:
329,192,184786,1,0,0:0:0:0:
475,192,184786,1,0,0:0:0:0:
256,192,184886,1,0,0:0:0:0:
109,192,184886,1,0,0:0:0:0:
36,192,184986,1,0,0:0:0:0:
402,192,184986,1,0,0:0:0:0:
475,192,185086,1,0,0:0:0:0:
329,192,185086,1,0,0:0:0:0:
256,192,185086,1,0,0:0:0:0:
182,192,185086,1,0,0:0:0:0:
109,192,185186,1,0,0:0:0:0:
402,192,185186,1,0,0:0:0:0:
329,192,185286,1,0,0:0:0:0:
36,192,185286,1,0,0:0:0:0:
256,192,185386,1,0,0:0:0:0:
475,192,185386,1,0,0:0:0:0:
182,192,185486,1,0,0:0:0:0:
109,192,185486,1,0,0:0:0:0:
36,192,185486,1,0,0:0:0:0:
402,192,185486,1,0,0:0:0:0:
329,192,185586,1,0,0:0:0:0:
475,192,185586,1,0,0:0:0:0:
256,192,185686,1,0,0:0:0:0:
109,192,185686,1,0,0:0:0:0:
182,192,185786,1,0,0:0:0:0:
36,192,185786,1,0,0:0:0:0:
329,192,185886,1,0,0:0:0:0:
475,192,185886,1,0,0:0:0:0:
402,192,185886,1,0,0:0:0:0:
109,192,185886,1,0,0:0:0:0:
256,192,185986,1,0,0:0:0:0:
36,192,185986,1,0,0:0:0:0:
329,192,186086,1,0,0:0:0:0:
182,192,186086,1,0,0:0:0:0:
402,192,186186,1,0,0:0:0:0:
109,192,186186,1,0,0:0:0:0:
329,192,186286,1,0,0:0:0:0:
475,192,186286,1,0,0:0:0:0:
36,192,186286,1,0,0:0:0:0:
256,192,186386,1,0,0:0:0:0:
402,192,186386,1,0,0:0:0:0:
182,192,186486,1,0,0:0:0:0:
329,192,186486,1,0,0:0:0:0:
109,192,186586,1,0,0:0:0:0:
475,192,186586,1,0,0:0:0:0:
402,192,186686,1,0,0:0:0:0:
329,192,186686,1,0,0:0:0:0:
36,192,186686,1,0,0:0:0:0:
256,192,186686,1,0,0:0:0:0:
182,192,186786,1,0,0:0:0:0:
475,192,186786,1,0,0:0:0:0:
329,192,186886,1,0,0:0:0:0:
109,192,186886,1,0,0:0:0:0:
256,192,186986,1,0,0:0:0:0:
36,192,186986,1,0,0:0:0:0:
109,192,187086,1,0,0:0:0:0:
182,192,187086,1,0,0:0:0:0:
402,192,187086,1,0,0:0:0:0:
475,192,187086,1,0,0:0:0:0:
329,192,187186,1,0,0:0:0:0:
36,192,187186,1,0,0:0:0:0:
256,192,187286,1,0,0:0:0:0:
402,192,187286,1,0,0:0:0:0:
329,192,187386,1,0,0:0:0:0:
182,192,187386,1,0,0:0:0:0:
256,192,187486,1,0,0:0:0:0:
36,192,187486,1,0,0:0:0:0:
475,192,187486,1,0,0:0:0:0:
402,192,187486,1,0,0:0:0:0:
109,192,187586,1,0,0:0:0:0:
329,192,187586,1,0,0:0:0:0:
182,192,187686,1,0,0:0:0:0:
402,192,187686,1,0,0:0:0:0:
256,192,187786,1,0,0:0:0:0:
109,192,187786,1,0,0:0:0:0:
182,192,187886,1,0,0:0:0:0:
36,192,187886,1,0,0:0:0:0:
402,192,187886,1,0,0:0:0:0:
475,192,187886,1,0,0:0:0:0:
329,192,187986,1,0,0:0:0:0:
109,192,187986,1,0,0:0:0:0:
256,192,188086,1,0,0:0:0:0:
402,192,188086,1,0,0:0:0:0:
329,192,188186,1,0,0:0:0:0:
182,192,188186,1,0,0:0:0:0:
256,192,188286,1,0,0:0:0:0:
109,192,188286,1,0,0:0:0:0:
475,192,188286,1,0,0:0:0:0:
402,192,188286,1,0,0:0:0:0:
36,192,188386,1,0,0:0:0:0:
329,192,188386,1,0,0:0:0:0:
256,192,188486,1,0,0:0:0:0:
475,192,188486,1,0,0:0:0:0:
402,192,188586,1,0,0:0:0:0:
182,192,188586,1,0,0:0:0:0:
329,192,188686,1,0,0:0:0:0:
109,192,188686,1,0,0:0:0:0:
36,192,188686,1,0,0:0:0:0:
256,192,188686,1,0,0:0:0:0:
402,192,188786,1,0,0:0:0:0:
182,192,188786,1,0,0:0:0:0:
36,192,188886,1,0,0:0:0:0:
256,192,188886,1,0,0:0:0:0:
109,192,188952,1,0,0:0:0:0:
329,192,188986,1,0,0:0:0:0:
182,192,189019,1,0,0:0:0:0:
402,192,189086,1,0,0:0:0:0:
475,192,189086,1,0,0:0:0:0:
256,192,189086,1,0,0:0:0:0:
36,192,189086,1,0,0:0:0:0:
182,192,189186,1,0,0:0:0:0:
329,192,189186,1,0,0:0:0:0:
109,192,189286,1,0,0:0:0:0:
256,192,189286,1,0,0:0:0:0:
36,192,189286,1,0,0:0:0:0:
402,192,189386,1,0,0:0:0:0:
182,192,189386,1,0,0:0:0:0:
36,192,189486,1,0,0:0:0:0:
475,192,189486,1,0,0:0:0:0:
109,192,189486,1,0,0:0:0:0:
329,192,189486,1,0,0:0:0:0:
256,192,189586,1,0,0:0:0:0:
402,192,189586,1,0,0:0:0:0:
329,192,189686,1,0,0:0:0:0:
182,192,189686,1,0,0:0:0:0:
256,192,189786,1,0,0:0:0:0:
402,192,189786,1,0,0:0:0:0:
109,192,189886,1,0,0:0:0:0:
36,192,189886,1,0,0:0:0:0:
329,192,189886,1,0,0:0:0:0:
475,192,189886,1,0,0:0:0:0:
182,192,189986,1,0,0:0:0:0:
402,192,189986,1,0,0:0:0:0:
256,192,190086,1,0,0:0:0:0:
36,192,190086,1,0,0:0:0:0:
109,192,190186,1,0,0:0:0:0:
329,192,190186,1,0,0:0:0:0:
182,192,190286,1,0,0:0:0:0:
402,192,190286,1,0,0:0:0:0:
475,192,190286,1,0,0:0:0:0:
36,192,190286,1,0,0:0:0:0:
256,192,190386,1,0,0:0:0:0:
109,192,190386,1,0,0:0:0:0:
182,192,190486,1,0,0:0:0:0:
402,192,190486,1,0,0:0:0:0:
329,192,190586,1,0,0:0:0:0:
36,192,190586,1,0,0:0:0:0:
256,192,190686,1,0,0:0:0:0:
109,192,190686,1,0,0:0:0:0:
475,192,190686,1,0,0:0:0:0:
182,192,190686,1,0,0:0:0:0:
402,192,190786,1,0,0:0:0:0:
36,192,190786,1,0,0:0:0:0:
329,192,190886,1,0,0:0:0:0:
182,192,190886,1,0,0:0:0:0:
109,192,190986,1,0,0:0:0:0:
402,192,190986,1,0,0:0:0:0:
36,192,191086,1,0,0:0:0:0:
475,192,191086,1,0,0:0:0:0:
182,192,191086,1,0,0:0:0:0:
329,192,191086,1,0,0:0:0:0:
256,192,191186,1,0,0:0:0:0:
109,192,191186,1,0,0:0:0:0:
182,192,191286,1,0,0:0:0:0:
402,192,191286,1,0,0:0:0:0:
329,192,191386,1,0,0:0:0:0:
36,192,191386,1,0,0:0:0:0:
109,192,191486,1,0,0:0:0:0:
402,192,191486,1,0,0:0:0:0:
475,192,191486,1,0,0:0:0:0:
182,192,191486,1,0,0:0:0:0:
256,192,191586,1,0,0:0:0:0:
36,192,191586,1,0,0:0:0:0:
329,192,191686,1,0,0:0:0:0:
109,192,191686,1,0,0:0:0:0:
182,192,191786,1,0,0:0:0:0:
402,192,191786,1,0,0:0:0:0:
256,192,191886,1,0,0:0:0:0:
329,192,191886,1,0,0:0:0:0:
475,192,191886,1,0,0:0:0:0:
36,192,191886,1,0,0:0:0:0:
109,192,191986,1,0,0:0:0:0:
402,192,191986,1,0,0:0:0:0:
182,192,192086,1,0,0:0:0:0:
329,192,192086,1,0,0:0:0:0:
256,192,192186,1,0,0:0:0:0:
36,192,192186,1,0,0:0:0:0:
109,192,192286,1,0,0:0:0:0:
329,192,192286,1,0,0:0:0:0:
402,192,192286,1,0,0:0:0:0:
475,192,192286,1,0,0:0:0:0:
182,192,192386,1,0,0:0:0:0:
36,192,192386,1,0,0:0:0:0:
256,192,192486,1,0,0:0:0:0:
402,192,192486,1,0,0:0:0:0:
475,192,192586,1,0,0:0:0:0:
109,192,192586,1,0,0:0:0:0:
36,192,192686,1,0,0:0:0:0:
256,192,192686,1,0,0:0:0:0:
329,192,192686,1,0,0:0:0:0:
402,192,192686,1,0,0:0:0:0:
182,192,192786,1,0,0:0:0:0:
475,192,192786,1,0,0:0:0:0:
329,192,192886,1,0,0:0:0:0:
109,192,192886,1,0,0:0:0:0:
256,192,192986,1,0,0:0:0:0:
36,192,192986,1,0,0:0:0:0:
182,192,193086,1,0,0:0:0:0:
402,192,193086,1,0,0:0:0:0:
475,192,193086,1,0,0:0:0:0:
329,192,193086,1,0,0:0:0:0:
256,192,193186,1,0,0:0:0:0:
36,192,193186,1,0,0:0:0:0:
109,192,193286,1,0,0:0:0:0:
329,192,193286,1,0,0:0:0:0:
182,192,193386,1,0,0:0:0:0:
402,192,193386,1,0,0:0:0:0:
256,192,193486,1,0,0:0:0:0:
475,192,193486,1,0,0:0:0:0:
36,192,193486,1,0,0:0:0:0:
109,192,193486,1,0,0:0:0:0:
402,192,193586,1,0,0:0:0:0:
182,192,193586,1,0,0:0:0:0:
329,192,193686,1,0,0:0:0:0:
109,192,193686,1,0,0:0:0:0:
402,192,193786,1,0,0:0:0:0:
256,192,193786,1,0,0:0:0:0:
475,192,193886,1,0,0:0:0:0:
182,192,193886,1,0,0:0:0:0:
36,192,193886,1,0,0:0:0:0:
109,192,193886,1,0,0:0:0:0:
402,192,193986,1,0,0:0:0:0:
256,192,193986,1,0,0:0:0:0:
329,192,194086,1,0,0:0:0:0:
36,192,194086,1,0,0:0:0:0:
402,192,194186,1,0,0:0:0:0:
109,192,194186,1,0,0:0:0:0:
475,192,194286,1,0,0:0:0:0:
182,192,194286,1,0,0:0:0:0:
256,192,194286,1,0,0:0:0:0:
36,192,194286,1,0,0:0:0:0:
329,192,194386,1,0,0:0:0:0:
109,192,194386,1,0,0:0:0:0:
402,192,194486,1,0,0:0:0:0:
182,192,194486,1,0,0:0:0:0:
256,192,194586,1,0,0:0:0:0:
475,192,194586,1,0,0:0:0:0:
329,192,194686,1,0,0:0:0:0:
402,192,194686,1,0,0:0:0:0:
109,192,194686,1,0,0:0:0:0:
36,192,194686,1,0,0:0:0:0:
182,192,194786,5,0,0:0:0:0:
475,192,194786,1,0,0:0:0:0:
256,192,194886,1,0,0:0:0:0:
402,192,194886,1,0,0:0:0:0:
329,192,194986,1,0,0:0:0:0:
109,192,194986,1,0,0:0:0:0:
182,192,195086,1,0,0:0:0:0:
256,192,195086,1,0,0:0:0:0:
475,192,195086,1,0,0:0:0:0:
402,192,195086,1,0,0:0:0:0:
36,192,195186,1,0,0:0:0:0:
329,192,195186,1,0,0:0:0:0:
109,192,195286,1,0,0:0:0:0:
475,192,195286,1,0,0:0:0:0:
402,192,195352,1,0,0:0:0:0:
182,192,195386,1,0,0:0:0:0:
329,192,195419,1,0,0:0:0:0:
109,192,195486,1,0,0:0:0:0:
36,192,195486,1,0,0:0:0:0:
256,192,195486,1,0,0:0:0:0:
475,192,195486,1,0,0:0:0:0:
402,192,195586,1,0,0:0:0:0:
182,192,195686,1,0,0:0:0:0:
109,192,195686,1,0,0:0:0:0:
36,192,195686,1,0,0:0:0:0:
475,192,195686,1,0,0:0:0:0:
256,192,195752,1,0,0:0:0:0:
329,192,195819,1,0,0:0:0:0:
402,192,195886,1,0,0:0:0:0:
475,192,195886,1,0,0:0:0:0:
36,192,195886,1,0,0:0:0:0:
109,192,195886,1,0,0:0:0:0:
182,192,195886,1,0,0:0:0:0:
109,192,196686,1,0,0:0:0:0:
256,192,196686,1,0,0:0:0:0:
329,192,197486,1,0,0:0:0:0:
475,192,197486,1,0,0:0:0:0:
182,192,197686,1,0,0:0:0:0:
256,192,197886,1,0,0:0:0:0:
329,192,198086,1,0,0:0:0:0:
182,192,198152,1,0,0:0:0:0:
109,192,198219,1,0,0:0:0:0:
36,192,198286,1,0,0:0:0:0:
402,192,198286,1,0,0:0:0:0:
475,192,198286,1,0,0:0:0:0:
36,192,198486,1,0,0:0:0:0:
109,192,198686,1,0,0:0:0:0:
182,192,198686,1,0,0:0:0:0:
402,192,198686,1,0,0:0:0:0:
256,192,198686,1,0,0:0:0:0:
475,192,198686,1,0,0:0:0:0:
256,192,199086,1,0,0:0:0:0:
402,192,199086,1,0,0:0:0:0:
475,192,199086,1,0,0:0:0:0:
36,192,199086,1,0,0:0:0:0:
329,192,199086,1,0,0:0:0:0:
109,192,199186,1,0,0:0:0:0:
182,192,199286,1,0,0:0:0:0:
329,192,199286,1,0,0:0:0:0:
402,192,199386,1,0,0:0:0:0:
475,192,199486,1,0,0:0:0:0:
256,192,199486,1,0,0:0:0:0:
109,192,199486,1,0,0:0:0:0:
36,192,199486,1,0,0:0:0:0:
329,192,199586,1,0,0:0:0:0:
182,192,199586,1,0,0:0:0:0:
109,192,199686,1,0,0:0:0:0:
402,192,199686,1,0,0:0:0:0:
182,192,199786,1,0,0:0:0:0:
36,192,199786,1,0,0:0:0:0:
256,192,199886,1,0,0:0:0:0:
402,192,199886,1,0,0:0:0:0:
475,192,199886,1,0,0:0:0:0:
329,192,199886,1,0,0:0:0:0:
36,192,199986,1,0,0:0:0:0:
109,192,199986,1,0,0:0:0:0:
182,192,200086,1,0,0:0:0:0:
329,192,200086,1,0,0:0:0:0:
36,192,200186,1,0,0:0:0:0:
402,192,200186,1,0,0:0:0:0:
256,192,200286,1,0,0:0:0:0:
182,192,200286,1,0,0:0:0:0:
109,192,200286,1,0,0:0:0:0:
475,192,200286,1,0,0:0:0:0:
329,192,200386,1,0,0:0:0:0:
36,192,200386,1,0,0:0:0:0:
402,192,200486,1,0,0:0:0:0:
256,192,200486,1,0,0:0:0:0:
475,192,200586,1,0,0:0:0:0:
182,192,200586,1,0,0:0:0:0:
329,192,200686,1,0,0:0:0:0:
402,192,200686,1,0,0:0:0:0:
36,192,200686,1,0,0:0:0:0:
109,192,200686,1,0,0:0:0:0:
256,192,200786,1,0,0:0:0:0:
475,192,200786,1,0,0:0:0:0:
402,192,200886,1,0,0:0:0:0:
109,192,200886,1,0,0:0:0:0:
182,192,200986,1,0,0:0:0:0:
329,192,200986,1,0,0:0:0:0:
256,192,201086,1,0,0:0:0:0:
402,192,201086,1,0,0:0:0:0:
36,192,201086,1,0,0:0:0:0:
475,192,201086,1,0,0:0:0:0:
109,192,201186,1,0,0:0:0:0:
329,192,201186,1,0,0:0:0:0:
256,192,201286,1,0,0:0:0:0:
475,192,201286,1,0,0:0:0:0:
402,192,201386,1,0,0:0:0:0:
182,192,201386,1,0,0:0:0:0:
109,192,201486,1,0,0:0:0:0:
36,192,201486,1,0,0:0:0:0:
329,192,201486,1,0,0:0:0:0:
475,192,201486,1,0,0:0:0:0:
182,192,201586,1,0,0:0:0:0:
402,192,201586,1,0,0:0:0:0:
256,192,201686,1,0,0:0:0:0:
36,192,201686,1,0,0:0:0:0:
109,192,201786,1,0,0:0:0:0:
329,192,201786,1,0,0:0:0:0:
36,192,201886,1,0,0:0:0:0:
402,192,201886,1,0,0:0:0:0:
475,192,201886,1,0,0:0:0:0:
256,192,201886,1,0,0:0:0:0:
182,192,201986,1,0,0:0:0:0:
329,192,201986,1,0,0:0:0:0:
109,192,202086,1,0,0:0:0:0:
256,192,202086,1,0,0:0:0:0:
329,192,202186,1,0,0:0:0:0:
475,192,202186,1,0,0:0:0:0:
36,192,202286,1,0,0:0:0:0:
109,192,202286,1,0,0:0:0:0:
402,192,202286,1,0,0:0:0:0:
182,192,202286,1,0,0:0:0:0:
256,192,202352,1,0,0:0:0:0:
329,192,202419,1,0,0:0:0:0:
402,192,202486,1,0,0:0:0:0:
109,192,202486,1,0,0:0:0:0:
182,192,202552,1,0,0:0:0:0:
256,192,202619,1,0,0:0:0:0:
402,192,202686,1,0,0:0:0:0:
36,192,202686,1,0,0:0:0:0:
475,192,202686,1,0,0:0:0:0:
109,192,202686,1,0,0:0:0:0:
329,192,202752,1,0,0:0:0:0:
256,192,202819,1,0,0:0:0:0:
182,192,202886,1,0,0:0:0:0:
475,192,202886,1,0,0:0:0:0:
402,192,202952,1,0,0:0:0:0:
329,192,203019,1,0,0:0:0:0:
256,192,203086,1,0,0:0:0:0:
109,192,203086,1,0,0:0:0:0:
36,192,203086,1,0,0:0:0:0:
475,192,203086,1,0,0:0:0:0:
182,192,203186,1,0,0:0:0:0:
402,192,203186,1,0,0:0:0:0:
329,192,203286,1,0,0:0:0:0:
36,192,203286,1,0,0:0:0:0:
109,192,203386,1,0,0:0:0:0:
256,192,203386,1,0,0:0:0:0:
182,192,203486,1,0,0:0:0:0:
402,192,203486,1,0,0:0:0:0:
475,192,203486,1,0,0:0:0:0:
36,192,203486,1,0,0:0:0:0:
329,192,203552,1,0,0:0:0:0:
256,192,203619,1,0,0:0:0:0:
182,192,203686,1,0,0:0:0:0:
475,192,203686,1,0,0:0:0:0:
402,192,203752,1,0,0:0:0:0:
329,192,203819,1,0,0:0:0:0:
256,192,203886,1,0,0:0:0:0:
109,192,203886,1,0,0:0:0:0:
36,192,203886,1,0,0:0:0:0:
475,192,203886,1,0,0:0:0:0:
329,192,203986,1,0,0:0:0:0:
182,192,203986,1,0,0:0:0:0:
402,192,204086,1,0,0:0:0:0:
109,192,204086,1,0,0:0:0:0:
36,192,204186,1,0,0:0:0:0:
475,192,204186,1,0,0:0:0:0:
182,192,204286,1,0,0:0:0:0:
256,192,204286,1,0,0:0:0:0:
329,192,204286,1,0,0:0:0:0:
402,192,204286,1,0,0:0:0:0:
109,192,204386,1,0,0:0:0:0:
475,192,204386,1,0,0:0:0:0:
36,192,204486,1,0,0:0:0:0:
329,192,204486,1,0,0:0:0:0:
256,192,204586,1,0,0:0:0:0:
402,192,204586,1,0,0:0:0:0:
182,192,204686,1,0,0:0:0:0:
109,192,204686,1,0,0:0:0:0:
36,192,204686,1,0,0:0:0:0:
475,192,204686,1,0,0:0:0:0:
256,192,204786,1,0,0:0:0:0:
402,192,204786,1,0,0:0:0:0:
329,192,204886,1,0,0:0:0:0:
36,192,204886,1,0,0:0:0:0:
109,192,204986,1,0,0:0:0:0:
256,192,204986,1,0,0:0:0:0:
182,192,205086,1,0,0:0:0:0:
329,192,205086,1,0,0:0:0:0:
402,192,205086,1,0,0:0:0:0:
475,192,205086,1,0,0:0:0:0:
36,192,205086,1,0,0:0:0:0:
256,192,205186,1,0,0:0:0:0:
109,192,205186,1,0,0:0:0:0:
182,192,205286,1,0,0:0:0:0:
36,192,205286,1,0,0:0:0:0:
475,192,205286,1,0,0:0:0:0:
402,192,205286,1,0,0:0:0:0:
329,192,205386,1,0,0:0:0:0:
256,192,205386,1,0,0:0:0:0:
182,192,205486,1,0,0:0:0:0:
36,192,205486,1,0,0:0:0:0:
109,192,205486,1,0,0:0:0:0:
402,192,205486,1,0,0:0:0:0:
475,192,205486,1,0,0:0:0:0:
329,192,205586,1,0,0:0:0:0:
256,192,205686,1,0,0:0:0:0:
109,192,205686,1,0,0:0:0:0:
329,192,205786,1,0,0:0:0:0:
402,192,205886,1,0,0:0:0:0:
475,192,205886,1,0,0:0:0:0:
182,192,205886,1,0,0:0:0:0:
36,192,205886,1,0,0:0:0:0:
256,192,205986,1,0,0:0:0:0:
109,192,205986,1,0,0:0:0:0:
329,192,206086,1,0,0:0:0:0:
182,192,206086,1,0,0:0:0:0:
256,192,206186,1,0,0:0:0:0:
402,192,206186,1,0,0:0:0:0:
329,192,206286,1,0,0:0:0:0:
475,192,206286,1,0,0:0:0:0:
109,192,206286,1,0,0:0:0:0:
36,192,206286,1,0,0:0:0:0:
182,192,206386,1,0,0:0:0:0:
402,192,206386,1,0,0:0:0:0:
256,192,206486,1,0,0:0:0:0:
36,192,206486,1,0,0:0:0:0:
109,192,206586,1,0,0:0:0:0:
329,192,206586,1,0,0:0:0:0:
182,192,206686,1,0,0:0:0:0:
402,192,206686,1,0,0:0:0:0:
475,192,206686,1,0,0:0:0:0:
36,192,206686,1,0,0:0:0:0:
109,192,206786,1,0,0:0:0:0:
329,192,206786,1,0,0:0:0:0:
256,192,206886,1,0,0:0:0:0:
475,192,206886,1,0,0:0:0:0:
402,192,206986,1,0,0:0:0:0:
182,192,206986,1,0,0:0:0:0:
329,192,207086,1,0,0:0:0:0:
256,192,207086,1,0,0:0:0:0:
109,192,207086,1,0,0:0:0:0:
36,192,207086,1,0,0:0:0:0:
475,192,207186,1,0,0:0:0:0:
182,192,207186,1,0,0:0:0:0:
329,192,207286,1,0,0:0:0:0:
36,192,207286,1,0,0:0:0:0:
402,192,207386,1,0,0:0:0:0:
109,192,207386,1,0,0:0:0:0:
182,192,207486,1,0,0:0:0:0:
475,192,207486,1,0,0:0:0:0:
329,192,207486,1,0,0:0:0:0:
36,192,207486,1,0,0:0:0:0:
256,192,207586,1,0,0:0:0:0:
109,192,207586,1,0,0:0:0:0:
402,192,207686,1,0,0:0:0:0:
182,192,207686,1,0,0:0:0:0:
329,192,207786,1,0,0:0:0:0:
36,192,207786,1,0,0:0:0:0:
109,192,207886,1,0,0:0:0:0:
256,192,207886,1,0,0:0:0:0:
402,192,207886,1,0,0:0:0:0:
475,192,207886,1,0,0:0:0:0:
329,192,207986,1,0,0:0:0:0:
182,192,207986,1,0,0:0:0:0:
256,192,208086,1,0,0:0:0:0:
475,192,208086,1,0,0:0:0:0:
402,192,208186,1,0,0:0:0:0:
182,192,208186,1,0,0:0:0:0:
109,192,208286,1,0,0:0:0:0:
256,192,208286,1,0,0:0:0:0:
329,192,208286,1,0,0:0:0:0:
36,192,208286,1,0,0:0:0:0:
402,192,208386,1,0,0:0:0:0:
182,192,208386,1,0,0:0:0:0:
475,192,208486,1,0,0:0:0:0:
256,192,208486,1,0,0:0:0:0:
109,192,208586,1,0,0:0:0:0:
329,192,208586,1,0,0:0:0:0:
182,192,208686,1,0,0:0:0:0:
36,192,208686,1,0,0:0:0:0:
402,192,208686,1,0,0:0:0:0:
475,192,208686,1,0,0:0:0:0:
256,192,208752,1,0,0:0:0:0:
329,192,208819,1,0,0:0:0:0:
402,192,208886,1,0,0:0:0:0:
109,192,208886,1,0,0:0:0:0:
182,192,208952,1,0,0:0:0:0:
256,192,209019,1,0,0:0:0:0:
329,192,209086,1,0,0:0:0:0:
36,192,209086,1,0,0:0:0:0:
109,192,209152,1,0,0:0:0:0:
182,192,209219,1,0,0:0:0:0:
256,192,209286,1,0,0:0:0:0:
475,192,209286,1,0,0:0:0:0:
402,192,209352,1,0,0:0:0:0:
329,192,209419,1,0,0:0:0:0:
256,192,209486,1,0,0:0:0:0:
36,192,209486,1,0,0:0:0:0:
475,192,209486,1,0,0:0:0:0:
109,192,209552,1,0,0:0:0:0:
402,192,209586,1,0,0:0:0:0:
182,192,209619,1,0,0:0:0:0:
36,192,209686,1,0,0:0:0:0:
329,192,209686,1,0,0:0:0:0:
109,192,209752,1,0,0:0:0:0:
475,192,209786,1,0,0:0:0:0:
182,192,209819,1,0,0:0:0:0:
36,192,209886,1,0,0:0:0:0:
256,192,209886,1,0,0:0:0:0:
402,192,209952,1,0,0:0:0:0:
109,192,209986,1,0,0:0:0:0:
475,192,210019,1,0,0:0:0:0:
329,192,210086,1,0,0:0:0:0:
182,192,210086,1,0,0:0:0:0:
402,192,210152,1,0,0:0:0:0:
36,192,210186,1,0,0:0:0:0:
475,192,210219,1,0,0:0:0:0:
256,192,210286,1,0,0:0:0:0:
182,192,210286,1,0,0:0:0:0:
109,192,210286,1,0,0:0:0:0:
329,192,210352,1,0,0:0:0:0:
402,192,210419,1,0,0:0:0:0:
182,192,210486,1,0,0:0:0:0:
475,192,210486,1,0,0:0:0:0:
36,192,210486,1,0,0:0:0:0:
256,192,210552,1,0,0:0:0:0:
329,192,210619,1,0,0:0:0:0:
109,192,210686,1,0,0:0:0:0:
402,192,210686,1,0,0:0:0:0:
475,192,210686,1,0,0:0:0:0:
182,192,210752,5,0,0:0:0:0:
256,192,210819,1,0,0:0:0:0:
36,192,210886,1,0,0:0:0:0:
329,192,210886,1,0,0:0:0:0:
475,192,210886,1,0,0:0:0:0:
109,192,210952,1,0,0:0:0:0:
182,192,211019,1,0,0:0:0:0:
256,192,211086,1,0,0:0:0:0:
402,192,211086,1,0,0:0:0:0:
182,192,211186,1,0,0:0:0:0:
329,192,211186,1,0,0:0:0:0:
256,192,211286,1,0,0:0:0:0:
109,192,211286,1,0,0:0:0:0:
182,192,211386,1,0,0:0:0:0:
36,192,211386,1,0,0:0:0:0:
109,192,211486,1,0,0:0:0:0:
256,192,211486,1,0,0:0:0:0:
475,192,211486,1,0,0:0:0:0:
402,192,211486,1,0,0:0:0:0:
329,192,211586,1,0,0:0:0:0:
182,192,211586,1,0,0:0:0:0:
256,192,211686,1,0,0:0:0:0:
475,192,211686,1,0,0:0:0:0:
36,192,211686,1,0,0:0:0:0:
109,192,211786,1,0,0:0:0:0:
402,192,211786,1,0,0:0:0:0:
182,192,211886,1,0,0:0:0:0:
36,192,211886,1,0,0:0:0:0:
329,192,211886,1,0,0:0:0:0:
475,192,211886,1,0,0:0:0:0:
256,192,211986,1,0,0:0:0:0:
329,192,212086,1,0,0:0:0:0:
256,192,212186,1,0,0:0:0:0:
182,192,212286,1,0,0:0:0:0:
402,192,212286,1,0,0:0:0:0:
475,192,212286,1,0,0:0:0:0:
329,192,212386,1,0,0:0:0:0:
256,192,212486,1,0,0:0:0:0:
182,192,212586,1,0,0:0:0:0:
256,192,212686,1,0,0:0:0:0:
109,192,212686,1,0,0:0:0:0:
36,192,212686,1,0,0:0:0:0:
329,192,212786,1,0,0:0:0:0:
256,192,212886,1,0,0:0:0:0:
182,192,212986,1,0,0:0:0:0:
329,192,213086,1,0,0:0:0:0:
402,192,213086,1,0,0:0:0:0:
475,192,213086,1,0,0:0:0:0:
256,192,213186,1,0,0:0:0:0:
182,192,213286,1,0,0:0:0:0:
256,192,213386,1,0,0:0:0:0:
329,192,213486,1,0,0:0:0:0:
36,192,213486,1,0,0:0:0:0:
109,192,213486,1,0,0:0:0:0:
475,192,213486,1,0,0:0:0:0:
36,192,213586,1,0,0:0:0:0:
109,192,213586,1,0,0:0:0:0:
329,192,213586,1,0,0:0:0:0:
475,192,213586,1,0,0:0:0:0:
256,192,213686,1,0,0:0:0:0:
182,192,213786,1,0,0:0:0:0:
109,192,213886,1,0,0:0:0:0:
36,192,213886,1,0,0:0:0:0:
329,192,213886,1,0,0:0:0:0:
402,192,213886,1,0,0:0:0:0:
182,192,213986,1,0,0:0:0:0:
256,192,214086,1,0,0:0:0:0:
182,192,214186,1,0,0:0:0:0:
402,192,214286,1,0,0:0:0:0:
475,192,214286,1,0,0:0:0:0:
36,192,214286,1,0,0:0:0:0:
329,192,214286,1,0,0:0:0:0:
36,192,214386,1,0,0:0:0:0:
329,192,214386,1,0,0:0:0:0:
402,192,214386,1,0,0:0:0:0:
475,192,214386,1,0,0:0:0:0:
256,192,214486,1,0,0:0:0:0:
182,192,214586,1,0,0:0:0:0:
109,192,214686,1,0,0:0:0:0:
36,192,214686,1,0,0:0:0:0:
402,192,214686,1,0,0:0:0:0:
475,192,214686,1,0,0:0:0:0:
182,192,214786,1,0,0:0:0:0:
256,192,214886,1,0,0:0:0:0:
329,192,214986,1,0,0:0:0:0:
402,192,215086,1,0,0:0:0:0:
475,192,215086,1,0,0:0:0:0:
109,192,215086,1,0,0:0:0:0:
182,192,215186,1,0,0:0:0:0:
256,192,215286,1,0,0:0:0:0:
182,192,215386,1,0,0:0:0:0:
109,192,215486,1,0,0:0:0:0:
329,192,215486,1,0,0:0:0:0:
475,192,215486,1,0,0:0:0:0:
256,192,215586,1,0,0:0:0:0:
182,192,215686,1,0,0:0:0:0:
109,192,215786,1,0,0:0:0:0:
182,192,215886,1,0,0:0:0:0:
402,192,215886,1,0,0:0:0:0:
475,192,215886,1,0,0:0:0:0:
256,192,215986,1,0,0:0:0:0:
109,192,216086,1,0,0:0:0:0:
182,192,216186,1,0,0:0:0:0:
256,192,216286,1,0,0:0:0:0:
36,192,216286,1,0,0:0:0:0:
402,192,216286,1,0,0:0:0:0:
182,192,216386,1,0,0:0:0:0:
109,192,216486,1,0,0:0:0:0:
256,192,216586,1,0,0:0:0:0:
182,192,216686,1,0,0:0:0:0:
36,192,216686,1,0,0:0:0:0:
402,192,216686,1,0,0:0:0:0:
475,192,216686,1,0,0:0:0:0:
182,192,216786,1,0,0:0:0:0:
36,192,216786,1,0,0:0:0:0:
402,192,216786,1,0,0:0:0:0:
475,192,216786,1,0,0:0:0:0:
329,192,216886,1,0,0:0:0:0:
256,192,216986,1,0,0:0:0:0:
182,192,217086,1,0,0:0:0:0:
109,192,217086,1,0,0:0:0:0:
402,192,217086,1,0,0:0:0:0:
475,192,217086,1,0,0:0:0:0:
402,192,217186,1,0,0:0:0:0:
475,192,217186,1,0,0:0:0:0:
182,192,217186,1,0,0:0:0:0:
109,192,217186,1,0,0:0:0:0:
256,192,217286,1,0,0:0:0:0:
329,192,217386,1,0,0:0:0:0:
475,192,217486,1,0,0:0:0:0:
402,192,217486,1,0,0:0:0:0:
36,192,217486,1,0,0:0:0:0:
109,192,217486,1,0,0:0:0:0:
256,192,217586,1,0,0:0:0:0:
182,192,217686,1,0,0:0:0:0:
329,192,217786,1,0,0:0:0:0:
475,192,217886,1,0,0:0:0:0:
109,192,217886,1,0,0:0:0:0:
36,192,217886,1,0,0:0:0:0:
256,192,217886,1,0,0:0:0:0:
182,192,217886,1,0,0:0:0:0:
329,192,217986,1,0,0:0:0:0:
182,192,218086,1,0,0:0:0:0:
256,192,218186,1,0,0:0:0:0:
329,192,218286,1,0,0:0:0:0:
402,192,218286,1,0,0:0:0:0:
475,192,218286,1,0,0:0:0:0:
36,192,218286,1,0,0:0:0:0:
109,192,218286,1,0,0:0:0:0:
182,192,218386,1,0,0:0:0:0:
36,192,218486,1,0,0:0:0:0:
329,192,218486,1,0,0:0:0:0:
109,192,218552,1,0,0:0:0:0:
182,192,218619,1,0,0:0:0:0:
329,192,218686,1,0,0:0:0:0:
36,192,218686,1,0,0:0:0:0:
256,192,218686,1,0,0:0:0:0:
402,192,218752,1,0,0:0:0:0:
475,192,218819,1,0,0:0:0:0:
182,192,218886,1,0,0:0:0:0:
109,192,218886,1,0,0:0:0:0:
256,192,218952,1,0,0:0:0:0:
329,192,219019,1,0,0:0:0:0:
402,192,219086,1,0,0:0:0:0:
475,192,219086,1,0,0:0:0:0:
36,192,219086,1,0,0:0:0:0:
109,192,219086,1,0,0:0:0:0:
256,192,219186,1,0,0:0:0:0:
182,192,219286,1,0,0:0:0:0:
329,192,219386,1,0,0:0:0:0:
256,192,219486,1,0,0:0:0:0:
109,192,219486,1,0,0:0:0:0:
475,192,219486,1,0,0:0:0:0:
402,192,219586,1,0,0:0:0:0:
329,192,219686,1,0,0:0:0:0:
182,192,219686,1,0,0:0:0:0:
109,192,219786,1,0,0:0:0:0:
36,192,219886,1,0,0:0:0:0:
256,192,219886,1,0,0:0:0:0:
402,192,219886,1,0,0:0:0:0:
475,192,219886,1,0,0:0:0:0:
182,192,219986,1,0,0:0:0:0:
109,192,220086,1,0,0:0:0:0:
329,192,220086,1,0,0:0:0:0:
256,192,220186,1,0,0:0:0:0:
182,192,220286,1,0,0:0:0:0:
36,192,220286,1,0,0:0:0:0:
402,192,220286,1,0,0:0:0:0:
256,192,220386,1,0,0:0:0:0:
329,192,220486,1,0,0:0:0:0:
475,192,220486,1,0,0:0:0:0:
109,192,220486,1,0,0:0:0:0:
182,192,220586,1,0,0:0:0:0:
256,192,220686,1,0,0:0:0:0:
402,192,220686,1,0,0:0:0:0:
475,192,220686,1,0,0:0:0:0:
109,192,220786,1,0,0:0:0:0:
182,192,220886,1,0,0:0:0:0:
329,192,220886,1,0,0:0:0:0:
36,192,220986,1,0,0:0:0:0:
109,192,221086,1,0,0:0:0:0:
256,192,221086,1,0,0:0:0:0:
402,192,221086,1,0,0:0:0:0:
475,192,221186,1,0,0:0:0:0:
329,192,221286,1,0,0:0:0:0:
182,192,221286,1,0,0:0:0:0:
402,192,221386,1,0,0:0:0:0:
475,192,221486,1,0,0:0:0:0:
256,192,221486,1,0,0:0:0:0:
36,192,221486,1,0,0:0:0:0:
109,192,221486,1,0,0:0:0:0:
182,192,221486,1,0,0:0:0:0:
36,192,221636,1,0,0:0:0:0:
109,192,221636,1,0,0:0:0:0:
182,192,221636,1,0,0:0:0:0:
256,192,221636,1,0,0:0:0:0:
475,192,221636,1,0,0:0:0:0:
475,192,221786,1,0,0:0:0:0:
256,192,221786,1,0,0:0:0:0:
182,192,221786,1,0,0:0:0:0:
109,192,221786,1,0,0:0:0:0:
36,192,221786,1,0,0:0:0:0:
329,192,221886,1,0,0:0:0:0:
402,192,221952,1,0,0:0:0:0:
475,192,222019,1,0,0:0:0:0:
182,192,222086,1,0,0:0:0:0:
256,192,222152,1,0,0:0:0:0:
329,192,222219,1,0,0:0:0:0:
402,192,222286,1,0,0:0:0:0:
475,192,222286,1,0,0:0:0:0:
182,192,222286,1,0,0:0:0:0:
109,192,222286,1,0,0:0:0:0:
36,192,222286,1,0,0:0:0:0:
402,192,222436,1,0,0:0:0:0:
475,192,222436,1,0,0:0:0:0:
182,192,222436,1,0,0:0:0:0:
109,192,222436,1,0,0:0:0:0:
36,192,222436,1,0,0:0:0:0:
36,192,222586,1,0,0:0:0:0:
109,192,222586,1,0,0:0:0:0:
182,192,222586,1,0,0:0:0:0:
402,192,222586,1,0,0:0:0:0:
475,192,222586,1,0,0:0:0:0:
256,192,222686,1,0,0:0:0:0:
182,192,222752,1,0,0:0:0:0:
109,192,222819,1,0,0:0:0:0:
402,192,222886,1,0,0:0:0:0:
329,192,222952,1,0,0:0:0:0:
256,192,223019,1,0,0:0:0:0:
182,192,223086,1,0,0:0:0:0:
109,192,223086,1,0,0:0:0:0:
36,192,223086,1,0,0:0:0:0:
402,192,223086,1,0,0:0:0:0:
475,192,223086,1,0,0:0:0:0:
475,192,223219,1,0,0:0:0:0:
402,192,223219,1,0,0:0:0:0:
182,192,223219,1,0,0:0:0:0:
109,192,223219,1,0,0:0:0:0:
36,192,223219,1,0,0:0:0:0:
402,192,223352,1,0,0:0:0:0:
475,192,223352,1,0,0:0:0:0:
182,192,223352,1,0,0:0:0:0:
36,192,223352,1,0,0:0:0:0:
109,192,223352,1,0,0:0:0:0:
109,192,223486,1,0,0:0:0:0:
36,192,223486,1,0,0:0:0:0:
256,192,223486,1,0,0:0:0:0:
402,192,223486,1,0,0:0:0:0:
475,192,223486,1,0,0:0:0:0:
475,192,223619,1,0,0:0:0:0:
402,192,223619,1,0,0:0:0:0:
256,192,223619,1,0,0:0:0:0:
109,192,223619,1,0,0:0:0:0:
36,192,223619,1,0,0:0:0:0:
109,192,223752,1,0,0:0:0:0:
36,192,223752,1,0,0:0:0:0:
256,192,223752,1,0,0:0:0:0:
402,192,223752,1,0,0:0:0:0:
475,192,223752,1,0,0:0:0:0:
36,192,223886,1,0,0:0:0:0:
182,192,223886,1,0,0:0:0:0:
329,192,223886,1,0,0:0:0:0:
402,192,223886,1,0,0:0:0:0:
475,192,223886,1,0,0:0:0:0:
182,192,224019,1,0,0:0:0:0:
36,192,224019,1,0,0:0:0:0:
329,192,224019,1,0,0:0:0:0:
402,192,224019,1,0,0:0:0:0:
475,192,224019,1,0,0:0:0:0:
36,192,224152,1,0,0:0:0:0:
182,192,224152,1,0,0:0:0:0:
329,192,224152,1,0,0:0:0:0:
402,192,224152,1,0,0:0:0:0:
475,192,224152,1,0,0:0:0:0:
36,192,224286,1,0,0:0:0:0:
256,192,224286,1,0,0:0:0:0:
402,192,224286,1,0,0:0:0:0:
475,192,224286,1,0,0:0:0:0:
329,192,224286,1,0,0:0:0:0:
182,192,224286,1,0,0:0:0:0:
109,192,224352,1,0,0:0:0:0:
182,192,224419,1,0,0:0:0:0:
256,192,224486,1,0,0:0:0:0:
329,192,224552,1,0,0:0:0:0:
402,192,224619,1,0,0:0:0:0:
475,192,224686,1,0,0:0:0:0:
109,192,224686,1,0,0:0:0:0:
182,192,224686,1,0,0:0:0:0:
36,192,224686,1,0,0:0:0:0:
329,192,224786,1,0,0:0:0:0:
182,192,224886,1,0,0:0:0:0:
402,192,224886,1,0,0:0:0:0:
256,192,224986,1,0,0:0:0:0:
329,192,225086,1,0,0:0:0:0:
475,192,225086,1,0,0:0:0:0:
402,192,225086,1,0,0:0:0:0:
109,192,225086,1,0,0:0:0:0:
36,192,225086,1,0,0:0:0:0:
182,192,225186,1,0,0:0:0:0:
256,192,225186,1,0,0:0:0:0:
109,192,225286,1,0,0:0:0:0:
402,192,225286,1,0,0:0:0:0:
475,192,225286,1,0,0:0:0:0:
329,192,225386,1,0,0:0:0:0:
182,192,225386,1,0,0:0:0:0:
256,192,225486,1,0,0:0:0:0:
109,192,225486,1,0,0:0:0:0:
36,192,225486,1,0,0:0:0:0:
475,192,225486,1,0,0:0:0:0:
402,192,225486,1,0,0:0:0:0:
329,192,225586,1,0,0:0:0:0:
182,192,225586,1,0,0:0:0:0:
36,192,225686,1,0,0:0:0:0:
256,192,225686,1,0,0:0:0:0:
475,192,225686,1,0,0:0:0:0:
182,192,225786,1,0,0:0:0:0:
402,192,225786,1,0,0:0:0:0:
329,192,225886,1,0,0:0:0:0:
475,192,225886,1,0,0:0:0:0:
256,192,225886,1,0,0:0:0:0:
36,192,225886,1,0,0:0:0:0:
109,192,225886,1,0,0:0:0:0:
182,192,225986,1,0,0:0:0:0:
402,192,225986,1,0,0:0:0:0:
36,192,226086,1,0,0:0:0:0:
109,192,226086,1,0,0:0:0:0:
329,192,226086,1,0,0:0:0:0:
256,192,226186,1,0,0:0:0:0:
402,192,226186,1,0,0:0:0:0:
182,192,226286,1,0,0:0:0:0:
475,192,226286,1,0,0:0:0:0:
329,192,226286,1,0,0:0:0:0:
109,192,226286,1,0,0:0:0:0:
36,192,226286,1,0,0:0:0:0:
182,192,226386,1,0,0:0:0:0:
109,192,226386,1,0,0:0:0:0:
36,192,226386,1,0,0:0:0:0:
329,192,226386,1,0,0:0:0:0:
475,192,226386,1,0,0:0:0:0:
256,192,226486,1,0,0:0:0:0:
329,192,226586,1,0,0:0:0:0:
402,192,226686,1,0,0:0:0:0:
475,192,226686,1,0,0:0:0:0:
182,192,226686,1,0,0:0:0:0:
256,192,226686,1,0,0:0:0:0:
36,192,226686,1,0,0:0:0:0:
109,192,226786,1,0,0:0:0:0:
329,192,226886,1,0,0:0:0:0:
182,192,226886,1,0,0:0:0:0:
256,192,226986,1,0,0:0:0:0:
182,192,227086,1,0,0:0:0:0:
109,192,227086,1,0,0:0:0:0:
36,192,227086,1,0,0:0:0:0:
329,192,227086,1,0,0:0:0:0:
475,192,227086,1,0,0:0:0:0:
182,192,227186,1,0,0:0:0:0:
109,192,227186,1,0,0:0:0:0:
36,192,227186,1,0,0:0:0:0:
329,192,227186,1,0,0:0:0:0:
475,192,227186,1,0,0:0:0:0:
256,192,227286,1,0,0:0:0:0:
182,192,227386,1,0,0:0:0:0:
36,192,227486,1,0,0:0:0:0:
109,192,227486,1,0,0:0:0:0:
329,192,227486,1,0,0:0:0:0:
402,192,227486,1,0,0:0:0:0:
475,192,227486,1,0,0:0:0:0:
182,192,227586,1,0,0:0:0:0:
256,192,227686,1,0,0:0:0:0:
402,192,227686,1,0,0:0:0:0:
182,192,227786,1,0,0:0:0:0:
109,192,227886,1,0,0:0:0:0:
36,192,227886,1,0,0:0:0:0:
329,192,227886,1,0,0:0:0:0:
475,192,227886,1,0,0:0:0:0:
256,192,227886,1,0,0:0:0:0:
182,192,227986,1,0,0:0:0:0:
402,192,227986,1,0,0:0:0:0:
329,192,228086,1,0,0:0:0:0:
36,192,228086,1,0,0:0:0:0:
475,192,228086,1,0,0:0:0:0:
109,192,228186,1,0,0:0:0:0:
256,192,228186,1,0,0:0:0:0:
182,192,228286,1,0,0:0:0:0:
329,192,228286,1,0,0:0:0:0:
475,192,228286,1,0,0:0:0:0:
402,192,228286,1,0,0:0:0:0:
36,192,228286,1,0,0:0:0:0:
256,192,228386,1,0,0:0:0:0:
109,192,228386,1,0,0:0:0:0:
182,192,228486,1,0,0:0:0:0:
475,192,228486,1,0,0:0:0:0:
329,192,228486,1,0,0:0:0:0:
402,192,228586,1,0,0:0:0:0:
109,192,228586,1,0,0:0:0:0:
36,192,228686,1,0,0:0:0:0:
182,192,228686,1,0,0:0:0:0:
256,192,228686,1,0,0:0:0:0:
329,192,228686,1,0,0:0:0:0:
475,192,228686,1,0,0:0:0:0:
109,192,228786,1,0,0:0:0:0:
402,192,228786,1,0,0:0:0:0:
329,192,228886,1,0,0:0:0:0:
182,192,228886,1,0,0:0:0:0:
256,192,228886,1,0,0:0:0:0:
109,192,228986,1,0,0:0:0:0:
402,192,228986,1,0,0:0:0:0:
475,192,229086,1,0,0:0:0:0:
36,192,229086,1,0,0:0:0:0:
182,192,229086,1,0,0:0:0:0:
256,192,229086,1,0,0:0:0:0:
329,192,229086,1,0,0:0:0:0:
109,192,229186,1,0,0:0:0:0:
402,192,229186,1,0,0:0:0:0:
36,192,229286,1,0,0:0:0:0:
256,192,229286,1,0,0:0:0:0:
329,192,229286,1,0,0:0:0:0:
182,192,229386,1,0,0:0:0:0:
402,192,229386,1,0,0:0:0:0:
109,192,229486,1,0,0:0:0:0:
36,192,229486,1,0,0:0:0:0:
329,192,229486,1,0,0:0:0:0:
475,192,229486,1,0,0:0:0:0:
256,192,229486,1,0,0:0:0:0:
256,192,229586,1,0,0:0:0:0:
36,192,229586,1,0,0:0:0:0:
109,192,229586,1,0,0:0:0:0:
329,192,229586,1,0,0:0:0:0:
475,192,229586,1,0,0:0:0:0:
182,192,229686,1,0,0:0:0:0:
256,192,229786,1,0,0:0:0:0:
109,192,229886,1,0,0:0:0:0:
36,192,229886,1,0,0:0:0:0:
329,192,229886,1,0,0:0:0:0:
402,192,229886,1,0,0:0:0:0:
475,192,229886,1,0,0:0:0:0:
36,192,229986,1,0,0:0:0:0:
109,192,229986,1,0,0:0:0:0:
329,192,229986,1,0,0:0:0:0:
475,192,229986,1,0,0:0:0:0:
402,192,229986,1,0,0:0:0:0:
256,192,230086,1,0,0:0:0:0:
182,192,230186,1,0,0:0:0:0:
36,192,230286,1,0,0:0:0:0:
329,192,230286,1,0,0:0:0:0:
475,192,230286,1,0,0:0:0:0:
402,192,230286,1,0,0:0:0:0:
256,192,230286,1,0,0:0:0:0:
109,192,230386,1,0,0:0:0:0:
182,192,230486,1,0,0:0:0:0:
36,192,230486,1,0,0:0:0:0:
475,192,230486,1,0,0:0:0:0:
402,192,230552,1,0,0:0:0:0:
329,192,230619,1,0,0:0:0:0:
256,192,230686,1,0,0:0:0:0:
109,192,230686,1,0,0:0:0:0:
36,192,230686,1,0,0:0:0:0:
475,192,230686,1,0,0:0:0:0:
182,192,230786,1,0,0:0:0:0:
402,192,230786,1,0,0:0:0:0:
329,192,230886,1,0,0:0:0:0:
109,192,230886,1,0,0:0:0:0:
475,192,230886,1,0,0:0:0:0:
256,192,230986,1,0,0:0:0:0:
36,192,230986,1,0,0:0:0:0:
182,192,231086,1,0,0:0:0:0:
109,192,231086,1,0,0:0:0:0:
402,192,231086,1,0,0:0:0:0:
329,192,231086,1,0,0:0:0:0:
475,192,231086,1,0,0:0:0:0:
256,192,231186,1,0,0:0:0:0:
36,192,231186,1,0,0:0:0:0:
182,192,231286,1,0,0:0:0:0:
329,192,231286,1,0,0:0:0:0:
475,192,231286,1,0,0:0:0:0:
256,192,231386,1,0,0:0:0:0:
109,192,231386,1,0,0:0:0:0:
182,192,231486,1,0,0:0:0:0:
36,192,231486,1,0,0:0:0:0:
402,192,231486,1,0,0:0:0:0:
475,192,231486,1,0,0:0:0:0:
329,192,231486,1,0,0:0:0:0:
109,192,231586,1,0,0:0:0:0:
256,192,231586,1,0,0:0:0:0:
182,192,231686,1,0,0:0:0:0:
329,192,231686,1,0,0:0:0:0:
475,192,231686,1,0,0:0:0:0:
402,192,231786,1,0,0:0:0:0:
256,192,231786,1,0,0:0:0:0:
329,192,231886,1,0,0:0:0:0:
475,192,231886,1,0,0:0:0:0:
109,192,231886,1,0,0:0:0:0:
36,192,231886,1,0,0:0:0:0:
182,192,231952,1,0,0:0:0:0:
256,192,232019,1,0,0:0:0:0:
329,192,232086,1,0,0:0:0:0:
36,192,232086,1,0,0:0:0:0:
475,192,232086,1,0,0:0:0:0:
109,192,232152,1,0,0:0:0:0:
182,192,232219,1,0,0:0:0:0:
256,192,232286,1,0,0:0:0:0:
402,192,232286,1,0,0:0:0:0:
475,192,232286,1,0,0:0:0:0:
36,192,232286,1,0,0:0:0:0:
329,192,232386,1,0,0:0:0:0:
109,192,232386,1,0,0:0:0:0:
256,192,232486,1,0,0:0:0:0:
475,192,232486,1,0,0:0:0:0:
36,192,232486,1,0,0:0:0:0:
402,192,232586,1,0,0:0:0:0:
182,192,232586,1,0,0:0:0:0:
109,192,232686,1,0,0:0:0:0:
329,192,232686,1,0,0:0:0:0:
475,192,232686,1,0,0:0:0:0:
36,192,232686,1,0,0:0:0:0:
256,192,232786,1,0,0:0:0:0:
402,192,232786,1,0,0:0:0:0:
329,192,232886,1,0,0:0:0:0:
182,192,232886,1,0,0:0:0:0:
475,192,232886,1,0,0:0:0:0:
256,192,232986,1,0,0:0:0:0:
109,192,232986,1,0,0:0:0:0:
182,192,233086,1,0,0:0:0:0:
36,192,233086,1,0,0:0:0:0:
402,192,233086,1,0,0:0:0:0:
475,192,233086,1,0,0:0:0:0:
329,192,233186,1,0,0:0:0:0:
109,192,233186,1,0,0:0:0:0:
256,192,233286,1,0,0:0:0:0:
475,192,233286,1,0,0:0:0:0:
36,192,233286,1,0,0:0:0:0:
402,192,233386,1,0,0:0:0:0:
182,192,233386,1,0,0:0:0:0:
329,192,233486,1,0,0:0:0:0:
109,192,233486,1,0,0:0:0:0:
36,192,233486,1,0,0:0:0:0:
475,192,233486,1,0,0:0:0:0:
402,192,233586,1,0,0:0:0:0:
182,192,233586,1,0,0:0:0:0:
256,192,233686,1,0,0:0:0:0:
475,192,233686,1,0,0:0:0:0:
36,192,233686,1,0,0:0:0:0:
182,192,233786,1,0,0:0:0:0:
329,192,233786,1,0,0:0:0:0:
256,192,233886,1,0,0:0:0:0:
475,192,233886,1,0,0:0:0:0:
109,192,233886,1,0,0:0:0:0:
36,192,233886,1,0,0:0:0:0:
182,192,233986,1,0,0:0:0:0:
402,192,233986,1,0,0:0:0:0:
329,192,234086,1,0,0:0:0:0:
109,192,234086,1,0,0:0:0:0:
475,192,234086,1,0,0:0:0:0:
402,192,234186,1,0,0:0:0:0:
256,192,234186,1,0,0:0:0:0:
182,192,234286,1,0,0:0:0:0:
36,192,234286,1,0,0:0:0:0:
109,192,234286,1,0,0:0:0:0:
329,192,234286,1,0,0:0:0:0:
475,192,234286,1,0,0:0:0:0:
256,192,234386,1,0,0:0:0:0:
402,192,234386,1,0,0:0:0:0:
109,192,234486,1,0,0:0:0:0:
329,192,234486,1,0,0:0:0:0:
36,192,234486,1,0,0:0:0:0:
182,192,234586,1,0,0:0:0:0:
402,192,234586,1,0,0:0:0:0:
256,192,234686,1,0,0:0:0:0:
475,192,234686,1,0,0:0:0:0:
36,192,234686,1,0,0:0:0:0:
109,192,234686,1,0,0:0:0:0:
182,192,234786,1,0,0:0:0:0:
329,192,234786,1,0,0:0:0:0:
256,192,234886,1,0,0:0:0:0:
475,192,234886,1,0,0:0:0:0:
109,192,234886,1,0,0:0:0:0:
402,192,234986,1,0,0:0:0:0:
182,192,234986,1,0,0:0:0:0:
329,192,235086,1,0,0:0:0:0:
475,192,235086,1,0,0:0:0:0:
256,192,235086,1,0,0:0:0:0:
36,192,235086,1,0,0:0:0:0:
109,192,235186,1,0,0:0:0:0:
402,192,235186,1,0,0:0:0:0:
182,192,235286,1,0,0:0:0:0:
329,192,235286,1,0,0:0:0:0:
36,192,235286,1,0,0:0:0:0:
256,192,235386,1,0,0:0:0:0:
109,192,235386,1,0,0:0:0:0:
402,192,235486,1,0,0:0:0:0:
475,192,235486,1,0,0:0:0:0:
329,192,235486,1,0,0:0:0:0:
182,192,235486,1,0,0:0:0:0:
36,192,235586,1,0,0:0:0:0:
256,192,235586,1,0,0:0:0:0:
109,192,235686,1,0,0:0:0:0:
329,192,235686,1,0,0:0:0:0:
475,192,235686,1,0,0:0:0:0:
402,192,235786,1,0,0:0:0:0:
256,192,235786,1,0,0:0:0:0:
182,192,235886,1,0,0:0:0:0:
109,192,235886,1,0,0:0:0:0:
36,192,235886,1,0,0:0:0:0:
475,192,235886,1,0,0:0:0:0:
329,192,235886,1,0,0:0:0:0:
256,192,235986,1,0,0:0:0:0:
402,192,235986,1,0,0:0:0:0:
329,192,236086,1,0,0:0:0:0:
182,192,236086,1,0,0:0:0:0:
256,192,236186,1,0,0:0:0:0:
109,192,236186,1,0,0:0:0:0:
182,192,236286,1,0,0:0:0:0:
36,192,236286,1,0,0:0:0:0:
329,192,236286,1,0,0:0:0:0:
475,192,236286,1,0,0:0:0:0:
402,192,236386,1,0,0:0:0:0:
256,192,236386,1,0,0:0:0:0:
329,192,236486,1,0,0:0:0:0:
182,192,236486,1,0,0:0:0:0:
256,192,236586,1,0,0:0:0:0:
109,192,236586,1,0,0:0:0:0:
182,192,236686,1,0,0:0:0:0:
36,192,236686,1,0,0:0:0:0:
402,192,236686,1,0,0:0:0:0:
475,192,236686,1,0,0:0:0:0:
329,192,236786,1,0,0:0:0:0:
109,192,236786,1,0,0:0:0:0:
256,192,236886,1,0,0:0:0:0:
36,192,236886,1,0,0:0:0:0:
182,192,236986,1,0,0:0:0:0:
475,192,236986,1,0,0:0:0:0:
402,192,237086,1,0,0:0:0:0:
109,192,237086,1,0,0:0:0:0:
36,192,237086,1,0,0:0:0:0:
329,192,237086,1,0,0:0:0:0:
182,192,237152,1,0,0:0:0:0:
256,192,237219,1,0,0:0:0:0:
329,192,237286,1,0,0:0:0:0:
36,192,237286,1,0,0:0:0:0:
475,192,237286,1,0,0:0:0:0:
109,192,237352,1,0,0:0:0:0:
182,192,237419,1,0,0:0:0:0:
256,192,237486,1,0,0:0:0:0:
402,192,237486,1,0,0:0:0:0:
475,192,237486,1,0,0:0:0:0:
329,192,237486,1,0,0:0:0:0:
329,192,237886,1,0,0:0:0:0:
402,192,238086,1,0,0:0:0:0:
182,192,238286,1,0,0:0:0:0:
256,192,238286,1,0,0:0:0:0:
329,192,239086,1,0,0:0:0:0:
402,192,239086,1,0,0:0:0:0:
256,192,239286,1,0,0:0:0:0:
182,192,239486,1,0,0:0:0:0:
402,192,239686,5,0,0:0:0:0:
329,192,239752,1,0,0:0:0:0:
256,192,239819,1,0,0:0:0:0:
182,192,239886,1,0,0:0:0:0:
36,192,239886,1,0,0:0:0:0:
182,192,240086,1,0,0:0:0:0:
36,192,240086,1,0,0:0:0:0:
109,192,240286,1,0,0:0:0:0:
256,192,240286,1,0,0:0:0:0:
329,192,240286,1,0,0:0:0:0:
475,192,240286,1,0,0:0:0:0:
402,192,240286,1,0,0:0:0:0:
182,192,240686,1,0,0:0:0:0:
36,192,240686,1,0,0:0:0:0:
329,192,240686,1,0,0:0:0:0:
402,192,240686,1,0,0:0:0:0:
475,192,240686,1,0,0:0:0:0:
256,192,240686,1,0,0:0:0:0:
402,192,240886,1,0,0:0:0:0:
109,192,240886,1,0,0:0:0:0:
329,192,240986,1,0,0:0:0:0:
475,192,241086,1,0,0:0:0:0:
36,192,241086,1,0,0:0:0:0:
182,192,241086,1,0,0:0:0:0:
256,192,241086,1,0,0:0:0:0:
329,192,241186,1,0,0:0:0:0:
109,192,241186,1,0,0:0:0:0:
402,192,241286,1,0,0:0:0:0:
182,192,241286,1,0,0:0:0:0:
475,192,241386,1,0,0:0:0:0:
36,192,241386,1,0,0:0:0:0:
402,192,241486,1,0,0:0:0:0:
109,192,241486,1,0,0:0:0:0:
256,192,241486,1,0,0:0:0:0:
329,192,241486,1,0,0:0:0:0:
182,192,241586,1,0,0:0:0:0:
475,192,241586,1,0,0:0:0:0:
36,192,241686,1,0,0:0:0:0:
402,192,241686,1,0,0:0:0:0:
109,192,241786,1,0,0:0:0:0:
329,192,241786,1,0,0:0:0:0:
475,192,241886,1,0,0:0:0:0:
182,192,241886,1,0,0:0:0:0:
256,192,241886,1,0,0:0:0:0:
402,192,241886,1,0,0:0:0:0:
329,192,241986,1,0,0:0:0:0:
36,192,241986,1,0,0:0:0:0:
402,192,242086,1,0,0:0:0:0:
109,192,242086,1,0,0:0:0:0:
256,192,242186,1,0,0:0:0:0:
182,192,242286,1,0,0:0:0:0:
109,192,242286,1,0,0:0:0:0:
36,192,242286,1,0,0:0:0:0:
329,192,242286,1,0,0:0:0:0:
475,192,242286,1,0,0:0:0:0:
402,192,242386,1,0,0:0:0:0:
256,192,242386,1,0,0:0:0:0:
329,192,242486,1,0,0:0:0:0:
182,192,242486,1,0,0:0:0:0:
36,192,242486,1,0,0:0:0:0:
402,192,242586,1,0,0:0:0:0:
109,192,242586,1,0,0:0:0:0:
256,192,242586,1,0,0:0:0:0:
36,192,242686,1,0,0:0:0:0:
329,192,242686,1,0,0:0:0:0:
475,192,242686,1,0,0:0:0:0:
182,192,242686,1,0,0:0:0:0:
256,192,242786,1,0,0:0:0:0:
109,192,242886,1,0,0:0:0:0:
329,192,242886,1,0,0:0:0:0:
402,192,242886,1,0,0:0:0:0:
36,192,242886,1,0,0:0:0:0:
182,192,242986,1,0,0:0:0:0:
256,192,243086,1,0,0:0:0:0:
402,192,243086,1,0,0:0:0:0:
475,192,243086,1,0,0:0:0:0:
329,192,243086,1,0,0:0:0:0:
182,192,243186,1,0,0:0:0:0:
109,192,243186,1,0,0:0:0:0:
329,192,243286,1,0,0:0:0:0:
402,192,243286,1,0,0:0:0:0:
475,192,243286,1,0,0:0:0:0:
36,192,243286,1,0,0:0:0:0:
256,192,243386,1,0,0:0:0:0:
36,192,243486,1,0,0:0:0:0:
402,192,243486,1,0,0:0:0:0:
475,192,243486,1,0,0:0:0:0:
182,192,243486,1,0,0:0:0:0:
109,192,243486,1,0,0:0:0:0:
329,192,243586,1,0,0:0:0:0:
256,192,243586,1,0,0:0:0:0:
36,192,243686,1,0,0:0:0:0:
109,192,243686,1,0,0:0:0:0:
402,192,243686,1,0,0:0:0:0:
475,192,243686,1,0,0:0:0:0:
256,192,243786,1,0,0:0:0:0:
402,192,243886,1,0,0:0:0:0:
475,192,243886,1,0,0:0:0:0:
329,192,243886,1,0,0:0:0:0:
36,192,243886,1,0,0:0:0:0:
182,192,243886,1,0,0:0:0:0:
109,192,243986,1,0,0:0:0:0:
256,192,243986,1,0,0:0:0:0:
402,192,244086,1,0,0:0:0:0:
182,192,244086,1,0,0:0:0:0:
329,192,244186,1,0,0:0:0:0:
109,192,244186,1,0,0:0:0:0:
475,192,244286,1,0,0:0:0:0:
402,192,244286,1,0,0:0:0:0:
36,192,244286,1,0,0:0:0:0:
256,192,244286,1,0,0:0:0:0:
329,192,244386,1,0,0:0:0:0:
182,192,244386,1,0,0:0:0:0:
402,192,244486,1,0,0:0:0:0:
109,192,244486,1,0,0:0:0:0:
256,192,244486,1,0,0:0:0:0:
329,192,244586,1,0,0:0:0:0:
402,192,244686,1,0,0:0:0:0:
256,192,244686,1,0,0:0:0:0:
109,192,244686,1,0,0:0:0:0:
36,192,244686,1,0,0:0:0:0:
475,192,244686,1,0,0:0:0:0:
182,192,244786,1,0,0:0:0:0:
329,192,244786,1,0,0:0:0:0:
256,192,244886,1,0,0:0:0:0:
109,192,244886,1,0,0:0:0:0:
402,192,244986,1,0,0:0:0:0:
475,192,245086,1,0,0:0:0:0:
36,192,245086,1,0,0:0:0:0:
109,192,245086,1,0,0:0:0:0:
329,192,245086,1,0,0:0:0:0:
182,192,245086,1,0,0:0:0:0:
402,192,245186,1,0,0:0:0:0:
256,192,245186,1,0,0:0:0:0:
329,192,245286,1,0,0:0:0:0:
475,192,245286,1,0,0:0:0:0:
36,192,245286,1,0,0:0:0:0:
109,192,245386,1,0,0:0:0:0:
256,192,245386,1,0,0:0:0:0:
182,192,245486,1,0,0:0:0:0:
36,192,245486,1,0,0:0:0:0:
329,192,245486,1,0,0:0:0:0:
475,192,245486,1,0,0:0:0:0:
402,192,245486,1,0,0:0:0:0:
109,192,245586,1,0,0:0:0:0:
256,192,245586,1,0,0:0:0:0:
402,192,245686,1,0,0:0:0:0:
475,192,245686,1,0,0:0:0:0:
329,192,245786,1,0,0:0:0:0:
182,192,245786,1,0,0:0:0:0:
36,192,245886,1,0,0:0:0:0:
256,192,245886,1,0,0:0:0:0:
402,192,245886,1,0,0:0:0:0:
475,192,245886,1,0,0:0:0:0:
109,192,245886,1,0,0:0:0:0:
329,192,245986,1,0,0:0:0:0:
182,192,245986,1,0,0:0:0:0:
109,192,246086,1,0,0:0:0:0:
36,192,246086,1,0,0:0:0:0:
475,192,246086,1,0,0:0:0:0:
402,192,246186,1,0,0:0:0:0:
256,192,246186,1,0,0:0:0:0:
475,192,246286,1,0,0:0:0:0:
36,192,246286,1,0,0:0:0:0:
109,192,246286,1,0,0:0:0:0:
182,192,246286,1,0,0:0:0:0:
329,192,246286,1,0,0:0:0:0:
256,192,246386,1,0,0:0:0:0:
402,192,246386,1,0,0:0:0:0:
182,192,246486,1,0,0:0:0:0:
329,192,246486,1,0,0:0:0:0:
36,192,246486,1,0,0:0:0:0:
109,192,246586,1,0,0:0:0:0:
256,192,246586,1,0,0:0:0:0:
36,192,246686,1,0,0:0:0:0:
402,192,246686,1,0,0:0:0:0:
182,192,246686,1,0,0:0:0:0:
475,192,246686,1,0,0:0:0:0:
329,192,246686,1,0,0:0:0:0:
256,192,246786,1,0,0:0:0:0:
109,192,246786,1,0,0:0:0:0:
329,192,246886,1,0,0:0:0:0:
475,192,246886,1,0,0:0:0:0:
182,192,246886,1,0,0:0:0:0:
256,192,246986,1,0,0:0:0:0:
402,192,246986,1,0,0:0:0:0:
475,192,247086,1,0,0:0:0:0:
36,192,247086,1,0,0:0:0:0:
329,192,247086,1,0,0:0:0:0:
109,192,247086,1,0,0:0:0:0:
182,192,247086,1,0,0:0:0:0:
256,192,247186,1,0,0:0:0:0:
402,192,247186,1,0,0:0:0:0:
182,192,247286,1,0,0:0:0:0:
36,192,247286,1,0,0:0:0:0:
109,192,247386,1,0,0:0:0:0:
256,192,247386,1,0,0:0:0:0:
402,192,247486,1,0,0:0:0:0:
182,192,247486,1,0,0:0:0:0:
36,192,247486,1,0,0:0:0:0:
329,192,247486,1,0,0:0:0:0:
475,192,247486,1,0,0:0:0:0:
256,192,247586,1,0,0:0:0:0:
109,192,247586,1,0,0:0:0:0:
182,192,247686,1,0,0:0:0:0:
329,192,247686,1,0,0:0:0:0:
402,192,247786,1,0,0:0:0:0:
256,192,247786,1,0,0:0:0:0:
109,192,247886,1,0,0:0:0:0:
329,192,247886,1,0,0:0:0:0:
475,192,247886,1,0,0:0:0:0:
36,192,247886,1,0,0:0:0:0:
182,192,247886,1,0,0:0:0:0:
256,192,247986,1,0,0:0:0:0:
402,192,247986,1,0,0:0:0:0:
182,192,248086,1,0,0:0:0:0:
36,192,248086,1,0,0:0:0:0:
109,192,248186,1,0,0:0:0:0:
256,192,248186,1,0,0:0:0:0:
36,192,248286,1,0,0:0:0:0:
329,192,248286,1,0,0:0:0:0:
402,192,248286,1,0,0:0:0:0:
475,192,248286,1,0,0:0:0:0:
182,192,248286,1,0,0:0:0:0:
256,192,248386,1,0,0:0:0:0:
109,192,248386,1,0,0:0:0:0:
182,192,248486,1,0,0:0:0:0:
475,192,248486,1,0,0:0:0:0:
256,192,248586,1,0,0:0:0:0:
402,192,248586,1,0,0:0:0:0:
109,192,248686,1,0,0:0:0:0:
329,192,248686,1,0,0:0:0:0:
475,192,248686,1,0,0:0:0:0:
36,192,248686,1,0,0:0:0:0:
182,192,248686,1,0,0:0:0:0:
402,192,248786,1,0,0:0:0:0:
256,192,248786,1,0,0:0:0:0:
36,192,248886,1,0,0:0:0:0:
182,192,248886,1,0,0:0:0:0:
256,192,248986,1,0,0:0:0:0:
109,192,248986,1,0,0:0:0:0:
36,192,249086,1,0,0:0:0:0:
402,192,249086,1,0,0:0:0:0:
475,192,249086,1,0,0:0:0:0:
329,192,249086,1,0,0:0:0:0:
182,192,249086,1,0,0:0:0:0:
109,192,249186,1,0,0:0:0:0:
256,192,249186,1,0,0:0:0:0:
182,192,249286,1,0,0:0:0:0:
329,192,249286,1,0,0:0:0:0:
256,192,249386,1,0,0:0:0:0:
329,192,249486,1,0,0:0:0:0:
475,192,249486,1,0,0:0:0:0:
109,192,249486,1,0,0:0:0:0:
36,192,249486,1,0,0:0:0:0:
182,192,249486,1,0,0:0:0:0:
402,192,249586,1,0,0:0:0:0:
256,192,249586,1,0,0:0:0:0:
109,192,249686,1,0,0:0:0:0:
329,192,249686,1,0,0:0:0:0:
402,192,249786,1,0,0:0:0:0:
182,192,249786,1,0,0:0:0:0:
329,192,249886,1,0,0:0:0:0:
36,192,249886,1,0,0:0:0:0:
109,192,249886,1,0,0:0:0:0:
256,192,249886,1,0,0:0:0:0:
475,192,249886,1,0,0:0:0:0:
182,192,249986,1,0,0:0:0:0:
402,192,249986,1,0,0:0:0:0:
256,192,250086,1,0,0:0:0:0:
109,192,250086,1,0,0:0:0:0:
182,192,250186,1,0,0:0:0:0:
329,192,250186,1,0,0:0:0:0:
256,192,250286,1,0,0:0:0:0:
402,192,250286,1,0,0:0:0:0:
475,192,250286,1,0,0:0:0:0:
36,192,250286,1,0,0:0:0:0:
109,192,250386,1,0,0:0:0:0:
329,192,250386,1,0,0:0:0:0:
36,192,250486,1,0,0:0:0:0:
182,192,250486,1,0,0:0:0:0:
256,192,250586,1,0,0:0:0:0:
402,192,250586,1,0,0:0:0:0:
36,192,250686,1,0,0:0:0:0:
475,192,250686,1,0,0:0:0:0:
329,192,250686,1,0,0:0:0:0:
109,192,250686,1,0,0:0:0:0:
402,192,250786,1,0,0:0:0:0:
182,192,250786,1,0,0:0:0:0:
329,192,250886,1,0,0:0:0:0:
109,192,250886,1,0,0:0:0:0:
402,192,250986,1,0,0:0:0:0:
256,192,250986,1,0,0:0:0:0:
475,192,251086,1,0,0:0:0:0:
109,192,251086,1,0,0:0:0:0:
36,192,251086,1,0,0:0:0:0:
182,192,251086,1,0,0:0:0:0:
402,192,251186,1,0,0:0:0:0:
256,192,251186,1,0,0:0:0:0:
329,192,251286,1,0,0:0:0:0:
182,192,251286,1,0,0:0:0:0:
402,192,251386,1,0,0:0:0:0:
256,192,251486,1,0,0:0:0:0:
109,192,251486,1,0,0:0:0:0:
36,192,251486,1,0,0:0:0:0:
475,192,251486,1,0,0:0:0:0:
329,192,251586,1,0,0:0:0:0:
182,192,251586,1,0,0:0:0:0:
475,192,251686,1,0,0:0:0:0:
109,192,251686,1,0,0:0:0:0:
36,192,251686,1,0,0:0:0:0:
256,192,251686,1,0,0:0:0:0:
402,192,251786,1,0,0:0:0:0:
182,192,251786,1,0,0:0:0:0:
36,192,251886,1,0,0:0:0:0:
109,192,251886,1,0,0:0:0:0:
475,192,251886,1,0,0:0:0:0:
329,192,251886,1,0,0:0:0:0:
256,192,251886,1,0,0:0:0:0:
182,192,251986,1,0,0:0:0:0:
402,192,251986,1,0,0:0:0:0:
329,192,252086,1,0,0:0:0:0:
109,192,252086,1,0,0:0:0:0:
402,192,252186,1,0,0:0:0:0:
182,192,252186,1,0,0:0:0:0:
256,192,252286,1,0,0:0:0:0:
475,192,252286,1,0,0:0:0:0:
36,192,252286,1,0,0:0:0:0:
109,192,252286,1,0,0:0:0:0:
182,192,252386,1,0,0:0:0:0:
256,192,252486,1,0,0:0:0:0:
402,192,252486,1,0,0:0:0:0:
36,192,252486,1,0,0:0:0:0:
475,192,252486,1,0,0:0:0:0:
182,192,252586,1,0,0:0:0:0:
256,192,252686,1,0,0:0:0:0:
475,192,252686,1,0,0:0:0:0:
402,192,252686,1,0,0:0:0:0:
109,192,252686,1,0,0:0:0:0:
36,192,252686,1,0,0:0:0:0:
329,192,252786,1,0,0:0:0:0:
182,192,252786,1,0,0:0:0:0:
109,192,252886,1,0,0:0:0:0:
256,192,252886,1,0,0:0:0:0:
475,192,252986,1,0,0:0:0:0:
329,192,252986,1,0,0:0:0:0:
36,192,253086,1,0,0:0:0:0:
256,192,253086,1,0,0:0:0:0:
402,192,253086,1,0,0:0:0:0:
109,192,253086,1,0,0:0:0:0:
182,192,253086,1,0,0:0:0:0:
329,192,253186,1,0,0:0:0:0:
182,192,253286,1,0,0:0:0:0:
402,192,253286,1,0,0:0:0:0:
475,192,253286,1,0,0:0:0:0:
256,192,253386,1,0,0:0:0:0:
109,192,253486,1,0,0:0:0:0:
182,192,253486,1,0,0:0:0:0:
329,192,253486,1,0,0:0:0:0:
475,192,253486,1,0,0:0:0:0:
36,192,253486,1,0,0:0:0:0:
256,192,253586,1,0,0:0:0:0:
402,192,253586,1,0,0:0:0:0:
36,192,253686,1,0,0:0:0:0:
182,192,253686,1,0,0:0:0:0:
329,192,253686,1,0,0:0:0:0:
256,192,253786,1,0,0:0:0:0:
182,192,253886,1,0,0:0:0:0:
36,192,253886,1,0,0:0:0:0:
329,192,253886,1,0,0:0:0:0:
402,192,253886,1,0,0:0:0:0:
475,192,253886,1,0,0:0:0:0:
256,192,253986,1,0,0:0:0:0:
109,192,253986,1,0,0:0:0:0:
402,192,254086,1,0,0:0:0:0:
182,192,254086,1,0,0:0:0:0:
475,192,254086,1,0,0:0:0:0:
329,192,254186,1,0,0:0:0:0:
256,192,254286,1,0,0:0:0:0:
402,192,254286,1,0,0:0:0:0:
109,192,254286,1,0,0:0:0:0:
36,192,254286,1,0,0:0:0:0:
475,192,254286,1,0,0:0:0:0:
329,192,254386,1,0,0:0:0:0:
182,192,254386,1,0,0:0:0:0:
36,192,254486,1,0,0:0:0:0:
109,192,254486,1,0,0:0:0:0:
256,192,254486,1,0,0:0:0:0:
329,192,254586,1,0,0:0:0:0:
402,192,254686,1,0,0:0:0:0:
475,192,254686,1,0,0:0:0:0:
36,192,254686,1,0,0:0:0:0:
109,192,254686,1,0,0:0:0:0:
256,192,254686,1,0,0:0:0:0:
182,192,254786,1,0,0:0:0:0:
329,192,254786,1,0,0:0:0:0:
256,192,254886,1,0,0:0:0:0:
475,192,254886,1,0,0:0:0:0:
402,192,254886,1,0,0:0:0:0:
109,192,254986,1,0,0:0:0:0:
36,192,255086,1,0,0:0:0:0:
475,192,255086,1,0,0:0:0:0:
402,192,255086,1,0,0:0:0:0:
182,192,255086,1,0,0:0:0:0:
329,192,255086,1,0,0:0:0:0:
256,192,255219,1,0,0:0:0:0:
109,192,255219,1,0,0:0:0:0:
182,192,255352,1,0,0:0:0:0:
329,192,255352,1,0,0:0:0:0:
36,192,255486,1,0,0:0:0:0:
475,192,255486,1,0,0:0:0:0:
256,192,255486,1,0,0:0:0:0:
402,192,255486,1,0,0:0:0:0:
109,192,255486,1,0,0:0:0:0:
329,192,255619,1,0,0:0:0:0:
182,192,255619,1,0,0:0:0:0:
256,192,255752,1,0,0:0:0:0:
109,192,255752,1,0,0:0:0:0:
36,192,255886,1,0,0:0:0:0:
402,192,255886,1,0,0:0:0:0:
182,192,255886,1,0,0:0:0:0:
475,192,255886,1,0,0:0:0:0:
329,192,255886,1,0,0:0:0:0:
256,192,256019,1,0,0:0:0:0:
109,192,256019,1,0,0:0:0:0:
402,192,256152,1,0,0:0:0:0:
182,192,256152,1,0,0:0:0:0:
475,192,256286,1,0,0:0:0:0:
109,192,256286,1,0,0:0:0:0:
329,192,256286,1,0,0:0:0:0:
36,192,256286,1,0,0:0:0:0:
256,192,256286,1,0,0:0:0:0:
182,192,256419,1,0,0:0:0:0:
402,192,256419,1,0,0:0:0:0:
256,192,256552,1,0,0:0:0:0:
109,192,256552,1,0,0:0:0:0:
475,192,256686,1,0,0:0:0:0:
36,192,256686,1,0,0:0:0:0:
329,192,256686,1,0,0:0:0:0:
182,192,256686,1,0,0:0:0:0:
402,192,256686,1,0,0:0:0:0:
109,192,256786,1,0,0:0:0:0:
256,192,256786,1,0,0:0:0:0:
182,192,256886,1,0,0:0:0:0:
329,192,256886,1,0,0:0:0:0:
402,192,256986,1,0,0:0:0:0:
256,192,256986,1,0,0:0:0:0:
475,192,257086,1,0,0:0:0:0:
36,192,257086,1,0,0:0:0:0:
109,192,257086,1,0,0:0:0:0:
329,192,257086,1,0,0:0:0:0:
182,192,257186,1,0,0:0:0:0:
402,192,257186,1,0,0:0:0:0:
256,192,257286,1,0,0:0:0:0:
109,192,257286,1,0,0:0:0:0:
329,192,257386,1,0,0:0:0:0:
182,192,257386,1,0,0:0:0:0:
109,192,257486,1,0,0:0:0:0:
36,192,257486,1,0,0:0:0:0:
475,192,257486,1,0,0:0:0:0:
256,192,257486,1,0,0:0:0:0:
182,192,257586,1,0,0:0:0:0:
329,192,257586,1,0,0:0:0:0:
402,192,257686,1,0,0:0:0:0:
475,192,257686,1,0,0:0:0:0:
329,192,257786,1,0,0:0:0:0:
109,192,257786,1,0,0:0:0:0:
402,192,257886,1,0,0:0:0:0:
36,192,257886,1,0,0:0:0:0:
182,192,257886,1,0,0:0:0:0:
475,192,257886,1,0,0:0:0:0:
256,192,257986,1,0,0:0:0:0:
109,192,257986,1,0,0:0:0:0:
36,192,258086,1,0,0:0:0:0:
182,192,258086,1,0,0:0:0:0:
329,192,258186,1,0,0:0:0:0:
402,192,258286,1,0,0:0:0:0:
475,192,258286,1,0,0:0:0:0:
36,192,258286,1,0,0:0:0:0:
256,192,258286,1,0,0:0:0:0:
109,192,258286,1,0,0:0:0:0:
182,192,258386,1,0,0:0:0:0:
329,192,258386,1,0,0:0:0:0:
402,192,258486,1,0,0:0:0:0:
109,192,258486,1,0,0:0:0:0:
256,192,258586,1,0,0:0:0:0:
329,192,258686,1,0,0:0:0:0:
109,192,258686,1,0,0:0:0:0:
475,192,258686,1,0,0:0:0:0:
36,192,258686,1,0,0:0:0:0:
182,192,258686,1,0,0:0:0:0:
256,192,258819,1,0,0:0:0:0:
402,192,258819,1,0,0:0:0:0:
329,192,258952,1,0,0:0:0:0:
182,192,258952,1,0,0:0:0:0:
36,192,259086,1,0,0:0:0:0:
402,192,259086,1,0,0:0:0:0:
475,192,259086,1,0,0:0:0:0:
109,192,259086,1,0,0:0:0:0:
256,192,259086,1,0,0:0:0:0:
182,192,259186,1,0,0:0:0:0:
329,192,259186,1,0,0:0:0:0:
109,192,259286,1,0,0:0:0:0:
256,192,259286,1,0,0:0:0:0:
329,192,259386,1,0,0:0:0:0:
182,192,259486,1,0,0:0:0:0:
36,192,259486,1,0,0:0:0:0:
402,192,259486,1,0,0:0:0:0:
475,192,259486,1,0,0:0:0:0:
109,192,259486,1,0,0:0:0:0:
329,192,259586,1,0,0:0:0:0:
256,192,259586,1,0,0:0:0:0:
475,192,259686,1,0,0:0:0:0:
402,192,259686,1,0,0:0:0:0:
36,192,259686,1,0,0:0:0:0:
182,192,259686,1,0,0:0:0:0:
329,192,259786,1,0,0:0:0:0:
109,192,259886,1,0,0:0:0:0:
36,192,259886,1,0,0:0:0:0:
402,192,259886,1,0,0:0:0:0:
475,192,259886,1,0,0:0:0:0:
256,192,259886,1,0,0:0:0:0:
182,192,259986,1,0,0:0:0:0:
329,192,259986,1,0,0:0:0:0:
109,192,260086,1,0,0:0:0:0:
256,192,260086,1,0,0:0:0:0:
329,192,260186,1,0,0:0:0:0:
36,192,260286,1,0,0:0:0:0:
475,192,260286,1,0,0:0:0:0:
182,192,260286,1,0,0:0:0:0:
402,192,260286,1,0,0:0:0:0:
329,192,260419,1,0,0:0:0:0:
109,192,260419,1,0,0:0:0:0:
256,192,260552,1,0,0:0:0:0:
402,192,260552,1,0,0:0:0:0:
329,192,260686,1,0,0:0:0:0:
36,192,260686,1,0,0:0:0:0:
475,192,260686,1,0,0:0:0:0:
109,192,260686,1,0,0:0:0:0:
182,192,260686,1,0,0:0:0:0:
256,192,260786,1,0,0:0:0:0:
402,192,260786,1,0,0:0:0:0:
109,192,260886,1,0,0:0:0:0:
329,192,260886,1,0,0:0:0:0:
256,192,260986,1,0,0:0:0:0:
182,192,261086,1,0,0:0:0:0:
36,192,261086,1,0,0:0:0:0:
475,192,261086,1,0,0:0:0:0:
402,192,261086,1,0,0:0:0:0:
329,192,261186,1,0,0:0:0:0:
109,192,261186,1,0,0:0:0:0:
256,192,261286,1,0,0:0:0:0:
36,192,261286,1,0,0:0:0:0:
329,192,261386,1,0,0:0:0:0:
109,192,261486,1,0,0:0:0:0:
402,192,261486,1,0,0:0:0:0:
475,192,261486,1,0,0:0:0:0:
36,192,261486,1,0,0:0:0:0:
256,192,261486,1,0,0:0:0:0:
182,192,261586,1,0,0:0:0:0:
329,192,261586,1,0,0:0:0:0:
256,192,261686,1,0,0:0:0:0:
109,192,261686,1,0,0:0:0:0:
182,192,261786,1,0,0:0:0:0:
475,192,261886,1,0,0:0:0:0:
402,192,261886,1,0,0:0:0:0:
36,192,261886,1,0,0:0:0:0:
109,192,261886,1,0,0:0:0:0:
256,192,261886,1,0,0:0:0:0:
329,192,261986,1,0,0:0:0:0:
182,192,261986,1,0,0:0:0:0:
402,192,262086,1,0,0:0:0:0:
256,192,262086,1,0,0:0:0:0:
329,192,262186,1,0,0:0:0:0:
36,192,262286,1,0,0:0:0:0:
402,192,262286,1,0,0:0:0:0:
475,192,262286,1,0,0:0:0:0:
109,192,262286,1,0,0:0:0:0:
256,192,262286,1,0,0:0:0:0:
329,192,262386,1,0,0:0:0:0:
182,192,262386,1,0,0:0:0:0:
402,192,262486,1,0,0:0:0:0:
109,192,262486,1,0,0:0:0:0:
256,192,262586,1,0,0:0:0:0:
329,192,262686,1,0,0:0:0:0:
475,192,262686,1,0,0:0:0:0:
402,192,262686,1,0,0:0:0:0:
36,192,262686,1,0,0:0:0:0:
182,192,262686,1,0,0:0:0:0:
256,192,262786,1,0,0:0:0:0:
109,192,262786,1,0,0:0:0:0:
329,192,262886,1,0,0:0:0:0:
402,192,262886,1,0,0:0:0:0:
182,192,262986,1,0,0:0:0:0:
475,192,263086,1,0,0:0:0:0:
36,192,263086,1,0,0:0:0:0:
109,192,263086,1,0,0:0:0:0:
402,192,263086,1,0,0:0:0:0:
256,192,263086,1,0,0:0:0:0:
182,192,263186,1,0,0:0:0:0:
329,192,263186,1,0,0:0:0:0:
402,192,263286,1,0,0:0:0:0:
256,192,263286,1,0,0:0:0:0:
109,192,263386,1,0,0:0:0:0:
475,192,263486,1,0,0:0:0:0:
329,192,263486,1,0,0:0:0:0:
256,192,263486,1,0,0:0:0:0:
182,192,263486,1,0,0:0:0:0:
36,192,263586,1,0,0:0:0:0:
402,192,263619,1,0,0:0:0:0:
182,192,263686,1,0,0:0:0:0:
329,192,263752,1,0,0:0:0:0:
109,192,263786,1,0,0:0:0:0:
475,192,263886,1,0,0:0:0:0:
36,192,263886,1,0,0:0:0:0:
256,192,263886,1,0,0:0:0:0:
182,192,263986,1,0,0:0:0:0:
402,192,264019,1,0,0:0:0:0:
109,192,264086,1,0,0:0:0:0:
329,192,264152,1,0,0:0:0:0:
182,192,264186,1,0,0:0:0:0:
475,192,264286,1,0,0:0:0:0:
36,192,264286,1,0,0:0:0:0:
256,192,264286,1,0,0:0:0:0:
109,192,264386,1,0,0:0:0:0:
402,192,264419,1,0,0:0:0:0:
182,192,264486,1,0,0:0:0:0:
329,192,264552,1,0,0:0:0:0:
36,192,264586,1,0,0:0:0:0:
182,192,264686,1,0,0:0:0:0:
475,192,264686,1,0,0:0:0:0:
256,192,264686,1,0,0:0:0:0:
402,192,264752,1,0,0:0:0:0:
109,192,264819,1,0,0:0:0:0:
329,192,264819,1,0,0:0:0:0:
475,192,264886,1,0,0:0:0:0:
36,192,264952,1,0,0:0:0:0:
402,192,264952,1,0,0:0:0:0:
329,192,265019,1,0,0:0:0:0:
182,192,265086,1,0,0:0:0:0:
475,192,265086,1,0,0:0:0:0:
402,192,265152,5,0,0:0:0:0:
109,192,265219,5,0,0:0:0:0:
329,192,265219,1,0,0:0:0:0:
475,192,265286,1,0,0:0:0:0:
36,192,265352,1,0,0:0:0:0:
402,192,265352,1,0,0:0:0:0:
329,192,265419,1,0,0:0:0:0:
182,192,265486,1,0,0:0:0:0:
475,192,265486,1,0,0:0:0:0:
402,192,265552,1,0,0:0:0:0:
109,192,265619,1,0,0:0:0:0:
329,192,265619,1,0,0:0:0:0:
256,192,265686,1,0,0:0:0:0:
36,192,265752,1,0,0:0:0:0:
329,192,265786,1,0,0:0:0:0:
182,192,265886,1,0,0:0:0:0:
402,192,265886,1,0,0:0:0:0:
475,192,265886,1,0,0:0:0:0:
256,192,265886,1,0,0:0:0:0:
109,192,266019,1,0,0:0:0:0:
36,192,266152,1,0,0:0:0:0:
109,192,266286,1,0,0:0:0:0:
402,192,266286,1,0,0:0:0:0:
475,192,266286,1,0,0:0:0:0:
182,192,266286,1,0,0:0:0:0:
329,192,266286,1,0,0:0:0:0:
256,192,266386,1,0,0:0:0:0:
36,192,266386,1,0,0:0:0:0:
182,192,266486,1,0,0:0:0:0:
402,192,266486,1,0,0:0:0:0:
329,192,266586,1,0,0:0:0:0:
109,192,266586,1,0,0:0:0:0:
36,192,266686,1,0,0:0:0:0:
256,192,266686,1,0,0:0:0:0:
475,192,266686,1,0,0:0:0:0:
402,192,266686,1,0,0:0:0:0:
182,192,266786,1,0,0:0:0:0:
329,192,266786,1,0,0:0:0:0:
256,192,266886,1,0,0:0:0:0:
402,192,266886,1,0,0:0:0:0:
329,192,266986,1,0,0:0:0:0:
475,192,266986,1,0,0:0:0:0:
36,192,267086,1,0,0:0:0:0:
109,192,267086,1,0,0:0:0:0:
182,192,267086,1,0,0:0:0:0:
256,192,267086,1,0,0:0:0:0:
402,192,267086,1,0,0:0:0:0:
329,192,267186,1,0,0:0:0:0:
475,192,267186,1,0,0:0:0:0:
402,192,267286,1,0,0:0:0:0:
182,192,267286,1,0,0:0:0:0:
109,192,267386,1,0,0:0:0:0:
329,192,267386,1,0,0:0:0:0:
256,192,267486,1,0,0:0:0:0:
36,192,267486,1,0,0:0:0:0:
402,192,267486,1,0,0:0:0:0:
475,192,267486,1,0,0:0:0:0:
329,192,267586,1,0,0:0:0:0:
182,192,267586,1,0,0:0:0:0:
36,192,267686,1,0,0:0:0:0:
256,192,267686,1,0,0:0:0:0:
109,192,267786,1,0,0:0:0:0:
329,192,267786,1,0,0:0:0:0:
182,192,267886,1,0,0:0:0:0:
475,192,267886,1,0,0:0:0:0:
402,192,267886,1,0,0:0:0:0:
36,192,267886,1,0,0:0:0:0:
329,192,267986,1,0,0:0:0:0:
109,192,267986,1,0,0:0:0:0:
256,192,268086,1,0,0:0:0:0:
475,192,268086,1,0,0:0:0:0:
402,192,268186,1,0,0:0:0:0:
182,192,268186,1,0,0:0:0:0:
329,192,268286,1,0,0:0:0:0:
109,192,268286,1,0,0:0:0:0:
36,192,268286,1,0,0:0:0:0:
475,192,268286,1,0,0:0:0:0:
256,192,268386,1,0,0:0:0:0:
402,192,268386,1,0,0:0:0:0:
329,192,268486,1,0,0:0:0:0:
182,192,268486,1,0,0:0:0:0:
256,192,268586,1,0,0:0:0:0:
109,192,268586,1,0,0:0:0:0:
182,192,268686,1,0,0:0:0:0:
36,192,268686,1,0,0:0:0:0:
402,192,268686,1,0,0:0:0:0:
475,192,268686,1,0,0:0:0:0:
329,192,268786,1,0,0:0:0:0:
109,192,268786,1,0,0:0:0:0:
256,192,268886,1,0,0:0:0:0:
475,192,268886,1,0,0:0:0:0:
402,192,268986,1,0,0:0:0:0:
182,192,268986,1,0,0:0:0:0:
329,192,269086,1,0,0:0:0:0:
109,192,269086,1,0,0:0:0:0:
36,192,269086,1,0,0:0:0:0:
475,192,269086,1,0,0:0:0:0:
256,192,269186,1,0,0:0:0:0:
402,192,269186,1,0,0:0:0:0:
182,192,269286,1,0,0:0:0:0:
329,192,269286,1,0,0:0:0:0:
256,192,269386,1,0,0:0:0:0:
109,192,269386,1,0,0:0:0:0:
182,192,269486,1,0,0:0:0:0:
36,192,269486,1,0,0:0:0:0:
475,192,269486,1,0,0:0:0:0:
402,192,269486,1,0,0:0:0:0:
329,192,269552,1,0,0:0:0:0:
256,192,269619,1,0,0:0:0:0:
182,192,269686,1,0,0:0:0:0:
475,192,269686,1,0,0:0:0:0:
109,192,269752,1,0,0:0:0:0:
402,192,269819,1,0,0:0:0:0:
329,192,269886,1,0,0:0:0:0:
36,192,269886,1,0,0:0:0:0:
256,192,269952,1,0,0:0:0:0:
182,192,270019,1,0,0:0:0:0:
402,192,270086,1,0,0:0:0:0:
109,192,270086,1,0,0:0:0:0:
329,192,270152,1,0,0:0:0:0:
256,192,270219,1,0,0:0:0:0:
475,192,270286,1,0,0:0:0:0:
36,192,270286,1,0,0:0:0:0:
109,192,270286,1,0,0:0:0:0:
182,192,270286,1,0,0:0:0:0:
402,192,270352,5,0,0:0:0:0:
329,192,270419,1,0,0:0:0:0:
182,192,270419,1,0,0:0:0:0:
109,192,270419,1,0,0:0:0:0:
36,192,270419,1,0,0:0:0:0:
475,192,270486,1,0,0:0:0:0:
36,192,270552,1,0,0:0:0:0:
109,192,270552,1,0,0:0:0:0:
182,192,270552,1,0,0:0:0:0:
402,192,270552,1,0,0:0:0:0:
329,192,270619,1,0,0:0:0:0:
36,192,270686,1,0,0:0:0:0:
256,192,270686,1,0,0:0:0:0:
475,192,270686,1,0,0:0:0:0:
402,192,270686,1,0,0:0:0:0:
109,192,270752,1,0,0:0:0:0:
182,192,270819,1,0,0:0:0:0:
402,192,270819,1,0,0:0:0:0:
329,192,270819,1,0,0:0:0:0:
475,192,270819,1,0,0:0:0:0:
36,192,270886,1,0,0:0:0:0:
109,192,270952,1,0,0:0:0:0:
475,192,270952,1,0,0:0:0:0:
402,192,270952,1,0,0:0:0:0:
329,192,270952,1,0,0:0:0:0:
182,192,271019,1,0,0:0:0:0:
36,192,271086,1,0,0:0:0:0:
109,192,271086,1,0,0:0:0:0:
256,192,271086,1,0,0:0:0:0:
329,192,271086,1,0,0:0:0:0:
402,192,271086,1,0,0:0:0:0:
475,192,271086,1,0,0:0:0:0:
256,192,271486,5,0,0:0:0:0:
256,192,271886,5,0,0:0:0:0:
