osu file format v14

[General]
AudioFilename: AiFei.mp3
AudioLeadIn: 0
PreviewTime: 1430
Countdown: 0
SampleSet: Soft
StackLeniency: 0.7
Mode: 0
LetterboxInBreaks: 0
WidescreenStoryboard: 1

[Editor]
DistanceSpacing: 1.6
BeatDivisor: 4
GridSize: 8
TimelineZoom: 1.2

[Metadata]
Title:Ai Fei
TitleUnicode:爱妃
Artist:HOHO
ArtistUnicode:后弦
Creator:CET 6
Version:Insane
Source:
Tags:古风 love houxian hou xian
BeatmapID:643769
BeatmapSetID:270033

[Difficulty]
HPDrainRate:6
CircleSize:5
OverallDifficulty:7
ApproachRate:8.5
SliderMultiplier:1.6
SliderTickRate:2

[Events]
//Background and Video events
0,0,"BG.jpg",0,0
//Break Periods
//Storyboard Layer 0 (Background)
//Storyboard Layer 1 (Fail)
//Storyboard Layer 2 (Pass)
//Storyboard Layer 3 (Foreground)
//Storyboard Sound Samples

[TimingPoints]
1430,697.674418604651,4,2,1,60,1,0
1953,-100,4,2,1,5,0,0
2127,-100,4,2,1,60,0,0
2650,-100,4,2,1,5,0,0
2825,-100,4,2,1,60,0,0
3348,-100,4,2,1,5,0,0
3523,-100,4,2,1,60,0,0
4046,-100,4,2,1,5,0,0
4220,-100,4,2,1,60,0,0
7011,-133.333333333333,4,2,1,60,0,0
8406,-100,4,2,1,60,0,0
8929,-100,4,2,1,5,0,0
9104,-100,4,2,1,60,0,0
9627,-100,4,2,1,5,0,0
9802,-100,4,2,1,60,0,0
12592,-100,4,2,1,40,0,0
13290,-100,4,2,1,60,0,0
13813,-100,4,2,1,40,0,0
13988,-100,4,2,1,60,0,0
14336,-100,4,2,1,40,0,0
15034,-100,4,2,1,60,0,0
15383,-100,4,2,1,40,0,0
16081,-100,4,2,1,60,0,0
16604,-100,4,2,1,40,0,0
16778,-100,4,2,1,60,0,0
17127,-100,4,2,1,40,0,0
17825,-100,4,2,1,60,0,0
18174,-100,4,2,1,40,0,0
18871,-100,4,2,1,60,0,0
19395,-100,4,2,1,40,0,0
19569,-100,4,2,1,60,0,0
19918,-100,4,2,1,40,0,0
20616,-100,4,2,1,60,0,0
20964,-100,4,2,1,40,0,0
21662,-100,4,2,1,60,0,0
22011,-100,4,2,1,40,0,0
22360,-133.333333333333,4,2,1,40,0,0
23057,-133.333333333333,4,2,1,5,0,0
23755,-100,4,2,1,60,0,0
24278,-100,4,2,1,5,0,0
24453,-100,4,2,1,60,0,0
26720,-100,4,2,1,5,0,0
26895,-100,4,2,1,60,0,0
27069,-100,4,2,1,5,0,0
27243,-100,4,2,1,60,0,0
27418,-100,4,2,1,5,0,0
27592,-100,4,2,1,60,0,0
27767,-100,4,2,1,5,0,0
27941,-100,4,2,1,60,0,0
28116,-100,4,2,1,5,0,0
28290,-100,4,2,1,60,0,0
28464,-100,4,2,1,5,0,0
28639,-100,4,2,1,60,0,0
28813,-100,4,2,1,5,0,0
28988,-100,4,2,1,60,0,0
29162,-100,4,2,1,5,0,0
29336,-100,4,2,1,60,0,0
29860,-100,4,2,1,5,0,0
30034,-100,4,2,1,60,0,0
32302,-100,4,2,1,5,0,0
32476,-100,4,2,1,60,0,0
32650,-100,4,2,1,5,0,0
32825,-100,4,2,1,60,0,0
32999,-100,4,2,1,5,0,0
33174,-100,4,2,1,60,0,0
34743,-100,4,2,1,5,0,0
34918,-100,4,2,1,60,0,0
35441,-100,4,2,1,5,0,0
35616,-100,4,2,1,60,0,0
37883,-100,4,2,1,5,0,0
38057,-100,4,2,1,60,0,0
38232,-100,4,2,1,5,0,0
38406,-100,4,2,1,60,0,0
38581,-100,4,2,1,5,0,0
38755,-100,4,2,1,60,0,0
38929,-100,4,2,1,5,0,0
39104,-100,4,2,1,60,0,0
39278,-100,4,2,1,50,0,0
39453,-100,4,2,1,60,0,0
39627,-100,4,2,1,5,0,0
39802,-100,4,2,1,60,0,0
39976,-100,4,2,1,5,0,0
40150,-100,4,2,1,60,0,0
40325,-100,4,2,1,5,0,0
40499,-100,4,2,1,60,0,0
41023,-100,4,2,1,5,0,0
41197,-100,4,2,1,60,0,0
43464,-100,4,2,1,5,0,0
43639,-100,4,2,1,60,0,0
43813,-100,4,2,1,5,0,0
43988,-100,4,2,1,60,0,0
44162,-100,4,2,1,5,0,0
44336,-100,4,2,1,60,0,0
45034,-100,4,2,1,30,0,0
45383,-100,4,2,1,40,0,0
45732,-100,4,2,1,50,0,0
46081,-100,4,2,1,60,0,0
46604,-100,4,2,1,5,0,0
46778,-100,4,2,1,60,0,0
47650,-100,4,2,1,5,0,0
47825,-100,4,2,1,60,0,0
47999,-100,4,2,1,5,0,0
48174,-100,4,2,1,60,0,0
50092,-100,4,2,1,30,0,0
50267,-100,4,2,1,60,0,0
50616,-100,4,2,1,40,0,0
50964,-100,4,2,1,60,0,0
51139,-100,4,2,1,5,0,0
51313,-100,4,2,1,60,0,0
51488,-100,4,2,1,5,0,0
51662,-100,4,2,1,60,0,0
56023,-100,4,2,1,5,0,0
56197,-100,4,2,1,60,0,0
56371,-100,4,2,1,5,0,0
56546,-100,4,2,1,60,0,0
56720,-100,4,2,1,5,0,0
56895,-100,4,2,1,60,0,0
57069,-100,4,2,1,5,0,0
57243,-100,4,2,1,60,0,0
57767,-100,4,2,1,5,0,0
57941,-100,4,2,1,60,0,0
61255,-100,4,2,1,30,0,0
61429,-100,4,2,1,60,0,0
61778,-100,4,2,1,40,0,0
62127,-100,4,2,1,60,0,0
62302,-100,4,2,1,5,0,0
62476,-100,4,2,1,60,0,0
62650,-100,4,2,1,5,0,0
62825,-100,4,2,1,60,0,0
68232,-100,4,2,1,5,0,0
68406,-100,4,2,1,70,0,1
68929,-100,4,2,1,40,0,1
69104,-100,4,2,1,70,0,1
70325,-100,4,2,1,40,0,1
70499,-100,4,2,1,70,0,1
71371,-100,4,2,1,5,0,1
71546,-100,4,2,1,70,0,1
72069,-100,4,2,1,5,0,1
72243,-100,4,2,1,70,0,1
72418,-100,4,2,1,60,0,1
72592,-200,4,2,1,70,0,1
73290,-100,4,2,1,70,0,1
73464,-100,4,2,1,5,0,1
73639,-100,4,2,1,70,0,1
73813,-100,4,2,1,5,0,1
73988,-100,4,2,1,70,0,1
74511,-100,4,2,1,40,0,1
74685,-100,4,2,1,70,0,1
75906,-100,4,2,1,40,0,1
76081,-100,4,2,1,70,0,1
76953,-100,4,2,1,5,0,1
77127,-100,4,2,1,70,0,1
81836,-100,4,2,1,5,0,1
82011,-100,4,2,1,70,0,1
82185,-100,4,2,1,5,0,1
82360,-100,4,2,1,70,0,1
85325,-100,4,2,1,5,0,1
85499,-100,4,2,1,70,0,1
85674,-100,4,2,1,5,0,1
85848,-100,4,2,1,70,0,1
86023,-100,4,2,1,5,0,1
86197,-100,4,2,1,70,0,1
86371,-100,4,2,1,5,0,1
86546,-100,4,2,1,70,0,1
90209,-100,4,2,1,5,0,1
90383,-100,4,2,1,70,0,1
90557,-100,4,2,1,5,0,1
90732,-100,4,2,1,70,0,1
91255,-100,4,2,1,50,0,1
91429,-100,4,2,1,70,0,1
92650,-100,4,2,1,50,0,1
92825,-100,4,2,1,70,0,1
93697,-100,4,2,1,5,0,1
93871,-100,4,2,1,70,0,1
94395,-100,4,2,1,5,0,1
94569,-100,4,2,1,70,0,1
94743,-100,4,2,1,60,0,1
94918,-200,4,2,1,70,0,1
95616,-100,4,2,1,70,0,1
95790,-100,4,2,1,5,0,1
95964,-100,4,2,1,70,0,1
96139,-100,4,2,1,5,0,1
96313,-100,4,2,1,70,0,1
96836,-100,4,2,1,50,0,1
97011,-100,4,2,1,70,0,1
98232,-100,4,2,1,50,0,1
98406,-100,4,2,1,70,0,1
99278,-100,4,2,1,5,0,1
99453,-100,4,2,1,70,0,1
104162,-100,4,2,1,5,0,1
104336,-100,4,2,1,70,0,1
104511,-100,4,2,1,5,0,1
104685,-100,4,2,1,70,0,1
105383,-100,4,2,1,70,0,1
107302,-100,4,2,1,5,0,1
107476,-200,4,2,1,70,0,1
108174,-100,4,2,1,70,0,1
111662,-100,4,2,1,50,0,1
113057,-100,4,2,1,60,0,0

[Colours]
Combo1 : 255,128,192
Combo2 : 255,255,128
Combo3 : 128,255,128
Combo4 : 128,255,255

[HitObjects]
112,148,1430,6,0,P|121:209|99:267,1,120
39,256,2127,2,0,P|29:194|51:136,1,120
112,148,2825,2,0,P|173:157|231:135,1,120
219,75,3522,2,0,P|157:65|99:87,1,120
58,129,4220,5,0,0:0:0:0:
39,256,4569,1,0,0:0:0:0:
51,128,4918,1,0,0:0:0:0:
45,256,5267,1,0,0:0:0:0:
44,128,5616,1,0,0:0:0:0:
52,256,5965,1,0,0:0:0:0:
142,346,6313,2,0,P|180:355|219:347,1,80
401,289,7011,22,0,P|345:269|287:279,1,120
394,352,8406,6,0,P|332:362|274:340,1,120
287,279,9104,2,0,P|348:270|406:292,1,120
447,334,9802,21,0,0:0:0:0:
466,207,10150,1,0,0:0:0:0:
454,335,10499,1,0,0:0:0:0:
460,207,10848,1,0,0:0:0:0:
461,335,11197,1,0,0:0:0:0:
453,207,11546,1,0,0:0:0:0:
467,334,11895,1,0,0:0:0:0:
446,207,12244,1,0,0:0:0:0:
356,117,12592,21,8,0:3:0:0:
467,334,12941,1,8,0:3:0:0:
446,207,13290,1,0,0:0:0:0:
356,117,13639,2,0,L|312:121,1,40,0|8,0:0|0:3,0:0:0:0:
270,75,13988,2,0,L|230:79,1,40
185,34,14336,1,8,0:3:0:0:
356,117,14685,1,8,0:3:0:0:
265,207,15034,2,0,L|225:211,1,40
163,221,15383,5,8,0:3:0:0:
391,309,15732,1,8,0:3:0:0:
262,301,16081,1,0,0:0:0:0:
163,221,16429,2,0,L|158:177,1,40,0|8,0:0|0:3,0:0:0:0:
205,135,16778,2,0,L|200:95,1,40
246,50,17126,1,8,0:3:0:0:
163,221,17476,1,8,0:3:0:0:
72,130,17825,2,0,L|67:90,1,40
112,44,18174,37,8,0:3:0:0:
339,133,18523,1,8,0:3:0:0:
239,52,18871,1,0,0:0:0:0:
339,133,19220,2,0,L|334:177,1,40,0|8,0:0|0:3,0:0:0:0:
289,218,19569,2,0,L|284:258,1,40
238,302,19917,1,8,0:3:0:0:
147,211,20267,1,8,0:3:0:0:
147,339,20616,1,0,0:0:0:0:
56,248,20964,6,0,P|49:202|65:158,1,80,8|8,0:3|0:3,0:0:0:0:
148,79,21662,2,0,L|255:90,1,80,0|8,0:0|0:3,0:0:0:0:
319,175,22360,22,0,B|326:172|326:172|337:179|337:179|350:174|350:174|361:182|361:182|373:177|373:177|385:184|385:184|397:179|397:179|409:187|409:187|421:182|421:182|432:189|432:189|445:184|445:184|456:192|456:192|469:187|469:187|480:194,1,180.000006866455,8|0,0:3|0:0,0:0:0:0:
274,221,23755,6,0,L|279:260,1,40,2|0,0:0|0:0,0:0:0:0:
233,306,24104,2,0,L|193:311,1,40
67,274,24453,2,0,L|147:265,1,80,8|2,0:0|0:0,0:0:0:0:
354,212,25150,2,0,L|274:221,1,80,0|2,0:0|0:0,0:0:0:0:
183,130,25848,2,0,P|176:84|192:40,1,80,8|2,0:0|0:0,0:0:0:0:
313,52,26546,22,0,L|352:57,1,40,2|0,0:0|0:0,0:0:0:0:
409,113,26895,2,0,L|448:118,1,40
336,47,27243,2,0,L|297:46,1,40,8|0,0:0|0:0,0:0:0:0:
397,98,27592,2,0,L|437:99,1,40,2|0,0:0|0:0,0:0:0:0:
319,40,27941,2,0,L|280:43,1,40
385,85,28290,2,0,L|424:82,1,40,2|0,0:0|0:0,0:0:0:0:
509,124,28639,22,0,L|470:127,1,40,8|0,0:0|0:0,0:0:0:0:
423,172,28988,2,0,L|384:175,1,40,2|0,0:0|0:0,0:0:0:0:
337,220,29336,2,0,P|325:278|339:336,1,120,2|0,0:0|0:0,0:0:0:0:
404,336,30034,2,0,L|484:327,1,80,8|2,0:0|0:0,0:0:0:0:
337,220,30732,2,0,L|257:229,1,80,0|2,0:0|0:0,0:0:0:0:
86,328,31429,2,0,L|166:319,1,80,8|2,0:0|0:0,0:0:0:0:
257,229,32127,6,0,L|252:190,1,40,2|0,0:0|0:0,0:0:0:0:
166,319,32476,2,0,L|171:358,1,40
262,268,32825,2,0,L|257:229,1,40,8|0,0:0|0:0,0:0:0:0:
166,138,33174,1,2,0:0:0:0:
166,138,33523,6,0,P|157:99|164:60,1,80,0|2,0:0|0:0,0:0:0:0:
259,306,34220,2,0,P|266:267|257:229,1,80,8|2,0:0|0:0,0:0:0:0:
166,138,34918,2,0,L|127:143,1,40,2|0,0:0|0:0,0:0:0:0:
80,188,35267,2,0,L|41:193,1,40
124,310,35616,2,0,P|134:271|125:233,1,80,8|2,0:0|0:0,0:0:0:0:
36,64,36313,2,0,P|26:103|35:142,1,80,0|2,0:0|0:0,0:0:0:0:
163,142,37011,2,0,L|243:133,1,80,8|2,0:0|0:0,0:0:0:0:
333,223,37709,22,0,L|338:262,1,40,2|0,0:0|0:0,0:0:0:0:
394,319,38057,2,0,L|399:358,1,40
344,202,38406,2,0,L|344:241,1,40,8|0,0:0|0:0,0:0:0:0:
396,302,38754,2,0,L|396:341,1,40,2|0,0:0|0:0,0:0:0:0:
354,221,39104,2,0,L|358:182,1,40,0|2,0:0|0:0,0:0:0:0:
400,286,39452,2,0,L|396:325,1,40,2|0,0:0|0:0,0:0:0:0:
354,221,39802,6,0,L|358:182,1,40,8|0,0:0|0:0,0:0:0:0:
403,136,40150,2,0,L|407:97,1,40,2|0,0:0|0:0,0:0:0:0:
361,50,40499,2,0,P|302:38|244:52,1,120,2|0,0:0|0:0,0:0:0:0:
199,98,41197,2,0,L|119:107,1,80,8|2,0:0|0:0,0:0:0:0:
290,265,41895,2,0,P|298:226|289:188,1,80,0|2,0:0|0:0,0:0:0:0:
199,98,42592,2,0,L|119:107,1,80,8|2,0:0|0:0,0:0:0:0:
28,197,43290,6,0,L|67:193,1,40,2|0,0:0|0:0,0:0:0:0:
152,234,43639,2,0,L|113:238,1,40
198,279,43988,2,0,L|237:275,1,40,8|0,0:0|0:0,0:0:0:0:
282,320,44336,1,2,0:0:0:0:
395,206,44685,1,0,0:0:0:0:
485,296,45034,22,0,L|446:300,1,40,2|2,0:0|0:0,0:0:0:0:
399,254,45383,1,2,0:0:0:0:
401,242,45557,1,2,0:0:0:0:
402,229,45732,1,2,0:0:0:0:
403,217,45906,1,2,0:0:0:0:
448,171,46081,6,0,L|453:132,1,40,2|0,0:0|0:0,0:0:0:0:
412,47,46429,2,0,L|407:86,1,40
361,132,46778,2,0,P|315:139|271:123,1,80,8|2,0:0|0:0,0:0:0:0:
153,44,47476,2,0,L|192:39,1,40
106,89,47825,2,0,L|67:94,1,40,2|0,0:0|0:0,0:0:0:0:
150,211,48174,2,0,P|159:173|152:134,1,80,8|2,0:0|0:0,0:0:0:0:
22,211,48697,1,0,0:0:0:0:
22,211,48871,6,0,P|12:249|20:288,1,80,2|0,0:0|0:0,0:0:0:0:
28,297,49395,1,0,0:0:0:0:
36,305,49569,2,0,L|116:296,1,80,8|2,0:0|0:0,0:0:0:0:
124,304,50092,1,8,0:0:0:0:
132,312,50267,2,0,P|171:319|209:310,1,80,0|10,0:0|0:0,0:0:0:0:
339,214,50964,22,0,L|300:219,1,40,8|0,0:0|0:0,0:0:0:0:
385,259,51313,2,0,L|424:254,1,40,2|0,0:0|0:0,0:0:0:0:
338,304,51662,2,0,L|258:313,1,80,2|0,0:0|0:0,0:0:0:0:
167,222,52360,2,0,P|159:182|168:144,1,80,8|2,0:0|0:0,0:0:0:0:
298,65,53057,2,0,P|304:105|295:144,1,80,0|2,0:0|0:0,0:0:0:0:
204,233,53755,2,0,P|195:271|203:310,1,80,8|2,0:0|0:0,0:0:0:0:
332,231,54453,6,0,P|340:192|334:152,1,80,2|0,0:0|0:0,0:0:0:0:
326,144,54977,1,0,0:0:0:0:
318,136,55151,2,0,L|238:145,1,80,8|2,0:0|0:0,0:0:0:0:
230,137,55674,1,0,0:0:0:0:
221,128,55848,2,0,L|182:133,1,40
96,183,56197,6,0,L|135:178,1,40,2|0,0:0|0:0,0:0:0:0:
182,133,56546,2,0,L|187:94,1,40,8|0,0:0|0:0,0:0:0:0:
251,93,56895,2,0,L|246:132,1,40,2|0,0:0|0:0,0:0:0:0:
291,177,57243,2,0,L|330:172,1,40,2|0,0:0|0:0,0:0:0:0:
244,222,57592,2,0,L|205:217,1,40
83,260,57941,2,0,P|122:269|161:261,1,80,8|2,0:0|0:0,0:0:0:0:
290,267,58464,1,0,0:0:0:0:
290,267,58639,22,0,L|299:347,1,80,0|2,0:0|0:0,0:0:0:0:
412,233,59336,2,0,L|421:153,1,80,8|2,0:0|0:0,0:0:0:0:
330,62,60034,2,0,P|292:52|253:60,1,80,2|0,0:0|0:0,0:0:0:0:
244,68,60558,1,0,0:0:0:0:
235,76,60732,2,0,L|226:156,1,80,8|2,0:0|0:0,0:0:0:0:
217,164,61255,1,8,0:0:0:0:
208,172,61429,2,0,L|169:177,2,40,0|2|10,0:0|0:0|0:0,0:0:0:0:
117,262,62127,6,0,L|78:267,1,40,8|0,0:0|0:0,0:0:0:0:
163,307,62476,2,0,L|201:301,1,40,2|0,0:0|0:0,0:0:0:0:
247,255,62825,2,0,L|238:175,1,80,2|0,0:0|0:0,0:0:0:0:
124,61,63523,2,0,L|133:141,1,80,8|2,0:0|0:0,0:0:0:0:
125,149,64046,1,0,0:0:0:0:
116,157,64221,2,0,P|110:196|119:234,1,80,0|2,0:0|0:0,0:0:0:0:
275,311,64918,2,0,P|285:273|279:234,1,80,8|2,0:0|0:0,0:0:0:0:
165,120,65616,5,2,0:0:0:0:
324,103,65964,1,0,0:0:0:0:
83,103,66313,1,8,0:0:0:0:
242,86,66661,1,2,0:0:0:0:
242,86,67011,2,0,L|233:166,1,80,2|0,0:0|0:0,0:0:0:0:
150,284,67709,22,0,L|189:289,1,40,8|8,0:0|0:0,0:0:0:0:
246,345,68057,2,0,L|285:350,1,40
342,293,68406,21,2,0:0:0:0:
364,271,68581,1,0,0:0:0:0:
364,240,68755,1,0,0:0:0:0:
341,218,68929,1,2,0:0:0:0:
260,218,69104,21,8,0:0:0:0:
238,196,69279,1,0,0:0:0:0:
238,165,69453,1,2,0:0:0:0:
261,143,69627,1,0,0:0:0:0:
341,218,69802,5,0,0:0:0:0:
364,240,69977,1,0,0:0:0:0:
364,271,70151,1,2,0:0:0:0:
342,293,70326,1,2,0:0:0:0:
260,218,70500,5,8,0:0:0:0:
238,196,70674,1,0,0:0:0:0:
238,165,70848,1,2,0:0:0:0:
261,143,71023,1,0,0:0:0:0:
340,143,71197,22,0,L|379:148,1,40,2|0,0:0|0:0,0:0:0:0:
379,228,71546,2,0,L|340:223,1,40,0|0,0:0|3:0,0:0:0:0:
243,274,71895,2,0,L|282:279,1,40,8|0,0:0|0:0,0:0:0:0:
185,217,72243,2,0,L|146:212,1,40,2|8,0:0|0:0,0:0:0:0:
242,159,72592,38,0,L|281:164,1,40,0|2,0:0|0:0,0:0:0:0:
152,70,73290,6,0,L|113:65,1,40,8|0,0:0|0:0,0:0:0:0:
112,145,73639,2,0,L|151:150,1,40,2|0,0:0|0:0,0:0:0:0:
151,230,73988,5,2,0:0:0:0:
119,226,74162,1,0,0:0:0:0:
87,223,74336,1,0,0:0:0:0:
54,219,74511,1,2,0:0:0:0:
151,309,74685,5,8,0:0:0:0:
184,305,74860,1,0,0:0:0:0:
216,302,75034,1,2,0:0:0:0:
248,298,75208,1,0,0:0:0:0:
151,230,75383,21,0,0:0:0:0:
119,226,75557,1,0,0:0:0:0:
87,223,75731,1,2,0:0:0:0:
54,219,75906,1,2,0:0:0:0:
151,309,76081,5,8,0:0:0:0:
184,305,76256,1,0,0:0:0:0:
216,302,76430,1,2,0:0:0:0:
248,298,76604,1,0,0:0:0:0:
343,246,76778,2,0,L|304:241,1,40,2|0,0:0|0:0,0:0:0:0:
246,184,77127,6,0,P|238:144|247:106,2,80,0|8|2,0:0|0:0|0:0,0:0:0:0:
359,297,78174,2,0,P|368:258|361:219,1,80,0|2,0:0|0:0,0:0:0:0:
248,106,78871,2,0,P|209:96|170:104,1,80,8|2,0:0|0:0,0:0:0:0:
113,161,79395,1,0,0:0:0:0:
122,152,79569,2,0,P|83:160|45:150,1,80,2|0,0:0|0:0,0:0:0:0:
158,36,80267,2,0,P|196:27|235:38,1,80,8|2,0:0|0:0,0:0:0:0:
348,151,80964,2,0,L|357:231,1,80,0|2,0:0|0:0,0:0:0:0:
243,344,81662,22,0,L|204:339,1,40,8|0,0:0|0:0,0:0:0:0:
203,258,82011,2,0,L|242:263,1,40,2|0,0:0|0:0,0:0:0:0:
299,206,82360,2,0,P|305:166|296:128,1,80,2|0,0:0|0:0,0:0:0:0:
183,241,83057,2,0,P|176:280|185:318,1,80,8|2,0:0|0:0,0:0:0:0:
346,318,83755,21,0,0:0:0:0:
369,296,83930,1,8,0:0:0:0:
369,265,84104,1,2,0:0:0:0:
347,243,84278,1,0,0:0:0:0:
404,186,84453,2,0,L|443:181,2,40,8|0|2,0:0|0:0|0:0,0:0:0:0:
290,300,85150,22,0,L|251:305,1,40,2|0,0:0|0:0,0:0:0:0:
347,244,85499,2,0,L|386:239,1,40
215,274,85848,2,0,L|176:279,1,40,8|0,0:0|0:0,0:0:0:0:
272,218,86197,2,0,L|311:213,1,40,2|0,0:0|0:0,0:0:0:0:
445,157,86546,6,0,P|406:149|367:158,1,80,0|2,0:0|0:0,0:0:0:0:
215,274,87243,2,0,P|176:284|137:276,1,80,8|2,0:0|0:0,0:0:0:0:
24,162,87941,2,0,L|15:82,1,80,2|0,0:0|0:0,0:0:0:0:
175,82,88639,1,8,0:0:0:0:
178,114,88813,1,0,0:0:0:0:
181,146,88988,1,2,0:0:0:0:
293,258,89336,2,0,P|331:265|370:255,1,80,0|2,0:0|0:0,0:0:0:0:
483,142,90034,6,0,L|488:103,1,40,8|0,0:0|0:0,0:0:0:0:
412,64,90383,2,0,L|407:103,1,40,2|0,0:0|0:0,0:0:0:0:
350,160,90732,21,2,0:0:0:0:
328,137,90907,1,0,0:0:0:0:
297,137,91081,1,0,0:0:0:0:
275,159,91255,1,2,0:0:0:0:
143,216,91429,21,8,0:0:0:0:
165,238,91603,1,0,0:0:0:0:
196,238,91777,1,2,0:0:0:0:
218,215,91952,1,0,0:0:0:0:
275,159,92127,21,0,0:0:0:0:
279,127,92302,1,0,0:0:0:0:
282,95,92476,1,2,0:0:0:0:
286,62,92651,1,2,0:0:0:0:
206,62,92825,5,8,0:0:0:0:
202,95,93000,1,0,0:0:0:0:
199,127,93174,1,2,0:0:0:0:
195,159,93349,1,0,0:0:0:0:
138,215,93523,2,0,L|99:220,1,40,2|0,0:0|0:0,0:0:0:0:
275,159,93871,6,0,L|314:154,1,40,0|0,0:0|3:0,0:0:0:0:
410,205,94220,2,0,L|371:210,1,40,8|0,0:0|0:0,0:0:0:0:
371,97,94569,2,0,L|410:92,1,40,2|8,0:0|0:0,0:0:0:0:
506,143,94918,6,0,L|467:148,1,40,0|2,0:0|0:0,0:0:0:0:
352,261,95616,6,0,L|313:266,1,40,8|0,0:0|0:0,0:0:0:0:
256,210,95964,2,0,L|217:215,1,40,2|0,0:0|0:0,0:0:0:0:
216,134,96313,5,2,0:0:0:0:
248,130,96488,1,0,0:0:0:0:
280,127,96662,1,0,0:0:0:0:
313,123,96837,1,2,0:0:0:0:
463,169,97011,5,8,0:0:0:0:
434,173,97186,1,0,0:0:0:0:
402,176,97360,1,2,0:0:0:0:
370,180,97535,1,0,0:0:0:0:
313,236,97709,21,0,0:0:0:0:
335,258,97883,1,0,0:0:0:0:
335,289,98057,1,2,0:0:0:0:
312,311,98232,1,2,0:0:0:0:
232,311,98406,5,8,0:0:0:0:
210,290,98580,1,0,0:0:0:0:
210,259,98754,1,2,0:0:0:0:
233,237,98929,1,0,0:0:0:0:
176,181,99104,2,0,L|137:186,1,40,2|0,0:0|0:0,0:0:0:0:
79,130,99453,6,0,P|69:92|76:53,2,80,0|8|2,0:0|0:0|0:0,0:0:0:0:
239,130,100499,2,0,P|277:119|316:127,1,80,0|2,0:0|0:0,0:0:0:0:
429,241,101197,2,0,P|390:250|351:243,1,80,8|2,0:0|0:0,0:0:0:0:
294,186,101720,1,0,0:0:0:0:
303,195,101894,2,0,P|264:187|226:197,1,80,2|0,0:0|0:0,0:0:0:0:
386,197,102592,2,8,P|396:158|388:119,1,80,8|2,0:0|0:0,0:0:0:0:
274,233,103290,2,8,P|264:272|272:311,1,80,0|2,0:0|0:0,0:0:0:0:
158,196,103988,22,0,L|119:191,1,40,8|0,0:0|0:0,0:0:0:0:
153,314,104336,2,0,L|158:275,1,40,2|0,0:0|0:0,0:0:0:0:
101,217,104685,2,0,L|21:208,1,80,2|0,0:0|0:0,0:0:0:0:
182,208,105383,2,0,L|191:128,1,80,8|2,0:0|0:0,0:0:0:0:
304,242,106081,5,0,0:0:0:0:
327,264,106256,1,8,0:0:0:0:
327,295,106430,1,2,0:0:0:0:
305,317,106604,1,0,0:0:0:0:
225,326,106778,1,8,0:0:0:0:
111,212,107127,6,0,L|116:173,1,40,2|0,0:0|0:0,0:0:0:0:
196,172,107476,6,0,L|191:211,1,40,2|0,0:0|0:0,0:0:0:0:
304,325,108174,6,0,P|342:314|381:322,1,80,8|2,0:0|0:0,0:0:0:0:
494,208,108871,2,0,P|456:197|417:205,1,80,0|2,0:0|0:0,0:0:0:0:
303,318,109569,2,0,L|308:357,2,40,8|0|2,0:0|0:0|0:0,0:0:0:0:
189,204,110267,2,0,L|109:213,1,80,2|0,0:0|0:0,0:0:0:0:
222,99,110964,2,0,L|217:60,2,40,8|0|2,0:0|0:0|0:0,0:0:0:0:
335,212,111662,2,0,L|415:203,2,80,0|2|8,3:0|0:0|0:0,0:0:0:0:
335,212,113057,37,4,0:1:0:0:
