osu file format v14

[General]
AudioFilename: AiFei.mp3
AudioLeadIn: 0
PreviewTime: 1430
Countdown: 0
SampleSet: Soft
StackLeniency: 0.7
Mode: 0
LetterboxInBreaks: 0
WidescreenStoryboard: 1

[Editor]
DistanceSpacing: 1.6
BeatDivisor: 4
GridSize: 4
TimelineZoom: 1

[Metadata]
Title:Ai Fei
TitleUnicode:爱妃
Artist:HOHO
ArtistUnicode:后弦
Creator:CET 6
Version:Hard
Source:
Tags:古风 love houxian hou xian
BeatmapID:614343
BeatmapSetID:270033

[Difficulty]
HPDrainRate:5
CircleSize:4
OverallDifficulty:6
ApproachRate:7
SliderMultiplier:1.4
SliderTickRate:2

[Events]
//Background and Video events
0,0,"BG.jpg",0,0
//Break Periods
//Storyboard Layer 0 (Background)
//Storyboard Layer 1 (Fail)
//Storyboard Layer 2 (Pass)
//Storyboard Layer 3 (Foreground)
//Storyboard Sound Samples

[TimingPoints]
1430,697.674418604651,4,2,1,60,1,0
1953,-100,4,2,1,5,0,0
2127,-100,4,2,1,60,0,0
2650,-100,4,2,1,5,0,0
2825,-100,4,2,1,60,0,0
7011,-133.333333333333,4,2,1,60,0,0
9802,-100,4,2,1,60,0,0
12592,-100,4,2,1,40,0,0
13290,-100,4,2,1,60,0,0
13639,-100,4,2,1,60,0,0
13813,-100,4,2,1,40,0,0
13988,-100,4,2,1,60,0,0
14336,-100,4,2,1,40,0,0
14685,-100,4,2,1,60,0,0
15383,-100,4,2,1,40,0,0
16081,-100,4,2,1,60,0,0
16604,-100,4,2,1,40,0,0
16778,-100,4,2,1,60,0,0
17127,-100,4,2,1,40,0,0
17476,-100,4,2,1,60,0,0
18174,-100,4,2,1,40,0,0
18871,-100,4,2,1,60,0,0
19395,-100,4,2,1,40,0,0
19569,-100,4,2,1,60,0,0
19918,-100,4,2,1,40,0,0
20267,-100,4,2,1,60,0,0
20964,-100,4,2,1,40,0,0
21662,-100,4,2,1,60,0,0
22011,-100,4,2,1,40,0,0
23057,-100,4,2,1,5,0,0
23755,-100,4,2,1,60,0,0
24278,-100,4,2,1,5,0,0
24453,-100,4,2,1,60,0,0
29860,-100,4,2,1,5,0,0
30034,-100,4,2,1,60,0,0
34743,-100,4,2,1,5,0,0
34918,-100,4,2,1,60,0,0
38232,-100,4,2,1,5,0,0
38406,-100,4,2,1,60,0,0
45383,-100,4,2,1,50,0,0
45732,-100,4,2,1,50,0,0
46081,-100,4,2,1,60,0,0
46604,-100,4,2,1,5,0,0
46778,-100,4,2,1,60,0,0
52185,-100,4,2,1,5,0,0
52360,-100,4,2,1,60,0,0
57069,-100,4,2,1,5,0,0
57243,-100,4,2,1,60,0,0
60557,-100,4,2,1,5,0,0
60732,-100,4,2,1,60,0,0
68406,-100,4,2,1,70,0,1
68929,-100,4,2,1,5,0,1
69104,-100,4,2,1,70,0,1
69627,-100,4,2,1,30,0,1
69802,-100,4,2,1,70,0,1
72418,-100,4,2,1,60,0,1
72592,-100,4,2,1,70,0,1
74511,-100,4,2,1,40,0,1
74685,-100,4,2,1,70,0,1
75906,-100,4,2,1,40,0,1
76081,-100,4,2,1,70,0,1
91255,-100,4,2,1,5,0,1
91429,-100,4,2,1,70,0,1
91953,-100,4,2,1,30,0,1
92127,-100,4,2,1,70,0,1
94743,-100,4,2,1,60,0,1
94918,-100,4,2,1,70,0,1
96836,-100,4,2,1,50,0,1
97011,-100,4,2,1,70,0,1
98232,-100,4,2,1,50,0,1
98406,-100,4,2,1,70,0,1
102418,-100,4,2,1,5,0,1
102592,-100,4,2,1,70,0,1
105209,-100,4,2,1,5,0,1
105383,-100,4,2,1,70,0,1
111662,-100,4,2,1,50,0,1
113057,-100,4,2,1,60,0,0

[Colours]
Combo1 : 255,128,192
Combo2 : 255,255,128
Combo3 : 128,255,128
Combo4 : 128,255,255

[HitObjects]
48,348,1430,6,0,P|34:298|50:230,1,105
71,217,2127,2,0,P|85:167|69:99,1,105
34,110,2825,2,0,L|177:125,1,140
292,243,4220,6,0,L|363:250,1,70
490,198,4918,2,0,L|421:191,1,70
289,246,5616,2,0,L|360:253,1,70
494,196,6314,2,0,L|424:188,1,70
364,130,7011,22,0,P|350:80|366:12,1,105
486,21,8406,2,0,P|500:71|484:139,1,105,0|0,0:0|0:0,0:0:0:0:
402,211,9802,6,0,L|330:218,1,70
202,165,10500,2,0,L|272:158,1,70
405,214,11197,2,0,L|335:221,1,70
199,162,11895,2,0,L|268:154,1,70
327,213,12592,5,8,0:3:0:0:
327,213,12941,1,8,0:3:0:0:
386,272,13290,1,0,0:0:0:0:
327,213,13639,2,0,L|298:184,1,35,0|8,0:0|0:3,0:0:0:0:
268,154,13988,2,0,L|199:162,2,70,0|8|0,0:0|0:3|0:3,0:0:0:0:
149,272,15383,5,8,0:3:0:0:
149,272,15732,1,8,0:3:0:0:
208,331,16081,1,0,0:0:0:0:
149,272,16429,2,0,L|120:243,1,35,0|8,0:0|0:3,0:0:0:0:
90,213,16779,2,0,L|21:221,2,70,0|8|0,0:0|0:3|0:0,0:0:0:0:
208,94,18174,21,8,0:3:0:0:
208,94,18523,1,8,0:3:0:0:
149,35,18872,1,0,0:0:0:0:
208,94,19220,2,0,L|236:122,1,35,0|8,0:0|0:3,0:0:0:0:
267,153,19569,2,0,L|336:145,2,70,0|8|0,0:0|0:3|0:0,0:0:0:0:
207,212,20616,1,0,0:0:0:0:
266,271,20964,6,0,L|274:340,2,70,8|8|0,0:3|0:3|0:0,0:0:0:0:
207,212,22010,2,0,L|235:240,1,35,8|0,0:3|0:0,0:0:0:0:
266,271,22360,2,0,L|433:251,1,140,8|0,0:3|0:0,0:0:0:0:
405,58,23755,6,0,L|300:70,1,105,2|0,0:0|0:0,0:0:0:0:
265,105,24453,2,0,L|186:95,1,70,8|2,0:0|0:0,0:0:0:0:
116,17,25150,2,0,L|37:7,1,70,0|2,0:0|0:0,0:0:0:0:
195,96,25848,2,0,L|265:105,1,70,8|2,0:0|0:0,0:0:0:0:
344,184,26546,2,0,P|354:218|342:282,1,70,2|0,0:0|0:0,0:0:0:0:
248,320,27243,2,0,P|238:286|240:252,1,70,8|2,0:0|0:0,0:0:0:0:
344,184,27941,2,0,P|354:218|342:282,1,70,0|2,0:0|0:0,0:0:0:0:
248,320,28639,21,8,0:0:0:0:
248,320,28988,1,2,0:0:0:0:
169,241,29336,2,0,P|119:227|51:243,1,105,2|0,0:0|0:0,0:0:0:0:
27,195,30034,2,0,P|17:161|18:126,1,70,8|2,0:0|0:0,0:0:0:0:
121,57,30732,1,0,0:0:0:0:
121,57,31081,2,0,P|131:91|130:126,1,70,2|8,0:0|0:0,0:0:0:0:
209,205,31778,1,2,0:0:0:0:
288,125,32127,6,0,P|338:111|406:127,1,105,2|0,0:0|0:0,0:0:0:0:
429,158,32825,1,8,0:0:0:0:
429,158,33174,1,2,0:0:0:0:
373,255,33523,2,0,P|338:256|304:246,1,70,0|2,0:0|0:0,0:0:0:0:
225,167,34220,2,0,P|175:153|107:169,1,105,8|0,0:0|0:0,0:0:0:0:
84,200,34918,5,2,0:0:0:0:
84,200,35267,1,0,0:0:0:0:
140,297,35616,2,0,P|174:298|208:288,1,70,8|2,0:0|0:0,0:0:0:0:
287,208,36313,2,0,P|321:207|355:217,1,70,0|2,0:0|0:0,0:0:0:0:
423,338,37011,2,0,P|388:339|355:329,1,70,8|2,0:0|0:0,0:0:0:0:
275,249,37709,22,0,B|271:217|271:217|248:183|248:183|243:139,1,105,2|0,0:0|0:0,0:0:0:0:
205,112,38406,1,8,0:0:0:0:
284,32,38755,1,2,0:0:0:0:
205,112,39104,2,0,L|157:106,2,35,0|2|0,0:0|0:0|0:0,0:0:0:0:
125,32,39802,6,0,L|56:40,1,70,8|2,0:0|0:0,0:0:0:0:
125,191,40499,1,2,0:0:0:0:
205,112,40848,1,0,0:0:0:0:
317,112,41197,2,0,L|386:104,1,70,8|2,0:0|0:0,0:0:0:0:
237,191,41895,2,0,L|168:199,1,70,0|2,0:0|0:0,0:0:0:0:
317,112,42592,2,0,L|386:104,1,70,8|2,0:0|0:0,0:0:0:0:
274,103,43290,5,2,0:0:0:0:
162,114,43639,1,0,0:0:0:0:
139,224,43988,1,8,0:0:0:0:
236,280,44336,1,2,0:0:0:0:
319,205,44685,1,0,0:0:0:0:
139,224,45383,21,2,0:0:0:0:
139,224,45557,1,2,0:0:0:0:
139,224,45732,1,2,0:0:0:0:
139,224,45906,1,2,0:0:0:0:
104,189,46081,6,0,L|116:294,1,105,2|0,0:0|0:0,0:0:0:0:
66,293,46779,2,0,L|74:362,1,70,8|2,0:0|0:0,0:0:0:0:
178,293,47476,2,0,L|169:223,1,70,0|2,0:0|0:0,0:0:0:0:
248,144,48174,2,0,P|282:134|346:146,1,70,8|2,0:0|0:0,0:0:0:0:
340,140,48697,1,0,0:0:0:0:
360,152,48871,2,0,P|393:161|428:160,1,70,2|0,0:0|0:0,0:0:0:0:
316,135,49569,2,0,P|281:134|247:144,1,70,8|2,0:0|0:0,0:0:0:0:
169,223,50267,2,0,L|173:258,2,35,0|2|2,0:0|0:0|0:0,0:0:0:0:
248,303,50965,5,8,0:0:0:0:
248,303,51314,1,2,0:0:0:0:
359,303,51662,2,0,L|347:198,1,105,2|0,0:0|0:0,0:0:0:0:
386,158,52360,2,0,P|419:148|454:148,1,70,8|2,0:0|0:0,0:0:0:0:
476,260,53057,2,0,L|484:329,1,70,0|2,0:0|0:0,0:0:0:0:
359,303,53755,2,0,L|350:224,1,70,8|2,0:0|0:0,0:0:0:0:
271,153,54453,22,0,P|221:139|153:155,1,105,2|0,0:0|0:0,0:0:0:0:
129,186,55151,1,8,0:0:0:0:
129,186,55500,1,2,0:0:0:0:
129,298,55849,2,0,P|95:307|60:306,1,70,0|2,0:0|0:0,0:0:0:0:
169,147,56546,2,0,P|220:138|271:153,1,105,8|0,0:0|0:0,0:0:0:0:
310,192,57244,5,2,0:0:0:0:
310,192,57593,1,0,0:0:0:0:
310,303,57941,2,0,P|344:313|408:301,1,70,8|2,0:0|0:0,0:0:0:0:
402,307,58464,1,0,0:0:0:0:
422,295,58639,2,0,P|455:285|490:286,1,70,2|2,0:0|0:0,0:0:0:0:
378,311,59336,2,0,P|343:312|310:303,1,70,8|2,0:0|0:0,0:0:0:0:
230,223,60035,6,0,L|218:118,1,105,2|0,0:0|0:0,0:0:0:0:
257,79,60732,1,8,0:0:0:0:
336,158,61081,1,2,0:0:0:0:
448,158,61430,2,0,L|496:164,2,35,0|2|0,0:0|0:0|0:0,0:0:0:0:
448,45,62128,22,0,L|379:53,1,70,8|2,0:0|0:0,0:0:0:0:
230,140,62825,2,0,B|295:132|295:132|349:170,1,105,2|0,0:0|0:0,0:0:0:0:
367,194,63523,2,0,P|373:227|361:263,1,70,8|2,0:0|0:0,0:0:0:0:
145,190,64220,2,0,P|139:157|151:121,1,70,0|2,0:0|0:0,0:0:0:0:
367,194,64918,2,0,P|373:227|361:263,1,70,8|2,0:0|0:0,0:0:0:0:
282,340,65616,21,2,0:0:0:0:
170,329,65965,1,0,0:0:0:0:
147,219,66314,1,8,0:0:0:0:
244,163,66662,1,2,0:0:0:0:
327,238,67011,2,0,L|396:230,1,70,2|0,0:0|0:0,0:0:0:0:
396,117,67709,22,0,L|361:121,2,35,8|8|0,0:0|0:0|0:0,0:0:0:0:
332,211,68406,2,0,P|281:225|230:216,1,105,2|0,0:0|0:0,0:0:0:0:
190,176,69104,2,0,L|121:184,1,70,8|2,0:0|0:0,0:0:0:0:
80,224,69628,1,2,0:0:0:0:
119,263,69802,2,0,L|188:255,1,70,0|2,0:0|0:0,0:0:0:0:
266,334,70500,2,0,L|197:342,1,70,8|2,0:0|0:0,0:0:0:0:
197,342,71197,22,0,P|211:291|202:240,1,105,2|0,0:0|3:0,0:0:0:0:
241,199,71895,2,0,P|274:189|308:192,1,70,8|2,0:0|0:0,0:0:0:0:
326,209,72418,1,8,0:0:0:0:
309,192,72592,2,0,P|298:154|304:115,1,70,0|2,0:0|0:0,0:0:0:0:
380,44,73290,21,8,0:0:0:0:
380,44,73639,1,2,0:0:0:0:
459,123,73988,2,0,P|425:133|391:130,1,70,2|0,0:0|0:0,0:0:0:0:
351,90,74511,1,2,0:0:0:0:
311,129,74685,2,0,P|300:162|304:196,1,70,8|2,0:0|0:0,0:0:0:0:
383,275,75383,22,0,P|417:278|451:268,1,70,0|2,0:0|0:0,0:0:0:0:
490,228,75906,1,2,0:0:0:0:
450,188,76081,2,0,P|447:153|457:120,2,70,8|2|2,0:0|0:0|0:0,0:0:0:0:
337,188,77127,5,0,0:0:0:0:
449,199,77476,1,8,0:0:0:0:
472,309,77825,1,2,0:0:0:0:
375,365,78173,1,0,0:0:0:0:
292,290,78522,1,2,0:0:0:0:
179,290,78871,37,8,0:0:0:0:
179,290,79220,1,2,0:0:0:0:
99,210,79569,2,0,P|96:175|106:142,1,70,2|0,0:0|0:0,0:0:0:0:
185,62,80267,2,0,L|254:54,2,70,8|2|0,0:0|0:0|0:0,0:0:0:0:
105,142,81313,1,2,0:0:0:0:
185,221,81662,22,0,P|195:254|191:288,1,70,8|2,0:0|0:0,0:0:0:0:
271,368,82360,2,0,L|340:360,1,70,2|0,0:0|0:0,0:0:0:0:
409,239,83057,2,0,L|340:247,1,70,8|2,0:0|0:0,0:0:0:0:
270,142,83755,2,0,L|339:134,2,70,0|2|8,0:0|0:0|0:0,0:0:0:0:
190,62,84802,1,2,0:0:0:0:
110,141,85150,6,0,P|99:174|103:208,1,70,2|0,0:0|0:0,0:0:0:0:
252,297,85848,2,0,P|262:263|258:229,1,70,8|2,0:0|0:0,0:0:0:0:
95,157,86546,2,0,P|92:192|102:224,1,70,0|2,0:0|0:0,0:0:0:0:
266,279,87244,2,0,P|269:244|258:211,1,70,8|2,0:0|0:0,0:0:0:0:
178,132,87941,6,0,L|109:124,1,70,2|0,0:0|0:0,0:0:0:0:
259,213,88639,2,0,L|328:221,1,70,8|2,0:0|0:0,0:0:0:0:
178,132,89336,2,0,L|109:124,1,70,0|2,0:0|0:0,0:0:0:0:
259,213,90034,2,0,L|328:221,1,70,8|0,0:0|0:0,0:0:0:0:
440,221,90732,38,0,P|448:169|434:119,1,105,2|0,0:0|0:0,0:0:0:0:
394,79,91429,2,0,L|325:71,1,70,8|2,0:0|0:0,0:0:0:0:
284,110,91953,1,2,0:0:0:0:
323,149,92127,2,0,L|392:157,1,70,0|2,0:0|0:0,0:0:0:0:
471,236,92825,2,0,L|402:228,1,70,8|2,0:0|0:0,0:0:0:0:
402,228,93523,6,0,P|351:214|300:223,1,105,2|0,0:0|3:0,0:0:0:0:
264,263,94221,2,0,P|254:296|257:330,1,70,8|2,0:0|0:0,0:0:0:0:
274,348,94744,1,8,0:0:0:0:
257,331,94918,2,0,P|219:320|180:326,1,70,0|2,0:0|0:0,0:0:0:0:
109,243,95616,21,8,0:0:0:0:
109,243,95964,1,2,0:0:0:0:
188,163,96313,2,0,P|191:129|180:95,1,70,2|0,0:0|0:0,0:0:0:0:
140,55,96836,1,2,0:0:0:0:
178,15,97011,2,0,P|211:4|246:7,1,70,8|2,0:0|0:0,0:0:0:0:
326,86,97709,6,0,P|360:89|393:78,1,70,0|2,0:0|0:0,0:0:0:0:
433,39,98232,1,2,0:0:0:0:
472,78,98406,2,0,P|482:111|479:146,2,70,8|2|2,0:0|0:0|0:0,0:0:0:0:
359,78,99453,21,0,0:0:0:0:
471,89,99802,1,8,0:0:0:0:
494,199,100151,1,2,0:0:0:0:
397,255,100499,1,0,0:0:0:0:
314,180,100848,1,2,0:0:0:0:
201,180,101197,37,8,0:0:0:0:
201,180,101546,1,2,0:0:0:0:
201,180,101895,2,0,P|193:232|207:282,1,105,2|0,0:0|0:0,0:0:0:0:
263,281,102593,2,0,P|296:270|330:274,2,70,8|2|0,0:0|0:0|0:0,0:0:0:0:
183,360,103639,1,2,0:0:0:0:
103,280,103988,22,0,P|70:269|35:273,1,70,8|2,0:0|0:0,0:0:0:0:
147,273,104685,2,0,P|154:221|140:171,1,105,2|0,0:0|0:0,0:0:0:0:
100,131,105383,2,0,P|66:121|32:125,1,70,8|2,0:0|0:0,0:0:0:0:
144,124,106081,2,0,P|148:89|139:55,2,70,0|2|8,0:0|0:0|0:0,0:0:0:0:
64,203,107127,1,2,0:0:0:0:
143,282,107476,22,0,P|176:293|210:289,1,70,2|0,0:0|0:0,0:0:0:0:
289,209,108174,2,0,P|323:205|356:215,1,70,8|2,0:0|0:0,0:0:0:0:
210,288,108871,2,0,P|175:292|143:282,1,70,0|2,0:0|0:0,0:0:0:0:
289,209,109569,2,0,P|323:205|356:215,1,70,8|2,0:0|0:0,0:0:0:0:
436,136,110267,38,0,L|428:67,1,70,2|0,0:0|0:0,0:0:0:0:
315,66,110965,2,0,L|323:135,1,70,8|2,0:0|0:0,0:0:0:0:
211,135,111662,2,0,L|203:66,2,70,0|2|8,3:0|0:0|0:0,0:0:0:0:
98,135,113057,21,4,0:1:0:0:
