osu file format v14

[General]
AudioFilename: AiFei.mp3
AudioLeadIn: 0
PreviewTime: 1430
Countdown: 0
SampleSet: Soft
StackLeniency: 0.7
Mode: 0
LetterboxInBreaks: 0
WidescreenStoryboard: 0

[Editor]
DistanceSpacing: 1
BeatDivisor: 4
GridSize: 4
TimelineZoom: 1

[Metadata]
Title:Ai Fei
TitleUnicode:爱妃
Artist:HOHO
ArtistUnicode:后弦
Creator:CET 6
Version:Normal
Source:
Tags:古风 love houxian hou xian
BeatmapID:614345
BeatmapSetID:270033

[Difficulty]
HPDrainRate:3
CircleSize:3
OverallDifficulty:3
ApproachRate:3
SliderMultiplier:1.2
SliderTickRate:2

[Events]
//Background and Video events
0,0,"BG.jpg",0,0
//Break Periods
//Storyboard Layer 0 (Background)
//Storyboard Layer 1 (Fail)
//Storyboard Layer 2 (Pass)
//Storyboard Layer 3 (Foreground)
//Storyboard Sound Samples

[TimingPoints]
1430,697.674418604651,4,2,1,60,1,0
12592,-100,4,2,1,40,0,0
13290,-100,4,2,1,60,0,0
15383,-100,4,2,1,40,0,0
16081,-100,4,2,1,60,0,0
18174,-100,4,2,1,40,0,0
18871,-100,4,2,1,60,0,0
20964,-100,4,2,1,40,0,0
21662,-100,4,2,1,60,0,0
68406,-100,4,2,1,70,0,1
111662,-100,4,2,1,50,0,1
113057,-100,4,2,1,60,0,0

[Colours]
Combo1 : 255,128,192
Combo2 : 255,255,128
Combo3 : 128,255,128
Combo4 : 128,255,255

[HitObjects]
60,35,1430,6,0,P|40:83|60:171,1,120,0|0,0:0|0:0,0:0:0:0:
132,234,2825,2,0,P|152:282|132:370,2,120,0|0|0,0:0|0:0|0:0,0:0:0:0:
47,149,4918,2,0,P|38:90|60:35,1,120,0|0,0:0|0:0,0:0:0:0:
180,35,6313,6,0,L|239:41,1,60
281,82,7011,2,0,P|290:141|269:197,1,120
160,243,8406,2,0,P|151:301|172:357,2,120,0|0|0,0:0|0:0|0:0,0:0:0:0:
269,197,10499,2,0,P|290:141|281:82,2,120,0|0|0,0:0|0:0|0:0,0:0:0:0:
354,282,12592,6,0,L|413:288,2,60,8|8|0,0:3|0:3|0:0,0:0:0:0:
244,327,13988,2,0,P|188:348|129:339,1,120,0|0,0:0|0:0,0:0:0:0:
44,254,15383,2,0,L|37:194,2,60,8|8|0,0:3|0:3|0:0,0:0:0:0:
129,339,16778,2,0,P|188:348|244:327,1,120,0|0,0:0|0:0,0:0:0:0:
329,241,18174,6,0,L|388:234,2,60,8|8|0,0:3|0:3|0:0,0:0:0:0:
244,156,19569,2,0,P|235:97|256:41,1,120,0|0,0:0|0:0,0:0:0:0:
376,41,20964,2,0,L|435:47,2,60,8|8|0,0:3|0:3|0:0,0:0:0:0:
394,159,22360,1,0,0:0:0:0:
224,328,23755,6,0,L|96:314,1,120,2|8,0:0|0:0,0:0:0:0:
19,230,25150,2,0,P|16:167|56:103,1,120,0|8,0:0|0:0,0:0:0:0:
160,143,26546,2,0,P|163:206|123:270,2,120,2|8|0,0:0|0:0|0:0,0:0:0:0:
75,58,28639,5,8,0:0:0:0:
191,27,29336,1,2,0:0:0:0:
275,111,30034,2,0,P|328:136|387:133,1,120,8|0,0:0|0:0,0:0:0:0:
472,48,31429,1,8,0:0:0:0:
388,133,32127,2,0,L|402:252,2,120,2|8|0,0:0|0:0|0:0,0:0:0:0:
472,48,34220,5,8,0:0:0:0:
388,133,34918,2,0,L|374:252,1,120,2|8,0:0|0:0,0:0:0:0:
290,337,36313,2,0,B|242:337|242:337|217:317|217:317|170:317,1,120,0|8,0:0|0:0,0:0:0:0:
92,231,37709,2,0,L|105:111,2,120,2|8|0,0:0|0:0|0:0,0:0:0:0:
7,315,39802,5,8,0:0:0:0:
92,231,40499,1,2,0:0:0:0:
208,267,41197,2,0,P|267:270|320:244,1,120,8|0,0:0|0:0,0:0:0:0:
409,163,42592,1,8,0:0:0:0:
295,126,43290,2,0,P|232:123|168:163,2,120,2|8|0,0:0|0:0|0:0,0:0:0:0:
321,245,45383,6,0,L|328:305,1,60,8|0,0:0|0:0,0:0:0:0:
285,347,46081,2,0,L|165:334,1,120,2|8,0:0|0:0,0:0:0:0:
80,249,47476,2,0,P|77:186|117:122,1,120,0|8,0:0|0:0,0:0:0:0:
222,136,48871,2,0,L|342:149,2,120,2|8|0,0:0|0:0|0:0,0:0:0:0:
137,51,50964,5,8,0:0:0:0:
52,135,51662,1,2,0:0:0:0:
136,219,52360,2,0,L|256:232,1,120,8|0,0:0|0:0,0:0:0:0:
340,316,53755,1,8,0:0:0:0:
424,231,54453,2,0,P|427:168|387:104,2,120,2|8|0,0:0|0:0|0:0,0:0:0:0:
340,316,56546,5,8,0:0:0:0:
256,232,57243,2,0,L|136:219,1,120,2|8,0:0|0:0,0:0:0:0:
91,108,58639,2,0,L|211:121,1,120,0|8,0:0|0:0,0:0:0:0:
295,205,60034,2,0,B|300:252|300:252|282:279|282:279|287:326,2,120,2|8|0,0:0|0:0|0:0,0:0:0:0:
379,120,62127,5,8,0:0:0:0:
463,35,62825,1,2,0:0:0:0:
495,150,63523,2,0,L|482:270,1,120,8|0,0:0|0:0,0:0:0:0:
397,354,64918,1,8,0:0:0:0:
312,269,65616,2,0,L|192:282,2,120,2|8|2,0:0|0:0|0:0,0:0:0:0:
396,184,67709,6,0,L|403:124,1,60,8|0,0:0|0:0,0:0:0:0:
360,81,68406,2,0,L|240:94,1,120,2|8,0:0|0:0,0:0:0:0:
154,178,69802,2,0,P|95:181|42:155,1,120,0|8,0:0|0:0,0:0:0:0:
69,39,71197,2,0,P|132:36|196:76,2,120,2|8|0,0:0|0:0|0:0,0:0:0:0:
42,156,73290,6,0,L|35:216,1,60,8|0,0:0|0:0,0:0:0:0:
77,258,73988,2,0,P|136:261|189:235,1,120,2|8,0:0|0:0,0:0:0:0:
274,150,75383,2,0,P|333:146|386:172,1,120,0|8,0:0|0:0,0:0:0:0:
478,249,76778,2,0,P|503:195|500:136,2,120,2|8|0,0:0|0:0|0:0,0:0:0:0:
393,333,78871,6,0,L|333:340,1,60,8|0,0:0|0:0,0:0:0:0:
290,297,79569,2,0,P|230:293|177:319,1,120,2|8,0:0|0:0,0:0:0:0:
92,234,80964,1,0,0:0:0:0:
7,318,81662,1,8,0:0:0:0:
92,234,82360,2,0,P|95:174|69:121,2,120,2|8|0,0:0|0:0|0:0,0:0:0:0:
212,234,84453,6,0,L|272:227,1,60,8|0,0:0|0:0,0:0:0:0:
314,184,85150,2,0,L|434:171,1,120,2|8,0:0|0:0,0:0:0:0:
433,50,86546,1,0,0:0:0:0:
313,63,87243,1,8,0:0:0:0:
228,147,87941,2,0,P|168:150|115:124,2,120,2|8|0,0:0|0:0|0:0,0:0:0:0:
312,231,90034,6,0,L|319:291,1,60,8|0,0:0|0:0,0:0:0:0:
361,333,90732,2,0,P|421:336|474:310,1,120,2|8,0:0|0:0,0:0:0:0:
473,190,92127,2,0,L|460:70,1,120,0|8,0:0|0:0,0:0:0:0:
345,36,93522,2,0,P|282:33|218:73,2,120,2|8|0,0:0|0:0|0:0,0:0:0:0:
345,156,95615,6,0,L|338:216,1,60,8|0,0:0|0:0,0:0:0:0:
295,258,96313,2,0,P|241:284|182:281,1,120,2|8,0:0|0:0,0:0:0:0:
97,196,97709,2,0,L|110:76,1,120,0|8,0:0|0:0,0:0:0:0:
225,42,99104,2,0,P|288:39|352:79,2,120,2|8|0,0:0|0:0|0:0,0:0:0:0:
140,126,101197,6,0,L|80:133,1,60,8|0,0:0|0:0,0:0:0:0:
37,175,101894,2,0,P|33:235|59:288,1,120,2|8,0:0|0:0,0:0:0:0:
143,372,103289,1,0,0:0:0:0:
228,286,103988,2,0,L|288:279,1,60,8|0,0:0|0:0,0:0:0:0:
330,236,104685,2,0,L|450:223,2,120,2|8|0,0:0|0:0|0:0,0:0:0:0:
245,151,106778,6,0,L|252:91,1,60,8|0,0:0|0:0,0:0:0:0:
294,48,107476,2,0,L|414:35,1,120,2|8,0:0|0:0,0:0:0:0:
413,155,108871,1,0,0:0:0:0:
293,167,109569,1,8,0:0:0:0:
208,252,110267,6,0,L|88:265,1,120,2|8,0:0|0:0,0:0:0:0:
88,144,111662,2,0,L|208:131,1,120,0|8,3:0|0:0,0:0:0:0:
292,215,113057,1,4,0:1:0:0:
