osu file format v14

[General]
AudioFilename: audio.mp3
AudioLeadIn: 0
PreviewTime: 49980
Countdown: 0
SampleSet: Normal
StackLeniency: 0.3
Mode: 0
LetterboxInBreaks: 0
WidescreenStoryboard: 0

[Editor]
Bookmarks: 51371
DistanceSpacing: 0.62
BeatDivisor: 4
GridSize: 32
TimelineZoom: 1.4

[Metadata]
Title:Utauyo!! MIRACLE (TV Size)
TitleUnicode:Utauyo!! MIRACLE (TV Size)
Artist:HO-KAGO TEA TIME
ArtistUnicode:HO-KAGO TEA TIME
Creator:toybot
Version:azu
Source:けいおん!!
Tags:k-on keion toyosaki aki
BeatmapID:1916466
BeatmapSetID:917743

[Difficulty]
HPDrainRate:5
CircleSize:4
OverallDifficulty:8.5
ApproachRate:9.2
SliderMultiplier:2.4
SliderTickRate:1

[Events]
//Background and Video events
0,0,"yeet.jpg",0,0
//Break Periods
//Storyboard Layer 0 (Background)
//Storyboard Layer 1 (Fail)
//Storyboard Layer 2 (Pass)
//Storyboard Layer 3 (Foreground)
//Storyboard Layer 4 (Overlay)
//Storyboard Sound Samples

[TimingPoints]
128,368.098159509202,4,3,1,50,1,0
865,368.098159509202,4,3,1,50,1,0
865,-133.333333333333,4,3,1,50,0,0
4730,-133.333333333333,4,3,1,80,0,0
5308,371.517027863777,4,1,1,70,1,0
6794,-66.6666666666667,4,1,1,70,0,0
7351,-133.333333333333,4,1,1,70,0,0
7722,-133.333333333333,4,2,1,70,0,0
9766,-50,4,1,1,70,0,0
10323,-200,4,2,1,70,0,0
10509,-50,4,1,1,70,0,0
11066,-200,4,2,1,70,0,0
11252,-100,4,1,1,70,0,0
12738,-66.6666666666667,4,1,1,70,0,0
13295,-133.333333333333,4,1,1,70,0,0
13481,-133.333333333333,4,2,1,70,0,0
18682,-100,4,2,1,60,0,0
24626,-200,4,2,1,60,0,0
36701,-200,4,3,1,60,0,0
45431,-200,4,2,1,60,0,0
51374,-66.6666666666667,4,1,1,70,0,0
51931,-133.333333333333,4,1,1,70,0,0
52117,-133.333333333333,4,2,1,70,0,0
54346,-50,4,1,1,70,0,0
54903,-200,4,1,1,70,0,0
55089,-50,4,1,1,70,0,0
55646,-200,4,1,1,70,0,0
55832,-100,4,1,1,70,0,0
57318,-66.6666666666667,4,1,1,70,0,0
57875,-133.333333333333,4,1,1,70,0,0
58247,-133.333333333333,4,2,1,70,0,0
61778,-133.333333333333,4,2,1,70,0,0
63264,-66.6666666666667,4,1,1,70,0,1
65306,-133.333333333333,4,1,1,70,0,1
65492,-66.6666666666667,4,1,1,70,0,1
71623,-133.333333333333,4,1,1,70,0,1
71809,-66.6666666666667,4,1,1,70,0,1
71995,-133.333333333333,4,1,1,70,0,1
72181,-66.6666666666667,4,1,1,70,0,1
73667,-200,4,1,1,70,0,1
73852,-66.6666666666667,4,1,1,70,0,1
74038,-153.846153846154,4,1,1,70,0,1
74224,-60.6060606060606,4,1,1,70,0,1
74410,-125,4,1,1,70,0,1
74595,-55.5555555555556,4,1,1,70,0,1
74781,-105.263157894737,4,1,1,70,0,1
74967,-51.2820512820513,4,1,1,70,0,1
75153,-51.2820512820513,4,1,1,70,0,0
75246,-51.2820512820513,4,1,1,40,0,0
75338,-51.2820512820513,4,1,1,45,0,0
75524,-51.2820512820513,4,1,1,50,0,0
75710,-51.2820512820513,4,1,1,55,0,0
75896,-51.2820512820513,4,1,1,60,0,0
76267,-51.2820512820513,4,1,1,70,0,0
76639,-100,4,1,1,70,0,0
82583,-83.3333333333333,4,1,1,70,0,0
83140,-200,4,1,1,70,0,0
83326,-100,4,1,1,70,0,0

[Colours]
Combo1 : 128,128,64
Combo2 : 64,128,128
Combo3 : 128,64,0
Combo4 : 192,192,192

[HitObjects]
254,40,496,5,8,0:2:0:0:
55,348,865,6,0,P|57:303|54:258,1,90.0000034332277,4|8,0:0|0:0,0:0:0:0:
112,205,1233,1,4,0:0:0:0:
112,205,1325,1,8,0:0:0:0:
190,218,1509,1,4,0:0:0:0:
190,218,1601,2,0,P|192:150|188:84,1,135.000005149841,4|0,0:0|0:0,0:0:0:0:
187,83,1969,1,4,0:0:0:0:
278,114,2153,1,2,0:0:0:0:
315,98,2245,1,2,0:0:0:0:
353,110,2337,5,4,0:0:0:0:
322,189,2521,1,8,0:0:0:0:
376,253,2705,1,4,0:0:0:0:
376,253,2797,1,8,0:0:0:0:
456,242,2981,1,4,0:0:0:0:
456,242,3073,2,0,P|451:175|453:93,1,135.000005149841,4|8,0:0|0:0,0:0:0:0:
452,107,3441,1,4,0:0:0:0:
377,65,3625,1,2,0:0:0:0:
342,86,3717,1,2,0:0:0:0:
302,77,3809,6,0,P|254:78|198:75,1,90.0000034332277,4|8,0:0|0:0,0:0:0:0:
213,304,4177,1,4,0:0:0:0:
213,304,4269,2,0,P|257:302|302:304,1,90.0000034332277,8|0,0:0|0:0,0:0:0:0:
302,304,4545,1,4,0:0:0:0:
56,196,4730,5,4,1:2:0:0:
450,182,5098,1,4,1:2:0:0:
56,196,5493,5,2,2:1:0:0:
133,219,5679,5,0,2:1:0:0:
208,177,5865,5,2,2:1:0:0:
303,252,6051,5,0,0:0:0:0:
377,100,6236,5,2,0:1:0:0:
463,321,6422,5,0,0:0:0:0:
448,275,6515,1,0,0:0:0:0:
464,229,6608,1,2,0:1:0:0:
450,182,6701,1,0,0:0:0:0:
450,182,6794,6,0,L|463:2,1,180.000006866455,6|0,0:0|2:0,0:0:0:0:
297,198,7072,2,0,L|241:11,1,180.000006866455,6|0,0:2|2:0,0:0:0:0:
371,146,7351,6,0,L|368:93,1,45.0000017166139,4|0,0:2|2:0,0:0:0:0:
71,48,7537,5,6,0:0:0:0:
60,133,7722,1,0,0:0:0:0:
146,145,7908,1,8,0:0:0:0:
141,185,8001,1,0,0:0:0:0:
138,220,8094,1,0,0:0:0:0:
42,352,8280,5,0,1:0:0:0:
42,352,8373,2,0,L|147:341,1,90.0000034332277
162,357,8651,2,0,L|267:346,1,90.0000034332277,8|0,0:0|0:0,0:0:0:0:
238,149,9023,6,0,L|244:98,2,45.0000017166138,2|0|0,1:0|0:0|0:0,0:0:0:0:
225,248,9394,1,8,0:0:0:0:
265,254,9487,1,0,0:0:0:0:
304,261,9580,1,0,0:0:0:0:
343,268,9673,1,0,0:0:0:0:
378,294,9766,6,0,L|349:41,1,240,0|4,1:0|1:2,1:0:0:0:
359,46,10323,2,0,L|362:75,1,30,2|0,0:1|2:0,1:0:0:0:
386,284,10509,6,0,L|357:31,1,240,0|4,1:0|1:2,1:0:0:0:
367,36,11066,2,0,L|370:65,1,30,2|0,0:1|2:0,1:0:0:0:
207,258,11252,5,4,0:0:0:0:
162,275,11345,2,0,L|81:264,1,60,2|0,0:0|0:0,0:0:0:0:
189,171,11530,5,4,0:2:0:0:
144,188,11623,2,0,L|63:177,1,60,2|0,0:0|0:0,0:0:0:0:
171,84,11809,5,0,0:0:0:0:
126,101,11902,1,0,0:0:0:0:
52,74,11995,5,2,0:0:0:0:
255,114,12181,1,2,0:0:0:0:
461,71,12366,1,2,0:0:0:0:
459,83,12459,1,0,0:0:0:0:
457,95,12552,1,0,0:0:0:0:
455,107,12645,1,0,0:0:0:0:
431,138,12738,6,0,L|463:349,1,180.000006866455,6|0,1:0|0:0,0:0:0:0:
216,298,13016,2,0,L|264:124,1,180.000006866455,6|0,0:0|0:0,0:0:0:0:
346,173,13295,6,0,L|342:220,1,45.0000017166138,4|0,0:2|0:0,0:0:0:0:
102,332,13481,5,6,1:0:0:0:
86,240,13667,1,0,0:0:0:0:
167,192,13852,1,8,0:0:0:0:
174,156,13945,1,0,0:0:0:0:
181,120,14038,1,0,0:0:0:0:
19,59,14224,5,0,1:0:0:0:
19,59,14317,2,0,P|61:54|124:47,1,90.0000034332277
108,48,14595,1,8,0:0:0:0:
299,21,14781,1,0,0:0:0:0:
256,37,14874,1,0,0:0:0:0:
215,22,14967,5,2,1:0:0:0:
181,120,15153,1,0,0:0:0:0:
108,48,15338,1,12,0:0:0:0:
181,120,15524,5,0,0:0:0:0:
181,120,15617,1,0,0:0:0:0:
181,120,15710,2,0,L|287:132,1,90.0000034332277,0|0,1:0|0:0,0:0:0:0:
415,76,16081,1,8,0:0:0:0:
360,149,16267,1,0,0:0:0:0:
345,182,16360,1,8,0:0:0:0:
349,217,16453,1,0,1:0:0:0:
366,248,16546,1,8,0:0:0:0:
398,264,16639,1,0,1:0:0:0:
238,346,16825,5,0,1:0:0:0:
226,269,16917,1,8,0:0:0:0:
294,296,17010,1,0,1:0:0:0:
74,351,17196,5,0,1:0:0:0:
431,268,17568,1,2,1:0:0:0:
65,176,17939,1,0,1:0:0:0:
440,93,18311,1,2,1:0:0:0:
56,1,18682,5,4,1:2:0:0:
53,14,18775,1,0,0:0:0:0:
72,48,18868,1,0,0:0:0:0:
69,35,18961,1,0,1:0:0:0:
106,10,19054,5,8,0:0:0:0:
103,23,19147,1,0,0:0:0:0:
122,57,19239,1,0,0:0:0:0:
119,44,19332,1,8,0:0:0:0:
156,19,19425,5,0,1:0:0:0:
153,32,19518,1,0,0:0:0:0:
172,66,19611,1,0,1:0:0:0:
169,53,19704,1,0,0:0:0:0:
206,28,19797,5,8,0:0:0:0:
203,41,19890,1,0,1:0:0:0:
222,75,19982,1,0,0:0:0:0:
219,62,20075,1,8,0:0:0:0:
256,37,20168,5,0,1:0:0:0:
253,50,20261,1,0,0:0:0:0:
272,84,20354,1,0,0:0:0:0:
269,71,20447,1,0,1:0:0:0:
306,46,20540,5,8,0:0:0:0:
303,59,20633,1,0,1:0:0:0:
322,93,20725,1,0,0:0:0:0:
319,80,20818,1,8,0:0:0:0:
356,55,20911,6,0,P|385:51|415:46,1,60,2|0,1:0|0:0,0:0:0:0:
442,235,21097,2,0,P|412:239|382:243,1,60,2|0,1:0|0:0,0:0:0:0:
399,146,21283,1,2,1:0:0:0:
446,138,21376,1,0,1:0:0:0:
493,131,21468,1,0,1:0:0:0:
510,335,21654,5,0,1:0:0:0:
496,339,21747,1,0,0:0:0:0:
465,349,21840,1,0,0:0:0:0:
479,353,21933,1,0,1:0:0:0:
454,329,22026,5,8,0:0:0:0:
440,333,22119,1,0,0:0:0:0:
409,343,22212,1,0,0:0:0:0:
423,347,22304,1,8,0:0:0:0:
398,323,22397,5,0,1:0:0:0:
384,327,22490,1,0,0:0:0:0:
353,337,22583,1,0,1:0:0:0:
367,341,22676,1,0,0:0:0:0:
342,317,22769,5,8,0:0:0:0:
328,321,22862,1,0,1:0:0:0:
297,331,22955,1,0,0:0:0:0:
311,335,23047,1,8,0:0:0:0:
286,311,23140,5,0,1:0:0:0:
272,315,23233,1,0,0:0:0:0:
241,325,23326,1,0,0:0:0:0:
255,329,23419,1,0,1:0:0:0:
230,305,23512,5,8,0:0:0:0:
216,309,23605,1,0,0:0:0:0:
185,319,23698,1,0,0:0:0:0:
199,323,23790,1,8,0:0:0:0:
174,299,23883,6,0,L|188:226,1,60,2|0,1:0|0:0,0:0:0:0:
41,88,24069,2,0,L|27:161,1,60,2|0,1:0|0:0,0:0:0:0:
83,364,24255,1,2,1:0:0:0:
85,349,24348,1,0,1:0:0:0:
88,334,24441,1,0,1:0:0:0:
91,319,24534,1,0,1:0:0:0:
94,305,24626,5,4,1:0:0:0:
72,227,24812,1,8,0:0:0:0:
23,66,24998,1,0,0:0:0:0:
45,144,25184,1,8,0:0:0:0:
173,279,25369,5,2,0:0:0:0:
151,201,25555,1,8,0:0:0:0:
101,37,25741,1,0,0:0:0:0:
124,118,25927,1,10,0:0:0:0:
124,118,26020,1,0,0:0:0:0:
124,118,26112,6,0,L|199:128,1,60,0|8,0:0|0:0,0:0:0:0:
255,91,26484,1,0,0:0:0:0:
399,159,26670,1,8,0:0:0:0:
473,123,26855,5,2,0:0:0:0:
337,105,27041,1,8,0:0:0:0:
390,237,27227,1,2,0:0:0:0:
473,123,27413,1,8,0:0:0:0:
399,159,27599,5,2,0:0:0:0:
323,184,27784,1,8,0:0:0:0:
173,236,27970,1,0,0:0:0:0:
249,211,28156,1,8,0:0:0:0:
373,82,28342,5,2,0:0:0:0:
297,107,28527,1,8,0:0:0:0:
147,159,28713,1,0,0:0:0:0:
223,134,28899,1,10,0:0:0:0:
87,40,29085,5,4,0:0:0:0:
161,80,29270,1,8,0:0:0:0:
163,71,29363,1,8,0:0:0:0:
165,62,29456,1,8,0:0:0:0:
167,53,29549,1,8,0:0:0:0:
169,44,29642,1,8,0:0:0:0:
247,40,29828,1,0,1:0:0:0:
341,160,30013,2,2,L|324:41,1,120,2|2,1:1|1:1,0:1:0:0:
324,41,30478,1,0,1:0:0:0:
324,41,30571,5,0,1:0:0:0:
511,37,30756,1,8,0:0:0:0:
422,41,30942,1,0,0:0:0:0:
426,227,31128,1,8,0:0:0:0:
326,136,31314,5,2,0:0:0:0:
512,131,31499,1,8,0:0:0:0:
423,135,31685,1,0,0:0:0:0:
427,321,31871,1,10,0:0:0:0:
427,321,31964,1,0,0:0:0:0:
427,321,32057,6,0,L|350:335,1,60,0|8,0:0|0:0,0:0:0:0:
298,287,32428,1,0,0:0:0:0:
164,362,32614,1,8,0:0:0:0:
97,311,32800,5,2,0:0:0:0:
132,160,32986,1,8,0:0:0:0:
190,252,33171,1,2,0:0:0:0:
39,217,33357,1,8,0:0:0:0:
132,160,33543,5,2,0:0:0:0:
117,75,33729,1,8,0:0:0:0:
311,133,33914,1,0,0:0:0:0:
296,48,34100,1,8,0:0:0:0:
220,147,34286,5,2,0:0:0:0:
205,62,34472,1,8,0:0:0:0:
399,120,34657,1,0,0:0:0:0:
384,35,34843,1,10,0:0:0:0:
220,147,35029,5,0,1:0:0:0:
161,233,35215,1,0,1:0:0:0:
161,233,35307,1,0,1:0:0:0:
161,233,35400,1,8,0:0:0:0:
225,315,35586,1,0,1:0:0:0:
323,279,35772,1,8,0:0:0:0:
320,174,35958,2,2,L|458:154,1,120,2|2,1:1|1:1,0:1:0:0:
438,156,36422,1,0,1:0:0:0:
438,156,36515,1,0,1:0:0:0:
476,347,36701,5,2,0:0:0:0:
493,268,36886,1,0,0:0:0:0:
414,270,37072,1,2,0:0:0:0:
414,191,37258,1,0,0:0:0:0:
414,191,37351,1,0,0:0:0:0:
414,191,37444,1,2,0:0:0:0:
337,209,37629,1,0,0:0:0:0:
323,133,37815,1,2,0:0:0:0:
258,346,38187,5,2,1:0:0:0:
256,190,38373,1,0,0:0:0:0:
253,34,38558,1,2,1:0:0:0:
258,346,38744,5,4,1:0:0:0:
253,34,39116,2,0,L|252:4,2,30,4|0|0,1:2|1:0|1:0,0:0:0:0:
10,112,39487,5,4,0:0:0:0:
82,91,39673,1,2,0:0:0:0:
79,167,39859,1,0,0:0:0:0:
154,173,40044,1,2,0:0:0:0:
142,252,40230,1,0,0:0:0:0:
142,252,40323,1,0,0:0:0:0:
142,252,40416,1,2,0:0:0:0:
211,280,40602,1,0,0:0:0:0:
176,349,40787,1,2,0:0:0:0:
258,38,41159,5,2,1:0:0:0:
256,194,41345,1,0,0:0:0:0:
253,350,41530,1,2,1:0:0:0:
258,38,41716,5,4,1:0:0:0:
256,194,41995,1,0,1:0:0:0:
256,194,42088,1,8,0:0:0:0:
253,350,42273,1,0,1:0:0:0:
253,350,42366,1,8,0:0:0:0:
253,350,42459,1,4,1:0:0:0:
34,313,42738,5,0,0:0:0:0:
34,313,42831,1,0,0:0:0:0:
18,234,43016,1,2,0:0:0:0:
95,250,43202,1,0,0:0:0:0:
102,176,43388,1,2,0:0:0:0:
175,201,43574,1,0,0:0:0:0:
200,130,43760,1,2,0:0:0:0:
467,179,44131,5,2,1:0:0:0:
256,191,44317,1,0,0:0:0:0:
61,204,44503,1,2,1:0:0:0:
467,179,44688,6,0,L|514:174,2,30,4|0|0,1:0|0:0|0:0,0:0:0:0:
256,191,44967,1,8,0:0:0:0:
256,191,45060,2,0,L|205:195,1,30,4|0,1:2|0:0,0:0:0:0:
61,204,45246,2,0,L|10:208,1,30,0|0,1:0|1:0,1:0:0:0:
134,54,45431,6,0,P|138:113|141:173,1,120,4|8,1:0|0:0,0:0:0:0:
377,92,45989,2,0,P|374:124|370:151,1,60,0|0,0:0|1:0,0:0:0:0:
255,107,46360,1,0,1:0:0:0:
258,270,46546,1,8,0:0:0:0:
256,189,46732,5,0,0:0:0:0:
405,303,46917,6,0,P|402:271|398:243,1,60,0|0,1:0|0:0,0:0:0:0:
256,189,47289,1,8,0:0:0:0:
107,303,47475,2,0,P|110:271|113:243,1,60,0|0,0:0|1:0,0:0:0:0:
102,144,47846,5,0,1:0:0:0:
420,149,48032,1,4,0:0:0:0:
420,149,48403,5,2,1:0:0:0:
155,87,48589,1,0,0:0:0:0:
213,28,48775,5,2,1:0:0:0:
151,293,48961,1,0,0:0:0:0:
92,235,49147,5,2,1:0:0:0:
357,297,49332,1,0,0:0:0:0:
299,356,49518,5,2,1:0:0:0:
361,91,49704,1,2,1:0:0:0:
478,201,50075,5,2,1:0:0:0:
392,175,50261,5,0,1:0:0:0:
325,249,50447,5,2,1:0:0:0:
217,141,50633,5,0,1:0:0:0:
152,310,50818,5,2,1:0:0:0:
66,51,51004,5,0,1:0:0:0:
57,99,51097,1,0,1:0:0:0:
72,149,51190,1,2,1:0:0:0:
63,197,51283,1,0,1:0:0:0:
63,197,51376,6,0,L|272:173,1,180.000006866455,6|0,1:0|2:0,0:0:0:0:
420,197,51654,2,0,L|211:173,1,180.000006866455,6|0,1:0|2:0,0:0:0:0:
245,95,51933,6,0,L|247:41,1,45.0000017166138,4|0,1:0|2:0,0:0:0:0:
238,258,52119,5,2,1:0:0:0:
307,332,52304,1,0,0:0:0:0:
338,240,52490,1,8,0:0:0:0:
333,204,52583,1,0,0:0:0:0:
328,168,52676,1,0,0:0:0:0:
448,35,52862,5,0,1:0:0:0:
448,35,52955,2,0,L|438:135,1,90.0000034332277
412,144,53233,2,0,L|322:135,1,90.0000034332277,8|0,0:0|0:0,0:0:0:0:
138,56,53605,6,0,L|83:65,2,45.0000017166138,2|0|0,1:0|0:0|0:0,0:0:0:0:
230,10,53976,1,8,0:0:0:0:
225,45,54069,1,0,0:0:0:0:
221,80,54162,1,0,0:0:0:0:
217,115,54255,1,0,0:0:0:0:
242,145,54348,6,0,L|263:390,1,240,2|4,0:0|0:2,0:0:0:0:
262,384,54905,2,0,L|259:353,1,30,2|0,1:0|2:0,0:0:0:0:
257,136,55091,6,0,L|278:381,1,240,2|4,0:0|0:2,0:0:0:0:
277,375,55648,2,0,L|274:344,1,30,2|0,1:0|1:0,0:0:0:0:
354,274,55834,5,4,0:0:0:0:
394,299,55927,2,0,L|469:288,1,60,2|0,0:0|0:0,0:0:0:0:
377,185,56112,5,4,0:2:0:0:
417,210,56205,2,0,L|492:199,1,60
398,94,56391,5,0,0:0:0:0:
438,119,56484,1,0,0:0:0:0:
509,92,56577,5,6,0:0:0:0:
256,169,56763,1,2,0:0:0:0:
3,92,56948,1,6,0:0:0:0:
14,89,57041,1,0,0:0:0:0:
25,87,57134,1,0,0:0:0:0:
36,84,57227,1,0,0:0:0:0:
70,58,57320,6,0,L|269:97,1,180.000006866455,6|0,0:0|2:0,0:0:0:0:
424,66,57599,2,0,L|243:92,1,180.000006866455,6|0,0:0|2:0,0:0:0:0:
240,213,57877,6,0,L|242:168,1,45.0000017166138,4|0,0:2|2:0,0:0:0:0:
250,14,58063,5,6,1:0:0:0:
159,153,58249,1,0,0:0:0:0:
334,161,58434,1,8,0:0:0:0:
331,196,58527,1,0,0:0:0:0:
329,231,58620,1,0,0:0:0:0:
63,330,58806,5,0,1:0:0:0:
63,330,58899,2,0,L|56:227,1,90.0000034332277
56,240,59177,1,8,0:0:0:0:
301,324,59363,1,0,0:0:0:0:
257,338,59456,1,0,0:0:0:0:
211,325,59549,6,0,L|204:272,2,45.0000017166138,2|0|0,1:2|0:0|0:0,0:0:0:0:
331,196,59921,1,10,0:0:0:0:
190,129,60106,2,0,L|183:76,1,45.0000017166138
256,41,60292,5,0,1:0:0:0:
253,196,60478,1,0,0:0:0:0:
256,356,60664,1,8,0:0:0:0:
323,290,60849,5,0,0:0:0:0:
357,279,60942,1,8,0:0:0:0:
392,285,61035,1,0,1:0:0:0:
422,303,61128,1,8,0:0:0:0:
440,333,61221,1,0,1:0:0:0:
191,288,61407,1,8,0:0:0:0:
157,299,61499,1,0,1:0:0:0:
122,293,61592,1,0,1:0:0:0:
41,337,61778,5,2,1:0:0:0:
477,246,62150,1,2,1:0:0:0:
32,162,62521,1,2,1:0:0:0:
486,71,62893,1,2,1:0:0:0:
358,121,63078,6,0,L|402:129,1,45.0000017166138
409,142,63264,6,0,L|195:101,1,180.000006866455,6|0,1:0|2:0,0:0:0:0:
337,42,63543,2,0,L|298:264,1,180.000006866455,4|0,0:2|2:0,0:0:0:0:
342,336,63821,1,6,1:0:0:0:
412,359,63914,1,0,0:0:0:0:
483,326,64007,6,0,L|470:212,1,90.0000034332277
399,203,64193,2,0,B|343:211|343:211|297:255|297:255|198:273,1,180.000006866455,8|0,0:0|0:0,0:0:0:0:
238,265,64472,1,0,0:0:0:0:
238,265,64564,1,8,0:0:0:0:
43,94,64750,5,0,0:0:0:0:
115,124,64843,2,0,L|123:25,1,90.0000034332277,0|8,0:0|2:0,0:0:0:0:
191,110,65029,2,0,P|247:131|244:251,1,180.000006866455
330,267,65307,6,0,L|397:260,1,45.0000017166138,8|0,0:0|2:0,0:0:0:0:
442,221,65493,6,0,P|419:138|481:78,1,180.000006866455,2|8,0:0|0:0,0:0:0:0:
191,110,65865,2,0,P|247:131|244:251,1,180.000006866455,2|8,0:0|0:0,0:0:0:0:
311,350,66236,5,0,0:0:0:0:
341,96,66422,1,8,0:0:0:0:
256,291,66608,2,0,L|255:196,1,90.0000034332277,4|0,0:2|2:0,0:0:0:0:
254,120,66794,1,8,0:0:0:0:
198,349,66979,5,0,0:0:0:0:
168,95,67165,1,8,0:0:0:0:
256,291,67351,2,0,L|257:196,1,90.0000034332277,4|0,0:2|2:0,0:0:0:0:
261,120,67537,1,8,0:0:0:0:
0,272,67722,5,4,0:0:0:0:
56,322,67815,2,0,B|123:310|123:310|160:273|160:273|260:256,1,180.000006866455,2|4,0:0|3:0,0:0:0:0:
295,263,68094,2,0,B|353:272|353:272|390:309|390:309|457:321,1,180.000006866455,4|4,0:2|3:0,0:0:0:0:
512,272,68373,1,4,3:0:0:0:
463,214,68465,6,0,L|452:69,1,90.0000034332277,2|0,0:0|0:0,0:0:0:0:
282,174,68651,1,2,0:0:0:0:
327,175,68744,1,4,3:0:0:0:
364,149,68837,1,2,0:0:0:0:
380,107,68930,1,4,3:0:0:0:
372,62,69023,1,0,0:0:0:0:
337,33,69116,1,4,3:0:0:0:
305,100,69208,6,0,L|127:53,1,180.000006866455,6|0,0:0|2:0,0:0:0:0:
132,149,69487,2,0,L|305:100,1,180.000006866455,4|0,0:2|2:0,0:0:0:0:
64,102,69766,1,4,0:0:0:0:
41,175,69859,1,0,0:0:0:0:
96,226,69951,6,0,L|104:333,1,90.0000034332277,2|0,0:0|0:0,0:0:0:0:
28,343,70137,2,0,B|91:352|91:352|139:326|139:326|235:337,1,180.000006866455,8|0,0:0|0:0,0:0:0:0:
200,333,70416,1,0,0:0:0:0:
200,333,70509,1,8,0:0:0:0:
421,202,70694,5,0,0:0:0:0:
348,233,70787,2,0,L|336:123,1,90.0000034332277,0|8,0:0|0:0,0:0:0:0:
272,224,70973,2,0,P|206:222|197:106,1,180.000006866455
249,84,71252,5,8,0:0:0:0:
173,111,71345,1,0,0:0:0:0:
104,81,71438,2,0,L|-13:63,1,90.0000034332277
324,115,71623,2,0,L|368:121,1,45.0000017166138,10|0,0:0|2:0,0:0:0:0:
91,163,71809,6,0,L|-26:145,1,90.0000034332277
311,197,71995,2,0,L|355:203,1,45.0000017166138,10|0,0:0|2:0,0:0:0:0:
140,321,72181,5,0,0:0:0:0:
208,148,72366,1,0,0:0:0:0:
329,293,72552,1,8,0:0:0:0:
165,226,72738,5,0,0:0:0:0:
207,237,72830,1,0,0:0:0:0:
250,225,72923,1,0,0:0:0:0:
281,193,73016,1,0,0:0:0:0:
292,150,73109,1,0,0:0:0:0:
194,2,73295,5,8,0:0:0:0:
201,75,73388,5,0,0:0:0:0:
208,148,73481,5,0,0:0:0:0:
444,311,73667,6,0,L|438:274,1,30,2|0,0:0|2:0,0:0:0:0:
443,113,73852,2,0,L|436:202,1,90.0000034332277,4|0,0:2|0:0,0:0:0:0:
321,329,74038,6,0,L|315:288,1,38.9999982147218,2|0,0:0|2:0,0:0:0:0:
322,94,74224,2,0,L|314:194,1,99.0000009441376,4|0,0:2|0:0,0:0:0:0:
198,347,74410,6,0,L|191:296,1,48,2|0,0:0|2:0,0:0:0:0:
201,75,74595,2,0,L|193:183,1,107.999996704102,4|0,0:2|0:0,0:0:0:0:
75,365,74781,6,0,L|67:309,1,56.9999984779358,2|0,0:0|2:0,0:0:0:0:
80,56,74967,2,0,L|69:172,1,117.00000044632,4|0,0:2|0:0,0:0:0:0:
17,233,75153,5,4,0:0:0:0:
60,249,75246,1,0,0:0:0:0:
105,240,75338,1,0,0:0:0:0:
136,204,75431,1,0,0:0:0:0:
163,166,75524,1,0,0:0:0:0:
202,140,75617,1,0,0:0:0:0:
248,141,75710,1,0,0:0:0:0:
285,169,75803,1,0,0:0:0:0:
224,214,75896,5,2,0:2:0:0:
298,214,75989,1,2,0:2:0:0:
358,174,76081,1,2,0:2:0:0:
379,104,76174,1,2,0:2:0:0:
365,32,76267,5,2,0:2:0:0:
346,102,76360,1,2,0:2:0:0:
358,174,76453,1,2,0:2:0:0:
417,215,76546,1,2,0:2:0:0:
489,223,76639,6,0,L|496:158,1,60,4|0,0:0|0:0,0:0:0:0:
474,86,76825,1,4,0:2:0:0:
505,303,77010,1,8,0:0:0:0:
288,334,77196,1,4,0:2:0:0:
257,117,77382,6,0,L|391:133,1,120,4|2,0:0|0:2,0:0:0:0:
138,132,77753,2,0,L|257:117,1,120,8|2,0:0|0:2,0:0:0:0:
55,188,78125,5,0,0:0:0:0:
48,151,78218,1,0,0:0:0:0:
40,114,78311,1,2,0:2:0:0:
144,225,78496,1,8,0:0:0:0:
96,371,78682,1,2,0:2:0:0:
89,334,78775,1,0,0:0:0:0:
81,297,78868,5,2,0:0:0:0:
256,329,79054,1,2,0:2:0:0:
431,297,79239,1,10,0:0:0:0:
256,318,79425,1,2,0:2:0:0:
255,280,79518,1,0,0:0:0:0:
255,242,79611,1,4,0:0:0:0:
467,221,79797,5,2,0:2:0:0:
316,93,79982,1,8,0:0:0:0:
512,107,80168,1,2,0:2:0:0:
344,211,80354,1,0,0:0:0:0:
344,211,80447,1,0,0:0:0:0:
344,211,80540,1,2,0:2:0:0:
419,28,80725,1,8,0:0:0:0:
285,99,80911,6,0,L|225:98,1,60,2|0,0:2|0:0,0:0:0:0:
168,211,81097,5,2,0:0:0:0:
101,42,81283,1,2,0:2:0:0:
170,222,81468,5,10,0:1:0:0:
183,38,81654,1,2,0:2:0:0:
172,233,81840,5,2,0:0:0:0:
257,75,82026,1,2,0:2:0:0:
174,242,82212,5,10,0:0:0:0:
235,193,82305,1,0,0:0:0:0:
296,145,82397,1,2,0:2:0:0:
215,322,82583,6,0,P|158:280|88:283,1,143.999995605469,4|4,0:0|3:0,0:0:0:0:
296,321,82862,2,0,P|351:279|422:281,1,143.999995605469,4|4,0:2|3:0,0:0:0:0:
255,249,83140,6,0,L|256:214,1,30,4|0,0:3|2:0,0:0:0:0:
329,168,83326,5,4,0:0:0:0:
178,171,83512,1,2,0:2:0:0:
343,84,83698,1,8,0:0:0:0:
164,87,83883,1,2,0:2:0:0:
362,0,84069,1,0,0:0:0:0:
144,4,84255,1,2,0:2:0:0:
256,133,84441,6,0,L|256:8,1,120,8|2,0:0|0:2,0:0:0:0:
256,251,84812,1,2,0:0:0:0:
256,251,84905,1,0,0:0:0:0:
256,251,84998,2,0,L|256:375,2,120,2|10|2,0:2|0:0|0:2,0:0:0:0:
294,223,85462,1,0,0:0:0:0:
336,242,85555,5,4,0:0:0:0:
170,241,85741,1,0,0:0:0:0:
256,93,85927,1,8,0:0:0:0:
131,328,86112,6,0,P|133:265|117:137,1,180,2|0,0:0|0:0,0:0:0:0:
119,148,86484,1,0,0:0:0:0:
392,148,86670,1,10,0:0:0:0:
384,193,86762,1,0,0:0:0:0:
380,238,86855,1,0,0:0:0:0:
252,360,87041,5,2,0:0:0:0:
298,269,87413,5,2,0:0:0:0:
204,185,87784,5,2,0:0:0:0:
376,100,88156,5,2,0:0:0:0:
113,32,88527,5,4,0:0:0:0:
