osu file format v14

[General]
AudioFilename: audio.mp3
AudioLeadIn: 0
PreviewTime: 57946
Countdown: 0
SampleSet: Soft
StackLeniency: 0.7
Mode: 0
LetterboxInBreaks: 0
WidescreenStoryboard: 1

[Editor]
Bookmarks: 8518,17660,22232,40528,58814,95375,118250,127392,136527,159384,177669,186526
DistanceSpacing: 1.2
BeatDivisor: 4
GridSize: 4
TimelineZoom: 1.7

[Metadata]
Title:U&I
TitleUnicode:U&I
Artist:HO-KAGO TEA TIME
ArtistUnicode:放課後ティータイム
Creator:bossandy
Version:Sonnyc's Hard
Source:映画けいおん!
Tags:KyoAni Tribute Kyoto Animation 京都アニメーション Kon Eiga Keion! HTT Houkago Tea Time 平沢唯 Hirasawa Yui 豊崎愛生 Toyosaki Aki 秋山澪 Akiyama Mio 日笠陽子 Hikasa Yoko 田井中律 Tainaka Ritsu 佐藤聡美 Sato Satomi 琴吹紬 Kotobuki Tsumugi 寿美菜子 Kotobuki Minako 中野梓 Nakano Azusa 竹達彩奈 Taketatsu Ayana Guitar Drum Bass Keyboard Andrea osuplayer111 Sonnyc Trynna Ayyri eiri- Japanese Anime
BeatmapID:2089179
BeatmapSetID:976322

[Difficulty]
HPDrainRate:4.5
CircleSize:4
OverallDifficulty:6
ApproachRate:8
SliderMultiplier:1.4
SliderTickRate:2

[Events]
//Background and Video events
Video,-20,"video.avi"
0,0,"BG.jpg",0,0
//Break Periods
2,118250,125107
2,154981,158242
//Storyboard Layer 0 (Background)
//Storyboard Layer 1 (Fail)
//Storyboard Layer 2 (Pass)
//Storyboard Layer 3 (Foreground)
//Storyboard Layer 4 (Overlay)
//Storyboard Sound Samples

[TimingPoints]
7957,272.727272727273,4,2,1,70,1,0
8518,285.714285714286,4,2,1,70,1,0
9946,-100,4,2,2,70,0,0
10089,-100,4,2,1,70,0,0
10518,-100,4,2,2,70,0,0
10660,-100,4,2,1,70,0,0
12232,-100,4,2,2,70,0,0
12375,-100,4,2,1,70,0,0
12803,-100,4,2,2,70,0,0
12946,-100,4,2,1,70,0,0
14518,-100,4,2,2,70,0,0
14660,-100,4,2,1,70,0,0
15089,-100,4,2,2,70,0,0
15232,-100,4,2,1,70,0,0
16803,-100,4,2,2,70,0,0
16946,-100,4,2,1,70,0,0
19089,-100,4,2,3,70,0,0
19232,-100,4,2,1,70,0,0
22518,289.855072463768,4,2,1,70,1,0
23387,285.714285714286,4,2,1,70,1,0
24815,-100,4,2,2,70,0,0
24958,-100,4,2,1,70,0,0
26815,292.682926829268,4,2,1,70,1,0
27400,284.765068818225,4,2,1,70,1,0
27969,284.765068818225,4,2,1,70,1,0
31386,285.714285714286,4,2,1,70,1,0
36243,-100,4,2,2,70,0,0
36386,-100,4,2,1,70,0,0
36814,-100,4,2,2,70,0,0
36957,-100,4,2,1,70,0,0
40528,-100,4,2,1,80,0,0
40814,-100,4,2,2,80,0,0
40957,-100,4,2,1,80,0,0
43671,-100,4,2,2,80,0,0
43814,-100,4,2,1,80,0,0
46528,-100,4,2,2,80,0,0
46671,-100,4,2,1,80,0,0
47100,-100,4,2,2,80,0,0
47243,-100,4,2,1,80,0,0
47671,-100,4,2,2,80,0,0
47814,-100,4,2,1,80,0,0
48243,-100,4,2,2,80,0,0
48386,-100,4,2,1,80,0,0
49957,-100,4,2,2,80,0,0
50100,-100,4,2,1,80,0,0
52243,-100,4,2,2,80,0,0
52386,-100,4,2,1,80,0,0
52814,-100,4,2,2,80,0,0
52957,-100,4,2,1,80,0,0
55671,-100,4,2,2,80,0,0
55814,-100,4,2,1,80,0,0
56243,-100,4,2,2,80,0,0
56386,-100,4,2,1,80,0,0
56814,-100,4,2,2,80,0,0
56957,-100,4,2,1,80,0,0
58814,-100,4,2,1,80,0,1
61386,-100,4,2,2,80,0,1
61528,-100,4,2,1,80,0,1
65957,-100,4,2,2,80,0,1
66100,-100,4,2,1,80,0,1
69386,-100,4,2,2,80,0,1
69528,-100,4,2,1,80,0,1
71671,-100,4,2,2,80,0,1
71814,-100,4,2,1,80,0,1
75100,-100,4,2,2,80,0,1
75243,-100,4,2,1,80,0,1
79671,-100,4,2,2,80,0,1
79814,-100,4,2,1,80,0,1
84243,-100,4,2,2,80,0,1
84386,-100,4,2,1,80,0,1
87671,-100,4,2,2,80,0,1
87814,-100,4,2,1,80,0,1
89957,-100,4,2,2,80,0,1
90100,-100,4,2,1,80,0,1
91100,-100,4,2,2,80,0,1
91243,-100,4,2,1,80,0,1
91671,-100,4,2,2,80,0,1
91814,-100,4,2,1,80,0,1
91957,283.018867924528,4,2,1,80,1,1
92240,-100,4,2,2,80,0,1
92381,-100,4,2,1,80,0,1
92806,-100,4,2,2,80,0,1
92947,-100,4,2,1,80,0,1
93372,-100,4,2,2,80,0,1
93513,-100,4,2,1,80,0,1
94221,288.669713735867,4,2,1,80,1,1
95375,285.714285714286,4,2,1,80,1,0
95375,-100,4,2,1,80,0,0
112803,-100,4,2,2,80,0,0
112946,-100,4,2,1,80,0,0
113946,-100,4,2,2,80,0,0
114089,-100,4,2,1,80,0,0
114803,292.682926829268,4,2,1,80,1,0
115095,-100,4,2,2,80,0,0
115242,-100,4,2,1,80,0,0
118250,285.714285714286,4,2,1,50,1,0
127107,-100,4,2,1,50,0,0
133099,285.714285714286,4,2,1,40,1,0
133384,-100,4,2,1,50,0,0
133670,-100,4,2,1,60,0,0
133956,-100,4,2,1,70,0,0
134241,280.373831775701,4,2,1,80,1,0
135362,291.26213592233,4,2,1,80,1,0
136527,285.714285714286,4,2,1,80,1,1
139098,-100,4,2,2,80,0,1
139241,-100,4,2,1,80,0,1
143669,-100,4,2,2,80,0,1
143812,-100,4,2,1,80,0,1
147098,-100,4,2,2,80,0,1
147241,-100,4,2,1,80,0,1
149384,-100,4,2,2,80,0,1
149527,-100,4,2,1,80,0,1
150527,-100,4,2,2,80,0,1
150669,-100,4,2,1,80,0,1
151098,-100,4,2,2,80,0,1
151241,-100,4,2,1,80,0,1
151669,-100,4,2,2,80,0,1
151812,-100,4,2,1,80,0,1
152241,-100,4,2,2,80,0,1
152384,-100,4,2,1,80,0,1
152527,281.756280817093,4,2,1,80,1,1
152808,-100,4,2,2,80,0,1
152949,-100,4,2,1,80,0,1
154781,303.030303030303,4,2,1,80,1,0
158242,285.714285714286,4,2,1,80,1,0
159384,285.714285714286,4,2,1,70,1,1
160812,-100,4,2,2,70,0,1
160955,-100,4,2,1,70,0,1
161384,-100,4,2,2,70,0,1
161526,-100,4,2,1,70,0,1
163098,-100,4,2,2,70,0,1
163241,-100,4,2,1,70,0,1
163669,-100,4,2,2,70,0,1
163812,-100,4,2,1,70,0,1
165384,-100,4,2,2,70,0,1
165526,-100,4,2,1,70,0,1
165955,-100,4,2,2,70,0,1
166098,-100,4,2,1,70,0,1
167669,-100,4,2,2,70,0,1
167812,-100,4,2,1,70,0,1
168812,-100,4,2,2,70,0,1
168955,-100,4,2,1,70,0,1
171098,-100,4,2,2,70,0,1
171241,-100,4,2,1,70,0,1
174526,-100,4,2,2,70,0,1
174669,-100,4,2,1,70,0,1
175098,-100,4,2,2,70,0,1
175241,-100,4,2,1,70,0,1
176812,-100,4,2,2,70,0,1
176955,-100,4,2,1,70,0,1
179098,-100,4,2,3,70,0,1
179241,-100,4,2,1,70,0,1
182241,-100,4,2,1,90,0,1
183669,-100,4,2,3,90,0,1
183812,-100,4,2,1,90,0,1
186526,-100,4,2,1,70,0,0
186812,-100,4,2,1,60,0,0
187384,-100,4,2,1,50,0,0
187955,-100,4,2,1,40,0,0
188526,-100,4,2,1,30,0,0
189098,-100,4,2,1,20,0,0
189312,-100,4,2,1,70,0,0

[Colours]
Combo1 : 1,194,83
Combo2 : 181,78,2
Combo3 : 128,128,255
Combo4 : 254,222,137
Combo5 : 0,126,253

[HitObjects]
89,222,8518,6,0,B|83:188|115:159|115:159|186:143,1,140,6|0,0:1|1:0,0:0:0:0:
247,196,8946,2,0,B|253:230|221:259|221:259|150:275,1,140,2|0,0:1|0:0,0:0:0:0:
89,222,9375,1,2,1:1:0:0:
44,10,9660,6,0,B|53:56|96:80|96:80|225:64,1,210,2|0,0:1|0:0,0:0:0:0:
295,92,10232,2,0,B|304:46|347:22|347:22|465:37,1,210,2|0,0:1|0:0,0:0:0:0:
434,115,10803,54,0,B|367:130|367:130|335:159|341:193,1,140,2|0,0:1|1:0,0:0:0:0:
411,239,11232,2,0,B|477:223|477:223|509:194|503:160,1,140,2|0,0:1|0:0,0:0:0:0:
434,115,11660,1,2,1:1:0:0:
467,328,11946,6,0,B|349:313|349:313|306:337|297:383,1,210,2|0,0:1|0:0,0:0:0:0:
218,351,12518,2,0,B|100:366|100:366|57:342|48:296,1,210,2|0,0:1|0:0,0:0:0:0:
89,222,13089,54,0,B|83:188|115:159|115:159|186:143,1,140,6|0,0:1|1:0,0:0:0:0:
247,196,13518,2,0,B|253:230|221:259|221:259|150:275,1,140,2|0,0:1|0:0,0:0:0:0:
89,222,13946,1,2,1:1:0:0:
44,10,14232,6,0,B|53:56|96:80|96:80|225:64,1,210,2|0,0:1|0:0,0:0:0:0:
295,92,14803,2,0,B|304:46|347:22|347:22|465:37,1,210,2|0,0:1|0:0,0:0:0:0:
434,115,15375,54,0,B|367:130|367:130|335:159|341:193,1,140,2|0,0:1|1:0,0:0:0:0:
411,239,15803,2,0,B|477:223|477:223|509:194|503:160,1,140,2|0,0:1|0:0,0:0:0:0:
434,115,16232,1,2,1:1:0:0:
467,328,16518,6,0,B|349:313|349:313|306:337|297:383,1,210,2|0,0:1|0:0,0:0:0:0:
218,351,17089,5,2,0:1:0:0:
218,351,17232,2,0,L|132:362,1,70,0|0,1:0|1:0,0:0:0:0:
64,369,17518,1,0,1:0:0:0:
97,292,17660,6,0,B|89:238|89:238|104:254,1,70
147,179,17946,1,8,1:2:0:0:
281,338,18232,38,0,B|265:230|265:230|295:262,1,140,0|8,0:0|1:2,0:0:0:0:
322,176,18660,2,0,B|343:198|343:198|327:90,2,140
286,252,19375,2,0,B|264:229|264:229|280:337,1,140,0|8,0:0|1:2,0:0:0:0:
83,292,19946,22,0,B|75:238|75:238|90:254,1,70
133,179,20232,1,8,1:2:0:0:
294,321,20518,53,0,1:1:0:0:
294,321,20661,2,0,L|283:235,1,70,0|0,1:0|1:0,0:0:0:0:
276,167,20947,1,0,1:0:0:0:
382,204,21089,21,2,1:1:0:0:
147,100,21375,1,2,1:1:0:0:
358,88,21660,37,2,1:1:0:0:
142,205,21946,1,2,1:1:0:0:
419,262,22232,54,0,P|350:249|313:308,1,140,4|0,0:0|1:0,0:0:0:0:
387,339,22662,2,0,P|286:319|206:380,1,210,0|0,0:0|1:0,0:0:0:0:
121,175,23387,38,0,P|109:207|116:249,1,70
193,218,23672,2,0,P|225:230|267:223,1,70,0|0,1:0|0:0,0:0:0:0:
236,146,23958,2,0,P|248:114|241:72,1,70
164,103,24244,2,0,P|132:91|90:98,1,70,0|0,1:0|0:0,0:0:0:0:
23,137,24529,2,0,B|16:219|16:219|35:259|35:259|26:341,2,210,0|0|0,0:0|0:0|1:0,0:0:0:0:
97,95,25529,1,0,0:0:0:0:
158,151,25672,6,0,P|208:124|304:126,1,140,0|0,0:0|1:0,0:0:0:0:
362,164,26101,2,0,P|389:214|387:310,1,140
360,374,26529,1,8,1:2:0:0:
146,255,26815,6,0,P|215:242|252:301,1,140,0|0,0:0|1:0,0:0:0:0:
178,332,27254,2,0,P|279:312|359:373,1,206,0|0,0:0|1:0,0:0:0:0:
415,310,27827,38,0,P|419:275|406:243,1,70
348,182,28111,1,0,0:0:0:0:
266,203,28253,2,0,P|231:197|204:177,1,70,0|0,1:0|0:0,0:0:0:0:
130,135,28538,2,0,P|152:108|184:94,1,70
257,51,28823,2,0,P|269:83|265:117,1,70,0|0,1:0|0:0,0:0:0:0:
335,165,29108,2,0,B|330:219|330:219|342:246|342:246|336:300,3,140,0|0|0|0,0:0|1:0|0:0|1:0,0:0:0:0:
262,260,30104,6,0,P|197:246|156:298,2,140,2|2|0,0:0|0:0|0:0,0:0:0:0:
335,301,30816,22,0,L|421:290,1,70,0|0,0:0|1:0,0:0:0:0:
488,281,31101,1,0,1:0:0:0:
372,131,31386,54,0,P|307:145|266:93,1,140,4|0,0:0|1:0,0:0:0:0:
340,54,31814,2,0,P|239:74|159:13,1,210,0|0,0:0|1:0,0:0:0:0:
21,159,32528,38,0,P|53:147|95:154,1,70
171,141,32814,2,0,P|197:162|212:202,1,70,0|0,1:0|0:0,0:0:0:0:
270,267,33100,1,0,0:0:0:0:
270,267,33243,1,0,0:0:0:0:
270,267,33386,2,0,P|264:300|237:333,1,70,0|0,1:0|0:0,0:0:0:0:
165,294,33671,2,0,B|111:289|111:289|84:301|84:301|30:295,1,140,0|0,0:0|1:0,0:0:0:0:
9,212,34100,2,0,B|64:218|64:218|91:206|91:206|145:211,1,140
199,145,34528,2,0,P|194:110|207:78,1,70,0|0,1:0|0:0,0:0:0:0:
279,120,34814,6,0,P|329:93|425:95,1,140,0|0,0:0|1:0,0:0:0:0:
483,133,35243,2,0,P|510:183|508:279,1,140
481,343,35671,1,8,1:2:0:0:
260,255,35957,6,0,P|156:274|101:186,1,210,4|0,0:0|0:0,0:0:0:0:
58,126,36528,2,0,P|161:145|217:57,1,210
296,96,37100,38,0,P|336:43|401:58,1,140,0|0,0:0|1:0,0:0:0:0:
431,137,37528,2,0,P|390:189|325:174,1,140
280,245,37957,2,0,B|170:234|170:234|115:259|115:259|6:247,1,280,0|2,1:0|1:2,0:0:0:0:
120,46,38814,5,2,0:0:0:0:
197,78,38957,1,0,0:0:0:0:
165,155,39100,1,0,1:0:0:0:
88,123,39243,2,0,P|35:164|49:229,1,140,2|0,0:0|0:0,0:0:0:0:
107,290,39671,2,0,L|178:283,1,70,4|0,1:2|0:0,0:0:0:0:
253,318,39957,21,0,1:1:0:0:
253,318,40100,2,0,L|264:232,1,70,0|0,1:0|1:0,0:0:0:0:
273,164,40386,1,0,1:0:0:0:
334,106,40528,54,0,P|199:132|92:51,1,280,4|0,0:0|0:0,0:0:0:0:
25,235,41386,38,0,P|50:212|92:204,1,70,2|0,1:2|0:0,0:0:0:0:
88,288,41671,2,0,P|113:310|155:318,1,70,2|0,0:0|0:0,0:0:0:0:
195,248,41957,2,0,P|220:225|262:217,1,70,2|0,1:2|0:0,0:0:0:0:
258,301,42243,2,0,P|283:323|325:331,1,70,2|0,0:0|0:0,0:0:0:0:
388,283,42528,5,2,1:2:0:0:
388,283,42671,1,2,0:0:0:0:
388,283,42814,2,0,B|382:232|382:232|400:201|400:201|394:148,1,140,2|2,0:0|1:2,0:0:0:0:
165,87,43386,2,0,B|174:169|174:169|155:209|155:209|162:291,1,210,2|0,0:0|0:0,0:0:0:0:
238,325,43957,2,0,P|302:310|342:363,2,140,2|0|0,0:0|1:0|0:0,0:0:0:0:
401,196,44814,54,0,P|378:171|370:129,1,70,2|0,1:2|0:0,0:0:0:0:
361,52,45100,2,0,P|330:66|287:60,1,70,2|0,0:2|0:0,0:0:0:0:
211,45,45386,2,0,P|214:78|196:117,1,70,2|0,1:2|0:0,0:0:0:0:
159,186,45671,2,0,P|192:192|223:221,1,70,2|0,0:2|0:0,0:0:0:0:
276,278,45957,2,0,P|292:248|330:227,1,70,2|0,1:2|0:0,0:0:0:0:
353,308,46243,6,0,B|271:317|271:317|231:298|231:298|149:305,1,210,2|0,0:0|0:0,0:0:0:0:
77,351,46814,2,0,P|58:247|146:192,1,210,2|0,0:0|0:0,0:0:0:0:
217,202,47386,2,0,B|299:211|299:211|339:192|339:192|421:199,1,210,2|0,0:0|0:0,0:0:0:0:
493,245,47957,2,0,P|512:141|424:86,1,210,2|0,0:0|0:0,0:0:0:0:
351,85,48528,2,0,B|281:92,2,70,2|0|4,0:0|0:0|1:2,0:0:0:0:
388,289,49100,6,0,P|363:266|321:258,1,70,2|0,0:2|0:0,0:0:0:0:
259,208,49386,2,0,P|225:216|199:239,1,70,6|0,1:2|0:0,0:0:0:0:
134,292,49671,2,0,P|108:159|190:50,1,280,6|0,0:0|0:0,0:0:0:0:
363,206,50528,38,0,P|338:183|296:175,1,70,2|0,1:2|0:0,0:0:0:0:
300,259,50814,2,0,P|275:281|233:289,1,70,2|0,0:0|0:0,0:0:0:0:
193,219,51100,2,0,P|168:196|126:188,1,70,2|0,1:2|0:0,0:0:0:0:
130,272,51386,2,0,P|105:294|63:302,1,70,2|0,0:0|0:0,0:0:0:0:
0,254,51671,1,2,1:2:0:0:
157,84,51957,6,0,B|239:75|239:75|279:94|279:94|361:87,1,210,2|0,0:0|0:0,0:0:0:0:
348,170,52528,2,0,B|266:177|266:177|226:158|226:158|144:167,1,210,2|0,0:0|0:0,0:0:0:0:
125,249,53100,2,0,P|61:234|21:287,2,140,2|0|0,0:0|1:0|0:0,0:0:0:0:
355,185,53957,54,0,P|346:151|323:125,1,70,6|0,1:2|0:0,0:0:0:0:
282,51,54243,2,0,P|247:48|215:62,1,70,6|0,0:2|0:0,0:0:0:0:
132,79,54528,2,0,P|118:111|122:145,1,70,2|0,1:2|0:0,0:0:0:0:
113,231,54814,2,0,P|139:253|173:260,1,70,2|0,0:2|0:0,0:0:0:0:
250,296,55100,2,0,P|279:277|296:247,1,70,2|0,1:2|0:0,0:0:0:0:
355,185,55386,6,0,B|273:194|273:194|233:175|233:175|151:182,1,210,4|0,0:0|0:0,0:0:0:0:
107,109,55957,2,0,P|28:170|50:267,1,210,2|0,0:0|0:0,0:0:0:0:
8,341,56528,2,0,B|145:356|145:356|212:324|212:324|349:335,1,350,4|0,0:0|0:0,0:0:0:0:
424,298,57386,2,0,B|389:256|389:256|304:249,1,140,2|4,1:2|0:0,0:0:0:0:
287,166,57814,22,0,B|356:171,2,70,0|0|0,1:2|1:0|1:0,0:0:0:0:
202,158,58243,1,0,1:1:0:0:
202,158,58386,2,0,B|133:153,1,70,0|2,1:2|1:0,0:0:0:0:
48,142,58671,1,0,1:0:0:0:
14,66,58814,53,6,1:0:0:0:
14,66,59100,1,0,1:0:0:0:
60,281,59386,22,0,P|85:258|127:250,1,70,0|0,0:1|0:0,0:0:0:0:
186,199,59671,2,0,P|218:209|246:241,1,70,2|0,1:1|0:0,0:0:0:0:
322,271,59957,1,2,0:1:0:0:
322,271,60243,1,0,1:0:0:0:
280,42,60528,22,0,B|349:34,1,70,0|0,0:1|0:0,0:0:0:0:
321,115,60814,2,0,B|390:107,1,70,2|0,1:0|0:0,0:0:0:0:
431,180,61100,2,2,B|294:195|294:195|227:163|227:163|90:174,1,350,2|0,0:1|0:0,0:1:0:0:
19,220,61957,2,0,B|27:289,1,70,2|0,1:1|0:0,0:0:0:0:
37,375,62243,1,2,0:1:0:0:
37,375,62528,1,0,1:0:0:0:
249,297,62814,6,0,P|241:263|255:223,1,70,0|0,0:1|0:0,0:0:0:0:
333,212,63100,2,0,P|355:237|363:279,1,70,2|0,1:1|0:0,0:0:0:0:
321,345,63386,1,6,0:1:0:0:
321,345,63671,1,0,1:0:0:0:
366,121,63957,22,0,P|333:113|293:127,1,70,0|0,0:1|0:0,0:0:0:0:
216,112,64243,2,0,P|193:137|185:178,1,70,2|0,1:1|0:0,0:0:0:0:
134,238,64528,1,2,0:1:0:0:
134,238,64814,1,0,1:0:0:0:
84,20,65100,22,0,B|153:28,1,70,0|0,0:1|0:0,0:0:0:0:
171,110,65386,2,0,B|102:102,1,70,2|0,1:0|0:0,0:0:0:0:
61,175,65671,2,2,B|198:190|198:190|265:158|265:158|402:169,1,350,2|0,0:1|0:0,0:1:0:0:
365,245,66528,2,2,B|295:239,1,70,2|0,1:1|0:0,0:1:0:0:
221,280,66814,2,2,P|206:344|259:384,2,140,2|0|0,0:1|1:0|0:0,0:1:0:0:
449,202,67671,5,2,1:0:0:0:
366,220,67814,1,0,0:0:0:0:
423,280,67957,1,6,0:1:0:0:
215,196,68243,1,2,1:0:0:0:
392,58,68528,1,0,0:1:0:0:
423,280,68814,2,2,B|343:204|215:280|239:308|263:336|135:412|55:336,1,420,2|0,1:0|0:0,0:1:0:0:
232,198,69957,21,0,1:0:0:0:
24,114,70243,1,2,0:1:0:0:
55,336,70528,1,2,1:0:0:0:
232,198,70814,1,0,0:1:0:0:
24,114,71100,2,2,B|104:190|232:114|208:86|184:58|312:-18|392:58,1,420,2|0,1:0|0:0,0:1:0:0:
447,310,72243,6,0,P|413:311|375:290,1,70,0|0,1:2|0:0,0:0:0:0:
334,367,72528,2,0,P|307:346|291:306,1,70,6|0,0:1|0:0,0:0:0:0:
213,338,72814,2,0,P|205:304|219:264,1,70,2|0,1:1|0:0,0:0:0:0:
137,238,73100,2,0,P|152:207|189:185,1,70,2|0,0:1|0:0,0:0:0:0:
144,113,73386,2,0,P|175:99|217:106,1,70,0|0,1:2|0:0,0:0:0:0:
230,22,73671,2,0,P|262:32|290:64,1,70,2|0,0:1|0:0,0:0:0:0:
354,7,73957,2,0,P|372:35|372:78,1,70,0|0,1:1|0:0,0:0:0:0:
459,75,74243,2,0,P|454:108|427:141,1,70,2|0,0:1|0:0,0:0:0:0:
495,195,74528,2,0,P|470:218|427:226,1,70,2|0,1:1|0:0,0:0:0:0:
447,310,74814,6,2,B|282:291|282:291|201:330|201:330|36:317,1,420,2|2,0:1|1:0,0:1:0:0:
37,317,75957,1,2,0:1:0:0:
378,34,76528,21,0,1:1:0:0:
378,34,76671,1,0,1:0:0:0:
428,102,76814,2,0,B|423:171,1,70,2|0,1:0|1:0,0:0:0:0:
414,256,77100,53,6,1:0:0:0:
414,256,77386,1,0,1:0:0:0:
262,91,77671,22,0,P|239:116|231:158,1,70,0|0,0:1|0:0,0:0:0:0:
180,217,77957,2,0,P|190:249|222:277,1,70,2|0,1:1|0:0,0:0:0:0:
250,354,78243,1,2,0:1:0:0:
250,354,78528,1,0,1:0:0:0:
37,276,78814,22,0,B|106:268,1,70,0|0,0:1|0:0,0:0:0:0:
129,187,79100,2,0,B|60:195,1,70,2|0,1:0|0:0,0:0:0:0:
19,122,79386,2,2,B|156:107|156:107|223:139|223:139|360:128,1,350,2|0,0:1|0:0,0:1:0:0:
431,174,80243,2,0,B|423:243,1,70,2|0,1:1|0:0,0:0:0:0:
413,329,80528,1,2,0:1:0:0:
413,329,80814,1,0,1:0:0:0:
214,222,81100,6,0,P|248:214|288:228,1,70,0|0,0:1|0:0,0:0:0:0:
299,306,81386,2,0,P|274:328|232:336,1,70,2|0,1:1|0:0,0:0:0:0:
166,294,81671,1,6,0:1:0:0:
166,294,81957,1,0,1:0:0:0:
385,338,82243,22,0,P|393:305|379:265,1,70,0|0,0:1|0:0,0:0:0:0:
394,188,82528,2,0,P|369:165|328:157,1,70,2|0,1:1|0:0,0:0:0:0:
268,106,82814,1,2,0:1:0:0:
268,106,83100,1,0,1:0:0:0:
59,193,83386,22,0,B|51:262,1,70,0|0,0:1|0:0,0:0:0:0:
132,234,83671,2,0,B|124:303,1,70,2|0,1:0|0:0,0:0:0:0:
197,344,83957,2,2,B|212:207|212:207|180:140|180:140|191:3,1,350,2|0,0:1|0:0,0:1:0:0:
263,45,84814,2,2,B|255:140,1,70,2|0,1:1|0:0,0:1:0:0:
317,174,85100,2,2,P|381:189|421:136,2,140,2|0|0,0:1|1:0|0:0,0:1:0:0:
79,173,85957,5,2,1:0:0:0:
162,191,86100,1,0,0:0:0:0:
105,251,86243,1,6,0:1:0:0:
313,167,86528,1,2,1:0:0:0:
136,29,86814,1,0,0:1:0:0:
105,251,87100,2,2,B|185:175|313:251|289:279|265:307|393:383|473:307,1,420,2|0,1:0|0:0,0:1:0:0:
477,82,88243,21,0,1:0:0:0:
394,100,88386,1,0,0:0:0:0:
451,160,88528,1,2,0:1:0:0:
243,244,88814,1,2,1:0:0:0:
420,382,89100,1,0,0:1:0:0:
451,160,89386,2,2,B|371:236|243:160|267:132|291:104|163:28|83:104,1,420,2|0,1:0|0:0,0:1:0:0:
51,346,90528,6,0,L|120:352,1,70,0|0,1:0|0:0,0:0:0:0:
199,322,90814,2,2,P|298:342|380:280,1,210,6|0,0:1|0:0,0:1:0:0:
350,203,91386,2,2,P|370:103|308:21,1,210,2|0,0:1|0:0,0:1:0:0:
230,52,91957,2,2,P|130:31|48:93,1,210,2|0,0:1|0:0,0:1:0:0:
80,172,92523,2,2,P|59:271|121:353,1,210,2|0,0:1|0:0,0:1:0:0:
199,322,93089,2,2,P|381:279|280:94,1,420,2|0,0:1|1:0,0:1:0:0:
94,286,94221,37,2,1:1:0:0:
166,68,94509,1,2,1:1:0:0:
179,250,94798,21,2,1:1:0:0:
73,95,95087,1,2,1:1:0:0:
302,146,95375,6,0,B|315:130|331:120|331:120|435:135,2,140,4|2|0,0:1|1:1|0:0,0:0:0:0:
451,292,96232,1,2,1:1:0:0:
451,292,96375,2,0,B|438:308|422:318|422:318|318:303,1,140,2|0,0:1|0:1,0:0:0:0:
263,243,96803,2,0,B|276:227|292:217|292:217|396:232,2,140,2|0|2,1:1|0:1|1:1,0:0:0:0:
125,85,97660,6,0,B|141:98|151:114|151:114|136:218,2,140,0|2|0,0:0|1:1|0:0,0:0:0:0:
58,284,98517,1,2,1:1:0:0:
58,284,98660,2,0,B|77:308|101:323|101:323|257:300,1,210,2|2,0:1|1:1,0:0:0:0:
126,132,99375,2,0,B|139:148|155:158|155:158|259:143,1,140,2|2,0:1|1:1,0:0:0:0:
359,322,99946,54,0,B|368:252,1,70,6|0,0:1|0:1,0:0:0:0:
381,169,100232,2,0,B|390:99,1,70,2|0,1:1|0:1,0:0:0:0:
453,42,100517,2,0,B|469:55|479:71|479:71|464:175,1,140,2|2,0:1|1:1,0:0:0:0:
294,51,101089,6,0,B|284:120,1,70,2|0,0:1|0:1,0:0:0:0:
272,204,101375,2,0,B|262:273,1,70,2|0,1:1|0:1,0:0:0:0:
200,331,101660,2,0,B|184:318|174:302|174:302|189:198,1,140,2|2,0:1|1:1,0:0:0:0:
392,143,102232,54,0,B|322:133,1,70,2|0,0:1|0:1,0:0:0:0:
239,121,102517,2,0,B|169:111,1,70,2|0,1:1|0:1,0:0:0:0:
112,49,102803,2,0,B|125:33|141:23|141:23|245:38,1,140,2|2,0:1|1:1,0:0:0:0:
317,232,103375,6,0,B|247:241,1,70,2|0,0:1|0:1,0:0:0:0:
164,254,103660,2,0,B|94:263,1,70,2|0,1:1|0:1,0:0:0:0:
132,338,103946,5,2,0:1:0:0:
132,338,104089,1,0,1:0:0:0:
214,351,104232,2,0,B|284:360,1,70,0|0,1:0|1:1,0:0:0:0:
359,324,104517,38,0,B|375:311|385:295|385:295|370:191,2,140,4|2|0,0:1|1:1|0:0,0:0:0:0:
213,175,105375,1,2,1:1:0:0:
213,175,105517,2,0,B|197:188|187:204|187:204|202:308,1,140,2|0,0:1|0:1,0:0:0:0:
262,363,105946,2,0,B|278:350|288:334|288:334|273:230,2,140,2|0|2,1:1|0:1|1:1,0:0:0:0:
214,157,106803,6,0,B|227:141|243:131|243:131|347:146,2,140,0|2|0,0:0|1:1|0:0,0:0:0:0:
413,224,107660,1,2,1:1:0:0:
413,224,107803,2,0,B|437:205|452:181|452:181|429:25,1,210,2|2,0:1|1:1,0:0:0:0:
261,156,108517,2,0,B|277:143|287:127|287:127|272:23,1,140,2|2,0:1|1:1,0:0:0:0:
66,75,109089,54,0,B|75:144,1,70,6|0,0:1|0:1,0:0:0:0:
88,228,109375,2,0,B|97:297,1,70,2|0,1:1|0:1,0:0:0:0:
160,355,109660,2,0,B|176:342|186:326|186:326|171:222,1,140,2|2,0:1|1:1,0:0:0:0:
364,314,110232,6,0,B|354:244,1,70,2|0,0:1|0:1,0:0:0:0:
342,161,110517,2,0,B|332:91,1,70,2|0,1:1|0:1,0:0:0:0:
270,34,110803,2,0,B|254:47|244:63|244:63|259:167,1,140,2|2,0:1|1:1,0:0:0:0:
463,222,111375,54,0,B|393:231,1,70,2|0,0:1|0:1,0:0:0:0:
310,244,111660,2,0,B|240:253,1,70,2|0,1:1|0:1,0:0:0:0:
183,316,111946,2,0,B|196:332|212:342|212:342|316:327,1,140,2|2,0:1|1:1,0:0:0:0:
362,122,112517,6,0,B|343:146|319:161|319:161|163:138,2,210,2|2|2,0:1|0:1|1:1,0:0:0:0:
51,204,113660,54,0,B|351:248|351:248|399:218|437:170,1,420,6|2,0:1|1:1,0:0:0:0:
410,90,114660,1,0,0:0:0:0:
410,90,114803,2,0,B|110:46|110:46|62:76|24:124,1,420,2|0,0:1|0:1,0:0:0:0:
228,328,115973,5,6,0:1:0:0:
27,199,127107,69,2,0:0:0:0:
27,199,127250,1,0,0:0:0:0:
27,199,127392,2,0,B|76:150|76:150|145:165,2,140,2|0|0,0:0|0:0|0:0,0:0:0:0:
69,331,128250,1,2,0:0:0:0:
69,331,128535,2,0,B|138:346|138:346|187:297|187:297|256:311,1,210
485,199,129392,21,0,0:0:0:0:
485,199,129678,2,0,B|436:150|436:150|367:165,2,140,2|0|0,0:0|0:0|0:0,0:0:0:0:
443,331,130535,1,2,0:0:0:0:
443,331,130821,2,0,B|374:346|374:346|325:297|325:297|256:311|256:311|206:262,1,280
320,104,131678,6,0,B|256:76|256:76|192:104,2,140,0|2|0,0:0|0:0|0:0,0:0:0:0:
256,228,132535,1,2,0:0:0:0:
256,228,132821,1,0,0:0:0:0:
392,197,133099,37,0,1:0:0:0:
139,262,133384,1,4,1:2:0:0:
354,297,133670,21,4,1:2:0:0:
187,161,133956,1,4,1:2:0:0:
418,69,134241,54,0,P|354:84|314:31,1,140,4|0,1:2|1:0,0:0:0:0:
313,30,134661,1,0,1:0:0:0:
242,75,134801,2,0,B|173:67,1,70,0|0,1:1|1:0,0:0:0:0:
133,141,135082,2,0,B|202:149,1,70,0|0,1:1|1:0,0:0:0:0:
286,158,135362,1,0,1:0:0:0:
14,334,135944,53,0,1:1:0:0:
14,334,136090,1,0,1:0:0:0:
74,273,136235,2,0,B|143:281,1,70,2|0,1:1|1:0,0:0:0:0:
228,291,136527,53,6,1:0:0:0:
228,291,136812,1,0,1:0:0:0:
369,117,137098,22,0,P|344:140|302:148,1,70,0|0,0:1|0:0,0:0:0:0:
243,199,137384,2,0,P|211:189|183:157,1,70,2|0,1:1|0:0,0:0:0:0:
109,131,137669,1,2,0:1:0:0:
109,131,137955,1,0,1:0:0:0:
190,339,138241,22,0,B|198:270,1,70,0|0,0:1|0:0,0:0:0:0:
279,247,138527,2,0,B|271:316,1,70,2|0,1:0|0:0,0:0:0:0:
344,357,138812,2,2,B|359:220|359:220|327:153|327:153|338:16,1,350,2|0,0:1|0:0,0:1:0:0:
258,43,139669,2,0,B|189:35,1,70,2|0,1:1|0:0,0:0:0:0:
105,25,139955,1,2,0:1:0:0:
105,25,140241,1,0,1:0:0:0:
226,212,140527,6,0,P|234:246|220:286,1,70,0|0,0:1|0:0,0:0:0:0:
142,297,140812,2,0,P|120:272|112:230,1,70,2|0,1:1|0:0,0:0:0:0:
154,164,141098,1,6,0:1:0:0:
154,164,141384,1,0,1:0:0:0:
335,299,141669,22,0,P|343:266|329:226,1,70,0|0,0:1|0:0,0:0:0:0:
344,149,141955,2,0,P|319:126|278:118,1,70,2|0,1:1|0:0,0:0:0:0:
218,67,142241,1,2,0:1:0:0:
218,67,142527,1,0,1:0:0:0:
245,289,142812,22,0,B|176:297,1,70,0|0,0:1|0:0,0:0:0:0:
204,216,143098,2,0,B|135:224,1,70,2|0,1:0|0:0,0:0:0:0:
94,151,143384,2,2,B|231:136|231:136|298:168|298:168|435:157,1,350,2|0,0:1|0:0,0:1:0:0:
393,85,144241,2,2,B|298:93,1,70,2|0,1:1|0:0,0:1:0:0:
269,25,144527,2,2,P|205:10|165:63,2,140,2|0|0,0:1|1:0|0:0,0:1:0:0:
432,177,145384,5,2,1:0:0:0:
349,195,145527,1,0,0:0:0:0:
406,255,145669,1,6,0:1:0:0:
198,171,145955,1,2,1:0:0:0:
375,33,146241,1,0,0:1:0:0:
406,255,146527,2,2,B|326:179|198:255|222:283|246:311|118:387|38:311,1,420,2|0,1:0|0:0,0:1:0:0:
32,88,147669,21,0,1:0:0:0:
240,172,147955,1,2,0:1:0:0:
32,88,148241,1,2,1:0:0:0:
240,172,148527,1,0,0:1:0:0:
32,88,148812,2,2,B|112:164|240:88|216:60|192:32|320:-44|400:32,1,420,2|0,1:0|0:0,0:1:0:0:
441,252,149955,6,0,L|372:246,1,70,0|0,1:0|0:0,0:0:0:0:
317,310,150241,2,2,P|218:330|136:268,1,210,6|0,0:1|0:0,0:1:0:0:
170,190,150812,2,2,P|202:94|296:54,1,210,2|0,0:1|0:0,0:1:0:0:
347,122,151384,2,2,P|413:197|401:299,1,210,2|0,0:1|0:0,0:1:0:0:
317,310,151955,2,2,P|218:330|136:268,1,210,2|0,0:1|0:0,0:1:0:0:
170,190,152527,2,2,P|185:102|241:239,1,420,2|0,0:1|0:0,0:1:0:0:
51,120,153654,37,2,1:0:0:0:
246,158,153935,1,2,1:0:0:0:
441,196,154217,1,2,1:0:0:0:
246,158,154499,1,2,1:0:0:0:
51,120,154781,1,4,1:0:0:0:
423,222,159384,38,0,B|429:188|397:159|397:159|326:143,1,140,6|0,0:1|1:0,0:0:0:0:
265,196,159812,2,0,B|259:230|291:259|291:259|362:275,1,140,2|0,0:1|0:0,0:0:0:0:
423,222,160241,1,2,1:1:0:0:
468,10,160526,6,0,B|459:56|416:80|416:80|287:64,1,210,2|0,0:1|0:0,0:0:0:0:
217,92,161098,2,0,B|208:46|165:22|165:22|47:37,1,210,2|0,0:1|0:0,0:0:0:0:
78,115,161669,54,0,B|145:130|145:130|177:159|171:193,1,140,2|0,0:1|1:0,0:0:0:0:
101,239,162098,2,0,B|35:223|35:223|3:194|9:160,1,140,2|0,0:1|0:0,0:0:0:0:
78,115,162526,1,2,1:1:0:0:
45,328,162812,6,0,B|163:313|163:313|206:337|215:383,1,210,2|0,0:1|0:0,0:0:0:0:
294,351,163384,2,0,B|412:366|412:366|455:342|464:296,1,210,2|0,0:1|0:0,0:0:0:0:
423,222,163955,54,0,B|429:188|397:159|397:159|326:143,1,140,6|0,0:1|1:0,0:0:0:0:
265,196,164384,2,0,B|259:230|291:259|291:259|362:275,1,140,2|0,0:1|0:0,0:0:0:0:
423,222,164812,1,2,1:1:0:0:
468,10,165098,6,0,B|459:56|416:80|416:80|287:64,1,210,2|0,0:1|0:0,0:0:0:0:
217,92,165669,2,0,B|208:46|165:22|165:22|47:37,1,210,2|0,0:1|0:0,0:0:0:0:
78,115,166241,54,0,B|145:130|145:130|177:159|171:193,1,140,2|0,0:1|1:0,0:0:0:0:
101,239,166669,2,0,B|35:223|35:223|3:194|9:160,1,140,2|0,0:1|0:0,0:0:0:0:
78,115,167098,1,2,1:1:0:0:
45,328,167384,6,0,B|163:313|163:313|206:337|215:383,1,210,2|0,0:1|0:0,0:0:0:0:
294,351,167955,5,2,0:1:0:0:
294,351,168098,2,0,L|380:362,1,70,0|0,1:0|1:0,0:0:0:0:
448,369,168384,1,0,1:0:0:0:
381,279,168526,38,0,B|263:264|263:264|220:288|211:334,2,210,6|2|2,0:1|0:1|1:1,0:0:0:0:
407,53,169669,6,0,B|401:87|361:103|361:103|288:94,1,140,2|0,0:1|1:0,0:0:0:0:
212,68,170098,1,0,0:0:0:0:
212,68,170241,2,0,B|206:34|166:18|166:18|93:27,1,140,2|0,0:1|1:0,0:0:0:0:
131,279,170812,54,0,B|249:264|249:264|292:288|301:334,2,210,2|2|2,0:1|0:1|1:1,0:0:0:0:
105,53,171955,6,0,B|110:87|150:103|150:103|223:94,1,140,2|0,0:1|1:0,0:0:0:0:
300,68,172384,1,0,0:0:0:0:
300,68,172526,2,0,B|306:34|346:18|346:18|419:27,1,140,2|0,0:1|1:0,0:0:0:0:
423,222,173098,54,0,B|429:188|397:159|397:159|326:143,1,140,6|0,0:1|1:0,0:0:0:0:
265,196,173526,2,0,B|259:230|291:259|291:259|362:275,1,140,2|0,0:1|0:0,0:0:0:0:
423,222,173955,1,2,1:1:0:0:
468,10,174241,6,0,B|459:56|416:80|416:80|287:64,1,210,2|0,0:1|0:0,0:0:0:0:
217,92,174812,2,0,B|208:46|165:22|165:22|47:37,1,210,2|0,0:1|0:0,0:0:0:0:
78,115,175384,54,0,B|145:130|145:130|177:159|171:193,1,140,2|0,0:1|1:0,0:0:0:0:
101,239,175812,2,0,B|35:223|35:223|3:194|9:160,1,140,2|0,0:1|0:0,0:0:0:0:
78,115,176241,1,2,1:1:0:0:
45,328,176526,6,0,B|163:313|163:313|206:337|215:383,1,210,2|0,0:1|0:0,0:0:0:0:
294,351,177098,5,2,0:1:0:0:
294,351,177241,2,0,L|380:362,1,70,0|0,1:0|1:0,0:0:0:0:
448,369,177527,1,0,1:0:0:0:
415,292,177669,6,0,B|423:238|423:238|408:254,1,70
365,179,177955,1,8,1:2:0:0:
231,338,178241,38,0,B|247:230|247:230|217:262,1,140,0|8,0:0|1:2,0:0:0:0:
190,176,178669,2,0,B|169:198|169:198|185:90,2,140
226,252,179384,2,0,B|248:229|248:229|232:337,1,140,0|8,0:0|1:2,0:0:0:0:
429,292,179955,22,0,B|437:238|437:238|422:254,1,70
379,179,180241,1,8,1:2:0:0:
217,321,180526,53,0,1:1:0:0:
217,321,180669,2,0,L|228:235,1,70,0|0,1:0|1:0,0:0:0:0:
238,167,180955,1,0,1:0:0:0:
130,204,181098,21,2,1:1:0:0:
365,100,181384,1,2,1:1:0:0:
154,88,181669,37,2,1:1:0:0:
370,205,181955,1,2,1:1:0:0:
99,288,182241,6,0,B|153:280|153:280|137:295,1,70,4|0,0:1|0:0,0:0:0:0:
212,338,182526,1,2,1:0:0:0:
161,123,182812,38,0,B|269:107|269:107|237:137,1,140,2|8,0:1|1:2,0:0:0:0:
323,164,183241,2,0,B|301:185|301:185|409:169,2,140,2|2|0,0:1|0:1|0:0,0:0:0:0:
247,128,183955,2,0,B|270:106|270:106|162:122,1,140,2|8,0:1|1:2,0:0:0:0:
99,288,184526,22,0,B|153:280|153:280|137:295,1,70,4|0,0:1|0:0,0:0:0:0:
212,338,184812,1,2,1:1:0:0:
161,123,185098,53,0,1:1:0:0:
161,123,185241,2,0,L|247:134,1,70,0|0,1:0|1:0,0:0:0:0:
315,144,185527,1,0,1:0:0:0:
296,32,185669,21,2,1:1:0:0:
383,299,185955,1,2,1:1:0:0:
427,64,186241,37,2,1:1:0:0:
268,286,186526,1,6,1:1:0:0:
256,192,186598,12,0,189312,3:0:0:0:
