osu file format v14

[General]
AudioFilename: audio.mp3
AudioLeadIn: 0
PreviewTime: 57946
Countdown: 0
SampleSet: Soft
StackLeniency: 0.7
Mode: 0
LetterboxInBreaks: 0
WidescreenStoryboard: 0

[Editor]
DistanceSpacing: 1.2
BeatDivisor: 3
GridSize: 4
TimelineZoom: 1.5

[Metadata]
Title:U&I
TitleUnicode:U&I
Artist:HO-KAGO TEA TIME
ArtistUnicode:放課後ティータイム
Creator:bossandy
Version:Graduation
Source:映画けいおん!
Tags:KyoAni Tribute Kyoto Animation 京都アニメーション Kon Eiga Keion! HTT Houkago Tea Time 平沢唯 Hirasawa Yui 豊崎愛生 Toyosaki Aki 秋山澪 Akiyama Mio 日笠陽子 Hikasa Yoko 田井中律 Tainaka Ritsu 佐藤聡美 Sato Satomi 琴吹紬 Kotobuki Tsumugi 寿美菜子 Kotobuki Minako 中野梓 Nakano Azusa 竹達彩奈 Taketatsu Ayana Guitar Drum Bass Keyboard Andrea osuplayer111 Sonnyc Trynna Ayyri eiri- Japanese Anime
BeatmapID:2155854
BeatmapSetID:976322

[Difficulty]
HPDrainRate:6
CircleSize:3.8
OverallDifficulty:8
ApproachRate:9.2
SliderMultiplier:1.6
SliderTickRate:1

[Events]
//Background and Video events
Video,-20,"video.avi"
0,0,"BG.jpg",0,0
//Break Periods
2,118250,125107
2,156193,157672
//Storyboard Layer 0 (Background)
//Storyboard Layer 1 (Fail)
//Storyboard Layer 2 (Pass)
//Storyboard Layer 3 (Foreground)
//Storyboard Layer 4 (Overlay)
//Storyboard Sound Samples

[TimingPoints]
7957,272.727272727273,4,2,1,70,1,0
8518,285.714285714286,4,2,1,70,1,0
21303,-100,4,2,1,5,0,0
21375,-100,4,2,1,70,0,0
21589,-100,4,2,1,5,0,0
21660,-100,4,2,1,70,0,0
21875,-100,4,2,1,5,0,0
21946,-66.6666666666667,4,2,1,70,0,0
22160,-66.6666666666667,4,2,1,5,0,0
22232,-133.333333333333,4,2,1,70,0,0
22518,289.855072463768,4,2,1,70,1,0
22518,-133.333333333333,4,2,1,70,0,0
23387,285.714285714286,4,2,1,70,1,0
23387,-133.333333333333,4,2,1,70,0,0
26815,292.682926829268,4,2,1,70,1,0
26815,-133.333333333333,4,2,1,70,0,0
27400,284.765068818225,4,2,1,70,1,0
27400,-133.333333333333,4,2,1,70,0,0
27969,284.765068818225,4,2,1,70,1,0
27969,-133.333333333333,4,2,1,70,0,0
31386,285.714285714286,4,2,1,70,1,0
31386,-133.333333333333,4,2,1,70,0,0
39386,-200,4,2,1,70,0,0
39600,-200,4,2,1,5,0,0
39671,-100,4,2,1,70,0,0
39886,-100,4,2,1,5,0,0
39957,-133.333333333333,4,2,1,70,0,0
48528,-200,4,2,1,70,0,0
48743,-200,4,2,1,5,0,0
48814,-100,4,2,1,70,0,0
49028,-100,4,2,1,5,0,0
49100,-133.333333333333,4,2,1,70,0,0
58814,-100,4,2,1,80,0,1
72814,-111.111111111111,4,2,1,80,0,1
73100,-125,4,2,1,80,0,1
73386,-142.857142857143,4,2,1,80,0,1
73957,-125,4,2,1,80,0,1
74243,-111.111111111111,4,2,1,80,0,1
74528,-100,4,2,1,80,0,1
75100,-66.6666666666667,4,2,1,80,0,1
75314,-66.6666666666667,4,2,1,5,0,1
75386,-100,4,2,1,80,0,1
75671,-66.6666666666667,4,2,1,80,0,1
75886,-66.6666666666667,4,2,1,5,0,1
75957,-100,4,2,1,80,0,1
76243,-66.6666666666667,4,2,1,80,0,1
76457,-100,4,2,1,5,0,1
76528,-100,4,2,1,80,0,1
91957,283.018867924528,4,2,1,80,1,1
94221,288.669713735867,4,2,1,80,1,1
95375,285.714285714286,4,2,1,80,1,0
95375,-100,4,2,1,80,0,0
112803,-100,4,2,3,80,0,0
112946,-100,4,2,1,80,0,0
114803,292.682926829268,4,2,1,80,1,0
114803,-100,4,2,1,80,0,0
118250,285.714285714286,4,2,1,50,1,0
126250,-200,4,2,1,40,0,0
133099,285.714285714286,4,2,1,40,1,0
133099,-166.666666666667,4,2,1,40,0,0
133313,-166.666666666667,4,2,1,5,0,0
133384,-142.857142857143,4,2,1,50,0,0
133599,-142.857142857143,4,2,1,5,0,0
133670,-125,4,2,1,60,0,0
133884,-125,4,2,1,5,0,0
133956,-111.111111111111,4,2,1,70,0,0
134170,-111.111111111111,4,2,1,5,0,0
134241,280.373831775701,4,2,1,80,1,0
134241,-100,4,2,1,80,0,0
135362,291.26213592233,4,2,1,80,1,0
135362,-100,4,2,1,80,0,0
136527,285.714285714286,4,2,1,80,1,1
136527,-100,4,2,1,80,0,1
152527,281.756280817093,4,2,1,80,1,1
152527,-100,4,2,1,80,0,1
154781,303.030303030303,4,2,1,80,1,0
154781,-200,4,2,1,80,0,0
158242,285.714285714286,4,2,1,80,1,0
159384,285.714285714286,4,2,1,70,1,1
181312,-100,4,2,1,5,0,1
181384,-100,4,2,1,70,0,1
181598,-100,4,2,1,5,0,1
181669,-100,4,2,1,70,0,1
181884,-100,4,2,1,5,0,1
181955,-66.6666666666667,4,2,1,70,0,1
182169,-66.6666666666667,4,2,1,5,0,1
182241,-100,4,2,1,70,0,1
185884,-100,4,2,1,5,0,1
185955,-100,4,2,1,70,0,1
186169,-100,4,2,1,5,0,1
186241,-100,4,2,1,70,0,1
186455,-100,4,2,1,5,0,1
186526,-100,4,2,1,70,0,0
186812,-100,4,2,1,60,0,0
187384,-100,4,2,1,50,0,0
187955,-100,4,2,1,40,0,0
188526,-100,4,2,1,30,0,0
189098,-100,4,2,1,20,0,0
189312,-100,4,2,1,70,0,0

[Colours]
Combo1 : 1,194,83
Combo2 : 181,78,2
Combo3 : 128,128,255
Combo4 : 254,222,137
Combo5 : 0,126,253

[HitObjects]
339,51,7820,6,0,L|350:5,2,40,0|0|0,3:0|3:0|1:0,0:0:0:0:
340,220,8093,1,0,1:0:0:0:
240,84,8229,1,0,1:0:0:0:
400,136,8366,1,0,1:0:0:0:
230,184,8518,6,0,P|178:184|86:256,1,160,14|0,3:2|1:0,0:0:0:0:
26,324,8946,2,0,L|42:144,1,160,2|0,3:2|3:0,0:0:0:0:
50,60,9375,1,10,1:2:0:0:
252,20,9660,6,0,P|303:79|312:157,1,160,10|8,3:2|1:2,0:0:0:0:
264,252,10089,1,0,3:0:0:0:
340,320,10232,2,0,P|384:324|436:304,1,80,10|0,0:2|3:0,0:0:0:0:
480,228,10518,1,8,1:2:0:0:
340,76,10803,6,0,L|180:93,1,160,10|8,3:2|1:2,0:0:0:0:
144,192,11232,2,0,P|88:140|84:56,1,160,2|0,3:2|3:0,0:0:0:0:
168,0,11660,1,10,1:2:0:0:
240,196,11946,6,0,L|212:304,1,80,10|0,3:2|0:0,0:0:0:0:
324,264,12232,2,0,L|352:156,1,80,8|0,1:2|3:0,0:0:0:0:
228,180,12518,2,0,L|200:288,1,80,10|0,0:2|3:0,0:0:0:0:
312,248,12803,2,0,L|340:140,1,80,8|0,1:2|0:0,0:0:0:0:
218,165,13089,6,0,L|177:319,1,160,14|8,3:2|1:2,0:0:0:0:
88,376,13518,2,0,B|64:328|76:292|76:292|100:208,1,160,2|0,3:2|3:0,0:0:0:0:
128,124,13946,1,10,1:2:0:0:
320,208,14232,6,0,P|404:180|428:60,1,160,10|8,3:2|1:2,0:0:0:0:
416,20,14660,1,0,3:0:0:0:
316,52,14803,2,0,L|228:40,1,80,10|0,0:2|3:0,0:0:0:0:
136,68,15089,1,8,1:2:0:0:
36,252,15375,6,0,P|88:320|184:268,1,160,10|8,3:2|1:2,0:0:0:0:
248,264,15803,2,0,L|436:296,1,160,2|0,3:2|3:0,0:0:0:0:
508,308,16232,1,10,1:2:0:0:
444,108,16518,6,0,L|464:8,1,80,10|0,3:2|3:0,0:0:0:0:
428,196,16803,1,4,1:2:0:0:
332,12,17089,2,0,L|316:90,1,80,10|0,3:2|1:0,0:0:0:0:
412,274,17375,2,0,L|427:195,1,80,0|0,1:0|1:0,0:0:0:0:
316,90,17660,6,0,P|254:138|176:136,2,160,14|2|2,3:2|1:2|3:2,0:0:0:0:
116,28,18518,1,0,1:2:0:0:
32,88,18660,2,0,B|36:156|36:156|52:176|52:176|56:248,1,160,2|2,3:2|0:0,0:0:0:0:
108,332,19089,1,0,1:2:0:0:
176,252,19232,1,2,0:0:0:0:
229,342,19375,2,0,B|293:294|293:294|373:310,1,160,2|2,3:2|1:2,0:0:0:0:
428,108,19946,5,2,3:2:0:0:
332,144,20089,1,2,3:2:0:0:
344,40,20232,1,2,1:2:0:0:
136,64,20518,1,2,3:2:0:0:
232,28,20660,1,0,1:0:0:0:
220,132,20803,1,0,1:2:0:0:
344,40,20946,1,0,0:0:0:0:
256,220,21089,6,0,P|196:224|140:180,1,120,2|0,1:2|0:0,0:0:0:0:
44,352,21375,2,0,P|70:298|136:271,1,120,2|0,1:2|0:0,0:0:0:0:
32,104,21660,2,0,P|65:153|55:224,1,120,2|0,1:2|0:0,0:0:0:0:
128,352,21946,6,0,B|188:368|188:368|240:340|240:340|300:360,1,180.000006866455,2|0,1:2|0:0,0:0:0:0:
392,384,22232,6,0,P|420:336|420:260,1,120.000004577637,4|0,3:2|1:0,0:0:0:0:
400,196,22662,1,0,0:0:0:0:
328,168,22807,2,0,L|348:104,1,60.0000022888184,0|0,3:0|3:0,0:0:0:0:
424,92,23097,2,0,L|392:32,1,60.0000022888184,0|0,1:0|0:0,0:0:0:0:
320,32,23387,6,0,B|252:48|252:48|232:36|188:32,1,120.000004577637,0|0,3:0|1:0,0:0:0:0:
200,112,23815,1,0,0:0:0:0:
200,192,23958,2,0,B|172:189|152:177|152:177|84:193,1,120.000004577637,0|0,0:0|1:0,0:0:0:0:
8,208,24387,1,0,0:0:0:0:
8,288,24529,6,0,P|52:328|128:324,1,120.000004577637,0|0,3:0|1:0,0:0:0:0:
184,312,24958,2,0,L|200:192,1,120.000004577637,0|0,0:0|3:0,0:0:0:0:
260,144,25387,2,0,L|268:84,1,60.0000022888184,0|0,1:0|0:0,0:0:0:0:
280,8,25672,6,0,L|400:24,1,120.000004577637,0|0,3:0|1:0,0:0:0:0:
476,32,26101,1,0,3:0:0:0:
432,96,26244,2,0,L|424:160,1,60.0000022888184,0|0,0:0|3:0,0:0:0:0:
456,228,26529,1,8,1:2:0:0:
336,324,26815,6,0,P|280:304|204:312,1,120.000004577637,0|0,3:0|1:0,0:0:0:0:
148,340,27254,1,0,0:0:0:0:
76,308,27400,2,0,L|88:220,1,60.0000022888184,0|0,0:0|3:0,0:0:0:0:
24,200,27684,2,0,L|94:146,1,60.0000022888184,0|0,1:0|0:0,0:0:0:0:
20,104,27969,5,0,3:0:0:0:
20,104,28111,1,0,0:0:0:0:
128,20,28253,1,0,1:0:0:0:
128,20,28396,1,0,3:0:0:0:
208,132,28538,2,0,P|266:122|254:75,1,120.000004577637,0|0,0:0|1:0,0:0:0:0:
400,20,29108,5,2,3:2:0:0:
400,20,29250,1,0,0:0:0:0:
376,96,29392,2,0,L|388:176,1,60.0000022888184,2|0,1:2|0:0,0:0:0:0:
344,220,29677,2,0,P|412:228|456:172,1,120.000004577637,2|0,0:0|1:0,0:0:0:0:
312,152,30104,6,0,P|244:144|200:200,1,120.000004577637,2|2,0:0|0:0,0:0:0:0:
184,252,30531,1,0,1:0:0:0:
136,312,30674,2,0,P|100:316|52:304,1,60.0000022888184,0|2,0:0|0:0,0:0:0:0:
16,264,30959,1,0,3:0:0:0:
16,184,31101,1,8,1:2:0:0:
104,56,31386,5,4,3:2:0:0:
104,56,31528,1,0,0:0:0:0:
168,100,31671,1,0,1:0:0:0:
232,56,31814,2,0,B|264:52|290:68|290:68|316:52|348:56,1,120.000004577637,0|0,0:0|3:0,0:0:0:0:
404,108,32243,2,0,P|436:120|476:116,1,60.0000022888184,0|0,1:0|0:0,0:0:0:0:
496,192,32528,5,0,3:0:0:0:
436,240,32671,1,0,0:0:0:0:
376,288,32814,2,0,L|396:360,1,60.0000022888184,0|0,1:0|0:0,0:0:0:0:
341,215,33100,1,0,0:0:0:0:
401,167,33243,1,0,3:0:0:0:
461,119,33386,2,0,L|441:47,1,60.0000022888184,0|0,1:0|0:0,0:0:0:0:
312,104,33671,6,0,B|253:116|253:116|261:50,1,120.000004577637,0|0,3:0|1:0,0:0:0:0:
352,180,34100,2,0,L|228:204,1,120.000004577637,0|0,0:0|3:0,0:0:0:0:
172,156,34528,1,0,1:0:0:0:
128,220,34671,1,0,0:0:0:0:
252,280,34814,6,0,L|369:257,1,120.000004577637,0|0,3:0|1:0,0:0:0:0:
448,248,35243,1,0,0:0:0:0:
472,120,35386,5,0,3:0:0:0:
359,150,35528,1,0,3:0:0:0:
329,37,35671,1,8,1:2:0:0:
441,7,35814,1,0,0:0:0:0:
272,108,35957,6,0,L|152:92,1,120.000004577637,4|0,3:2|1:0,0:0:0:0:
76,80,36386,1,0,0:0:0:0:
172,168,36528,2,0,P|176:228|128:280,1,120.000004577637,0|0,0:0|1:0,0:0:0:0:
104,204,36957,1,0,0:0:0:0:
24,320,37100,6,0,L|28:388,1,60.0000022888184,0|0,3:0|0:0,0:0:0:0:
104,204,37386,1,0,1:0:0:0:
192,300,37528,2,0,B|248:292|248:292|312:312,1,120.000004577637,0|0,0:0|3:0,0:0:0:0:
384,336,37957,1,0,1:0:0:0:
384,336,38100,1,0,0:0:0:0:
316,220,38243,6,0,L|320:152,1,60.0000022888184,0|2,3:0|0:0,0:0:0:0:
324,80,38528,1,2,1:2:0:0:
176,132,38814,2,0,L|92:124,1,60.0000022888184,2|0,3:2|3:0,0:0:0:0:
324,80,39100,2,0,L|264:85,1,60.0000022888184,0|2,1:0|0:0,0:0:0:0:
424,72,39386,6,0,B|428:104|428:104|424:136,1,60,0|0,3:0|0:0,0:0:0:0:
368,208,39671,6,0,P|424:232|484:204,1,120,6|0,1:2|0:0,0:0:0:0:
424,131,39957,5,0,3:0:0:0:
344,184,40100,1,0,1:0:0:0:
268,128,40243,1,0,1:0:0:0:
188,181,40386,1,0,1:0:0:0:
108,124,40528,6,0,P|40:116|4:72,1,120.000004577637,4|0,3:2|1:0,0:0:0:0:
174,61,40957,2,0,L|190:201,1,120.000004577637,0|0,3:0|3:0,0:0:0:0:
196,276,41386,1,0,1:0:0:0:
196,276,41528,1,0,0:0:0:0:
268,336,41671,6,0,P|304:336|336:320,1,60.0000022888184,0|0,3:0|0:0,0:0:0:0:
388,252,41957,2,0,P|388:216|372:184,1,60.0000022888184,0|0,1:0|0:0,0:0:0:0:
307,134,42243,2,0,P|271:134|239:150,1,60.0000022888184,0|0,0:0|3:0,0:0:0:0:
187,218,42528,2,0,P|187:254|203:286,1,60.0000022888184,0|0,1:0|0:0,0:0:0:0:
108,316,42814,6,0,P|87:259|90:200,1,120.000004577637,0|0,3:0|1:0,0:0:0:0:
156,132,43243,1,0,3:0:0:0:
249,142,43386,2,0,P|308:144|364:124,1,120.000004577637,0|0,0:0|1:0,0:0:0:0:
496,264,43957,6,0,P|436:266|380:246,1,120.000004577637,0|0,3:0|1:0,0:0:0:0:
304,308,44386,2,0,P|244:305|188:325,1,120.000004577637,0|0,3:0|3:0,0:0:0:0:
104,372,44814,1,0,1:0:0:0:
64,284,44957,1,0,0:0:0:0:
148,236,45100,6,0,L|144:164,1,60.0000022888184,0|0,3:0|0:0,0:0:0:0:
140,80,45386,2,0,L|212:76,1,60.0000022888184,0|0,1:0|3:0,0:0:0:0:
296,68,45671,2,0,L|300:140,1,60.0000022888184,0|0,0:0|3:0,0:0:0:0:
304,224,45957,2,0,L|232:228,1,60.0000022888184,0|0,1:0|0:0,0:0:0:0:
220,320,46243,6,0,L|339:313,1,120.000004577637,0|0,3:0|1:0,0:0:0:0:
428,352,46671,1,0,3:0:0:0:
424,256,46814,2,0,L|417:136,1,120.000004577637,0|0,0:0|1:0,0:0:0:0:
460,52,47243,1,0,0:0:0:0:
364,60,47386,6,0,L|292:64,1,60.0000022888184,0|0,3:0|0:0,0:0:0:0:
236,132,47671,2,0,L|164:128,1,60.0000022888184,0|0,1:0|3:0,0:0:0:0:
112,204,47957,1,0,0:0:0:0:
112,204,48100,1,0,3:0:0:0:
188,264,48243,2,0,P|188:300|176:344,1,60.0000022888184,0|0,1:0|0:0,0:0:0:0:
20,264,48528,6,0,B|12:232|12:232|16:196,1,60,0|0,3:0|0:0,0:0:0:0:
52,128,48814,6,0,P|112:80|108:16,1,120,4|0,1:2|0:0,0:0:0:0:
40,52,49100,5,4,3:2:0:0:
160,152,49243,1,0,3:0:0:0:
220,8,49386,1,4,1:2:0:0:
340,108,49528,1,0,0:0:0:0:
476,32,49671,6,0,B|456:92|456:92|468:152,1,120.000004577637,4|0,3:2|1:0,0:0:0:0:
484,244,50100,1,0,3:0:0:0:
420,316,50243,2,0,P|388:308|348:304,1,60.0000022888184,0|0,0:0|3:0,0:0:0:0:
245,235,50528,1,0,1:0:0:0:
308,164,50671,1,0,0:0:0:0:
276,328,50814,6,0,L|200:320,1,60.0000022888184,0|0,3:0|0:0,0:0:0:0:
352,232,51100,2,0,L|428:224,1,60.0000022888184,0|0,1:0|0:0,0:0:0:0:
268,300,51386,2,0,L|276:376,1,60.0000022888184,0|0,0:0|3:0,0:0:0:0:
352,208,51671,2,0,L|360:132,1,60.0000022888184,0|0,1:0|0:0,0:0:0:0:
168,128,51957,6,0,P|208:176|268:164,1,120.000004577637,0|0,3:0|1:0,0:0:0:0:
296,80,52386,1,0,0:0:0:0:
448,128,52528,2,0,L|435:247,1,120.000004577637,0|0,0:0|1:0,0:0:0:0:
424,344,52957,1,0,0:0:0:0:
340,240,53100,6,0,B|280:232|280:232|220:268,2,120.000004577637,0|0|0,3:0|1:0|0:0,0:0:0:0:
296,328,53814,1,0,3:0:0:0:
152,280,53957,2,0,P|152:246|172:208,1,60.0000022888184,4|0,1:2|0:0,0:0:0:0:
304,152,54243,6,0,B|364:160|364:160|424:124,1,120.000004577637,4|0,3:2|1:0,0:0:0:0:
496,76,54671,1,0,0:0:0:0:
412,224,54814,2,0,P|380:240|344:236,1,60.0000022888184,0|0,0:0|3:0,0:0:0:0:
272,288,55100,2,0,P|256:320|260:356,1,60.0000022888184,0|0,1:0|0:0,0:0:0:0:
120,332,55386,6,0,P|122:272|151:220,1,120.000004577637,4|0,3:2|1:0,0:0:0:0:
236,172,55814,1,0,0:0:0:0:
92,152,55957,2,0,B|40:180|40:180|20:120,1,120.000004577637,0|0,0:0|1:0,0:0:0:0:
92,56,56386,1,0,0:0:0:0:
236,172,56528,6,0,P|296:152|316:100,1,120.000004577637,4|0,3:2|1:0,0:0:0:0:
300,8,56957,1,0,0:0:0:0:
412,112,57100,2,0,L|400:188,1,60.0000022888184,0|0,0:0|3:0,0:0:0:0:
448,304,57386,2,0,L|460:228,1,60.0000022888184,0|0,1:0|0:0,0:0:0:0:
376,360,57671,5,4,3:2:0:0:
300,224,57814,1,0,1:0:0:0:
300,224,57886,1,0,1:0:0:0:
300,224,57957,1,0,1:0:0:0:
224,360,58100,1,0,1:0:0:0:
376,280,58243,5,0,1:0:0:0:
224,156,58386,1,0,1:0:0:0:
224,280,58528,5,0,1:0:0:0:
376,156,58671,1,0,1:0:0:0:
192,264,58814,6,0,P|120:280|60:212,1,160,4|8,3:2|1:2,0:0:0:0:
112,132,59243,1,0,3:0:0:0:
228,252,59386,2,0,L|212:348,1,80,8|0,0:2|3:0,0:0:0:0:
144,196,59671,2,0,L|128:100,1,80,8|0,1:2|0:0,0:0:0:0:
320,224,59957,6,0,L|293:381,1,160,8|8,3:2|1:2,0:0:0:0:
240,168,60386,1,0,3:0:0:0:
324,108,60528,2,0,L|312:24,1,80,8|0,0:2|3:0,0:0:0:0:
404,172,60814,2,0,P|424:128|420:80,1,80,8|0,1:2|0:0,0:0:0:0:
320,224,61100,6,0,P|364:260|480:232,1,160,8|8,3:2|1:2,0:0:0:0:
404,172,61528,1,0,3:0:0:0:
192,224,61671,2,0,P|148:260|32:232,1,160,8|8,0:2|1:2,0:0:0:0:
108,172,62100,1,0,0:0:0:0:
256,72,62243,6,0,L|268:160,1,80,8|0,3:2|0:0,0:0:0:0:
354,203,62528,1,8,1:2:0:0:
280,276,62671,1,0,3:0:0:0:
343,123,62814,2,0,L|355:211,1,80,8|0,0:2|3:0,0:0:0:0:
441,254,63100,1,8,1:2:0:0:
367,327,63243,1,0,0:0:0:0:
192,224,63386,6,0,P|115:241|50:198,1,160,12|8,3:2|1:2,0:0:0:0:
24,300,63814,1,0,3:0:0:0:
136,144,63957,2,0,L|124:56,1,80,8|0,0:2|3:0,0:0:0:0:
232,212,64243,2,0,L|220:300,1,80,8|0,1:2|0:0,0:0:0:0:
248,108,64528,6,0,B|316:112|316:112|336:128|336:128|408:132,1,160,8|8,3:2|1:2,0:0:0:0:
504,140,64957,1,0,3:0:0:0:
348,32,65100,2,0,L|236:24,1,80,8|0,0:2|3:0,0:0:0:0:
372,216,65386,2,0,L|484:224,1,80,8|0,1:2|0:0,0:0:0:0:
296,284,65671,6,0,P|268:208|304:136,1,160,8|8,3:2|1:2,0:0:0:0:
372,216,66100,1,0,3:0:0:0:
176,160,66243,2,0,P|204:84|168:12,1,160,8|8,0:2|1:2,0:0:0:0:
100,92,66671,1,0,0:0:0:0:
100,264,66814,6,0,B|140:292|140:292|252:288,1,160,8|8,3:2|1:2,0:0:0:0:
356,284,67243,1,0,3:0:0:0:
300,196,67386,2,0,P|292:152|304:92,1,80,8|0,0:2|3:0,0:0:0:0:
440,236,67671,2,0,P|448:280|436:340,1,80,8|0,1:2|0:0,0:0:0:0:
384,68,67957,6,0,P|444:104|373:139,1,160,12|8,3:2|1:2,0:0:0:0:
296,116,68386,1,0,3:0:0:0:
196,84,68528,2,0,P|104:84|24:112,1,160,8|8,0:2|1:2,0:0:0:0:
16,204,68957,1,0,0:0:0:0:
92,276,69100,6,0,L|192:264,1,80,8|0,3:2|0:0,0:0:0:0:
256,204,69386,1,8,1:2:0:0:
200,356,69528,2,0,L|358:336,1,160,0|0,3:0|3:0,0:0:0:0:
256,204,69957,1,8,1:2:0:0:
171,266,70100,1,0,0:0:0:0:
358,335,70243,6,0,P|408:296|408:184,1,160,8|8,3:2|1:2,0:0:0:0:
320,240,70671,1,0,3:0:0:0:
348,140,70814,2,0,B|360:88|360:88|240:128,1,160,8|8,0:2|1:2,0:0:0:0:
164,160,71243,1,0,0:0:0:0:
84,52,71386,6,0,L|74:131,1,80,8|0,3:2|0:0,0:0:0:0:
12,216,71671,1,8,1:2:0:0:
164,160,71814,2,0,L|144:318,1,160,0|0,3:0|3:0,0:0:0:0:
12,216,72243,1,8,1:2:0:0:
74,131,72386,1,0,0:0:0:0:
143,318,72528,6,0,P|176:336|224:340,1,80,12|0,3:2|0:0,0:0:0:0:
382,305,72814,2,0,P|400:272|404:228,1,71.9999978027344,8|0,1:2|3:0,0:0:0:0:
369,66,73100,2,0,P|336:48|284:44,1,64,8|0,0:2|3:0,0:0:0:0:
130,79,73386,2,0,P|112:112|108:152,1,55.9999982910157,8|0,1:2|0:0,0:0:0:0:
217,340,73671,6,0,P|178:336|148:320,1,55.9999982910157,8|0,3:2|0:0,0:0:0:0:
107,153,73957,2,0,P|111:114|128:80,1,64,8|0,1:2|3:0,0:0:0:0:
294,43,74243,2,0,P|333:47|364:64,1,71.9999978027344,8|0,0:2|3:0,0:0:0:0:
404,230,74528,2,0,P|400:269|382:305,1,80,8|0,1:2|0:0,0:0:0:0:
280,324,74814,5,8,3:2:0:0:
232,152,74957,1,0,3:0:0:0:
184,244,75100,6,0,B|124:268|68:256|68:256|24:184,1,180.000006866455,12|0,1:2|0:0,0:0:0:0:
0,128,75386,5,8,3:2:0:0:
144,16,75528,1,0,3:0:0:0:
228,80,75671,6,0,L|412:64,1,180.000006866455,12|0,1:2|0:0,0:0:0:0:
448,136,75957,5,8,3:2:0:0:
260,200,76100,1,0,3:0:0:0:
328,280,76243,6,0,B|360:304|412:300|412:300|440:268|424:208,1,180.000006866455,12|0,1:2|0:0,0:0:0:0:
344,192,76528,5,8,3:2:0:0:
256,348,76671,1,0,1:0:0:0:
168,192,76814,1,8,1:2:0:0:
256,36,76957,1,0,1:0:0:0:
256,228,77100,6,0,P|200:280|104:264,1,160,12|8,3:2|1:2,0:0:0:0:
36,336,77528,1,0,3:0:0:0:
80,168,77671,2,0,L|176:184,1,80,8|0,0:2|3:0,0:0:0:0:
348,236,77957,2,0,L|252:252,1,80,8|0,1:2|0:0,0:0:0:0:
60,76,78243,6,0,L|217:103,1,160,8|8,3:2|1:2,0:0:0:0:
320,124,78671,1,0,3:0:0:0:
424,104,78814,2,0,P|408:64|360:32,1,80,8|0,0:2|3:0,0:0:0:0:
384,192,79100,2,0,P|428:204|464:192,1,80,8|0,1:2|0:0,0:0:0:0:
492,320,79386,6,0,P|415:339|340:314,1,160,8|8,3:2|1:2,0:0:0:0:
256,252,79814,1,0,3:0:0:0:
20,320,79957,2,0,P|96:339|171:314,1,160,8|8,0:2|1:2,0:0:0:0:
256,252,80386,1,0,0:0:0:0:
156,152,80528,6,0,L|144:64,1,80,8|0,3:2|0:0,0:0:0:0:
220,0,80814,1,8,1:2:0:0:
312,44,80957,1,0,3:0:0:0:
248,196,81100,2,0,L|236:108,1,80,8|0,0:2|3:0,0:0:0:0:
312,44,81386,1,8,1:2:0:0:
404,88,81528,1,0,0:0:0:0:
512,240,81671,6,0,P|436:248|364:208,1,160,12|8,3:2|1:2,0:0:0:0:
308,288,82100,1,0,3:0:0:0:
256,204,82243,2,0,L|266:124,1,80,8|0,0:2|3:0,0:0:0:0:
140,272,82528,2,0,L|151:351,1,80,8|0,1:2|0:0,0:0:0:0:
156,164,82814,6,0,B|88:168|88:168|68:184|68:184|-4:188,1,160,8|8,3:2|1:2,0:0:0:0:
20,84,83243,1,0,3:0:0:0:
140,272,83386,2,0,L|256:264,1,80,8|0,0:2|3:0,0:0:0:0:
346,119,83671,2,0,L|230:127,1,80,8|0,1:2|0:0,0:0:0:0:
508,228,83957,6,0,P|432:256|360:220,1,160,8|8,3:2|1:2,0:0:0:0:
346,119,84386,1,0,3:0:0:0:
124,192,84528,2,0,P|200:164|272:200,1,160,8|8,0:2|1:2,0:0:0:0:
286,301,84957,1,0,0:0:0:0:
440,160,85100,6,0,B|468:120|468:120|436:8,1,160,8|8,3:2|1:2,0:0:0:0:
332,12,85528,1,0,3:0:0:0:
248,72,85671,2,0,B|208:76|168:64,1,80,8|0,0:2|3:0,0:0:0:0:
24,136,85957,2,0,B|64:132|104:144,1,80,8|0,1:2|0:0,0:0:0:0:
209,334,86243,6,0,P|139:317|100:244,1,160,12|8,3:2|1:2,0:0:0:0:
102,143,86671,1,0,3:0:0:0:
196,244,86814,2,0,B|233:239|271:262|271:262|309:239|347:244,1,160,8|8,0:2|1:2,0:0:0:0:
436,300,87243,1,0,0:0:0:0:
364,136,87386,6,0,L|373:56,1,80,8|0,3:2|0:0,0:0:0:0:
472,20,87671,1,8,1:2:0:0:
284,0,87814,2,0,L|264:158,1,160,0|0,3:0|3:0,0:0:0:0:
452,178,88243,1,8,1:2:0:0:
352,212,88386,1,0,0:0:0:0:
188,164,88528,6,0,P|108:172|44:112,1,160,8|8,3:2|1:2,0:0:0:0:
140,68,88957,1,0,3:0:0:0:
88,252,89100,2,0,B|76:304|76:304|140:312|196:264,1,160,8|8,0:2|1:2,0:0:0:0:
260,216,89528,1,0,0:0:0:0:
368,100,89671,6,0,L|358:179,1,80,8|0,3:2|0:0,0:0:0:0:
260,216,89957,1,8,1:2:0:0:
448,236,90100,2,0,L|467:77,1,160,0|0,3:0|3:0,0:0:0:0:
280,58,90528,1,8,1:2:0:0:
380,24,90671,1,0,0:0:0:0:
184,96,90814,6,0,B|72:76|72:76|116:48,1,160,12|8,3:2|1:2,0:0:0:0:
204,0,91243,1,0,0:0:0:0:
204,192,91386,2,0,B|316:172|316:172|272:144,1,160,8|8,0:2|1:2,0:0:0:0:
184,96,91814,1,0,0:0:0:0:
184,288,91957,6,0,B|72:268|72:268|116:240,1,160,8|8,3:2|1:2,0:0:0:0:
204,192,92381,1,0,0:0:0:0:
204,384,92523,2,0,B|316:364|316:364|272:336,1,160,8|8,0:2|1:2,0:0:0:0:
184,288,92947,1,0,0:0:0:0:
332,256,93089,6,0,B|384:288|384:288|440:280|472:216,1,160,8|12,3:2|1:2,0:0:0:0:
440,132,93513,1,0,0:0:0:0:
344,96,93655,2,0,P|304:96|252:116,1,80,8|0,3:2|1:0,0:0:0:0:
424,32,93938,2,0,P|462:43|501:43,1,80,8|0,1:2|1:0,0:0:0:0:
502,42,94150,1,0,1:0:0:0:
502,42,94221,5,2,1:2:0:0:
344,96,94365,1,0,1:0:0:0:
440,132,94509,5,2,1:2:0:0:
282,186,94654,1,0,1:0:0:0:
380,224,94798,5,2,1:2:0:0:
220,276,94942,1,0,1:0:0:0:
316,312,95087,5,2,1:2:0:0:
158,366,95231,1,0,1:0:0:0:
56,232,95375,6,0,B|88:196|88:196|80:84,1,160,14|10,3:2|1:2,0:0:0:0:
156,16,95803,1,0,0:0:0:0:
256,140,95946,2,0,P|344:148|412:80,1,160,10|10,0:2|1:2,0:0:0:0:
512,276,96375,6,0,P|447:232|369:243,1,160,2|0,0:2|0:0,0:0:0:0:
296,316,96803,2,0,P|256:324|208:316,1,80,10|0,1:2|0:0,0:0:0:0:
256,200,97089,2,0,P|222:177|193:137,1,80,10|0,0:2|3:0,0:0:0:0:
309,89,97375,2,0,P|301:49|309:0,1,80,10|0,1:2|0:0,0:0:0:0:
480,36,97660,6,0,P|452:116|374:156,1,160,10|10,3:2|1:2,0:0:0:0:
309,89,98089,1,0,0:0:0:0:
168,8,98232,2,0,B|152:112|152:112|172:132|184:160,1,160,10|10,0:2|1:2,0:0:0:0:
72,340,98660,6,0,B|76:272|76:272|92:252|92:252|96:180,1,160,2|0,0:0|0:0,0:0:0:0:
176,252,99089,2,0,P|198:285|238:314,1,80,10|0,1:2|0:0,0:0:0:0:
286,198,99375,2,0,P|326:205|375:198,1,80,10|0,0:2|3:0,0:0:0:0:
327,82,99660,2,0,P|360:59|389:19,1,80,10|0,1:2|0:0,0:0:0:0:
224,112,99946,6,0,P|148:108|72:148,1,160,14|10,3:2|1:2,0:0:0:0:
24,236,100375,1,0,0:0:0:0:
108,296,100517,2,0,P|184:300|260:260,1,160,10|10,0:2|1:2,0:0:0:0:
308,172,100946,1,0,0:0:0:0:
468,216,101089,6,0,L|432:376,1,160,10|10,3:2|1:2,0:0:0:0:
344,316,101517,1,0,0:0:0:0:
257,262,101660,2,0,L|293:102,1,160,10|10,0:2|1:2,0:0:0:0:
380,160,102089,1,0,0:0:0:0:
248,304,102232,6,0,B|168:312|168:312|128:304|96:272,1,160,10|10,3:2|1:2,0:0:0:0:
52,180,102660,1,0,0:0:0:0:
156,172,102803,2,0,B|236:164|236:164|276:172|308:204,1,160,10|10,0:2|1:2,0:0:0:0:
352,296,103232,1,0,0:0:0:0:
496,168,103375,6,0,L|484:80,1,80,10|0,3:2|0:0,0:0:0:0:
404,200,103660,2,0,L|393:279,1,80,10|0,1:2|0:0,0:0:0:0:
500,200,103946,5,10,3:2:0:0:
388,108,104089,1,0,1:0:0:0:
285,211,104232,1,10,1:2:0:0:
173,119,104375,1,0,1:2:0:0:
70,222,104517,6,0,P|36:168|40:64,1,160,14|10,3:2|1:2,0:0:0:0:
112,4,104946,1,0,0:0:0:0:
184,148,105089,2,0,B|216:188|216:188|324:176,1,160,10|10,0:2|1:2,0:0:0:0:
456,272,105517,6,0,B|348:260|348:260|316:300,1,160,2|0,0:0|0:0,0:0:0:0:
420,180,105946,2,0,P|428:140|420:92,1,80,10|0,1:2|0:0,0:0:0:0:
304,140,106232,2,0,P|281:106|241:77,1,80,10|0,0:2|3:0,0:0:0:0:
193,193,106517,2,0,P|153:185|104:193,1,80,10|0,1:2|0:0,0:0:0:0:
216,312,106803,6,0,B|254:326|293:312|293:312|332:297|371:312,1,160,10|10,3:2|1:2,0:0:0:0:
460,372,107232,1,0,0:0:0:0:
380,224,107375,2,0,B|312:212|256:236|256:236|264:196,1,160,10|10,0:2|1:2,0:0:0:0:
98,332,107803,6,0,B|166:320|222:344|222:344|214:304,1,160,2|0,0:0|0:0,0:0:0:0:
152,228,108232,2,0,P|144:188|152:140,1,80,10|0,1:2|0:0,0:0:0:0:
268,188,108517,2,0,P|291:154|331:125,1,80,10|0,0:2|3:0,0:0:0:0:
379,241,108803,2,0,P|419:233|468:241,1,80,10|0,1:2|0:0,0:0:0:0:
416,360,109089,6,0,B|348:356|348:356|328:340|328:340|256:336,1,160,14|10,3:2|1:2,0:0:0:0:
156,332,109517,1,0,0:0:0:0:
160,228,109660,2,0,B|164:160|164:160|180:140|180:140|184:68,1,160,10|10,0:2|1:2,0:0:0:0:
84,108,110089,1,0,0:0:0:0:
256,200,110232,6,0,B|250:284|250:284|256:320|296:348,1,160,10|10,3:2|1:2,0:0:0:0:
396,360,110660,1,0,0:0:0:0:
476,296,110803,2,0,B|494:256|481:222|481:222|434:152,1,160,10|10,0:2|1:2,0:0:0:0:
332,144,111232,1,0,0:0:0:0:
252,288,111375,6,0,B|172:296|172:296|192:208,1,160,10|10,3:2|1:2,0:0:0:0:
212,116,111803,1,0,0:0:0:0:
40,132,111946,2,0,B|120:124|120:124|100:212,1,160,10|10,0:2|1:2,0:0:0:0:
80,304,112375,1,0,0:0:0:0:
252,288,112517,6,0,B|309:266|368:288|368:288|426:310|485:288,2,240,10|2|14,3:2|0:0|1:2,0:0:0:0:
420,168,113660,6,0,P|400:80|320:44,1,160,14|8,3:2|1:2,0:0:0:0:
240,44,114089,1,0,0:0:0:0:
140,76,114232,2,0,P|96:80|40:72,1,80,8|0,3:2|3:0,0:0:0:0:
216,144,114517,2,0,P|260:140|316:148,1,80,8|0,1:2|0:0,0:0:0:0:
456,248,114803,6,0,P|404:254|352:228,1,106.666666666667,2|0,3:2|1:0,0:0:0:0:
268,276,115095,2,0,L|276:340,2,53.3333333333333,0|0|0,1:0|1:0|1:0,0:0:0:0:
208,196,115388,2,0,L|216:136,2,53.3333333333333,0|0|0,1:0|3:0|3:0,0:0:0:0:
132,260,115681,2,0,L|140:316,2,53.3333333333333,0|0|0,3:0|3:0|3:0,0:0:0:0:
80,176,115973,5,14,3:2:0:0:
440,68,126250,5,2,0:0:0:0:
440,68,126821,1,0,0:0:0:0:
344,108,127107,1,0,0:0:0:0:
344,108,127250,1,0,0:0:0:0:
344,108,127392,6,0,L|256:88,1,80,2|0,0:0|0:0,0:0:0:0:
168,120,127964,1,0,0:0:0:0:
228,204,128250,1,0,0:0:0:0:
128,236,128535,2,0,P|148:272|268:292,1,160,2|0,0:0|0:0,0:0:0:0:
332,228,129392,1,0,0:0:0:0:
400,148,129678,6,0,L|377:71,1,80,2|0,0:0|0:0,0:0:0:0:
205,127,130250,2,0,L|227:203,1,80,0|0,0:0|0:0,0:0:0:0:
272,56,130821,2,0,B|216:76|216:76|120:48,1,160,2|0,0:0|0:0,0:0:0:0:
36,112,131678,1,0,0:0:0:0:
36,216,131964,6,0,P|60:248|96:268,1,80,2|0,0:0|0:0,0:0:0:0:
192,236,132535,2,0,P|207:199|207:158,1,80,0|0,0:0|0:0,0:0:0:0:
88,60,133099,6,0,B|108:40|108:40|156:44,1,71.9999978027344,0|0,1:0|0:0,0:0:0:0:
228,56,133384,6,0,P|272:60|320:32,1,83.9999974365235,4|0,3:2|0:0,0:0:0:0:
356,104,133670,6,0,P|400:100|452:132,1,96,4|0,3:2|0:0,0:0:0:0:
440,200,133956,6,0,B|434:265|434:265|451:277|464:295,1,107.999996704102,4|0,3:2|0:0,0:0:0:0:
396,336,134241,5,4,3:2:0:0:
228,216,134521,5,0,1:0:0:0:
276,308,134661,1,0,1:0:0:0:
184,356,134801,2,0,L|92:340,1,80,0|0,1:0|1:0,0:0:0:0:
228,216,135082,2,0,L|320:200,1,80,0|0,1:0|1:0,0:0:0:0:
144,228,135362,5,0,1:0:0:0:
243,106,135507,1,0,1:0:0:0:
243,106,135580,1,0,1:0:0:0:
243,106,135653,1,0,1:0:0:0:
294,252,135798,1,0,1:0:0:0:
158,148,135944,5,0,1:0:0:0:
329,51,136090,1,0,1:0:0:0:
308,174,136235,5,0,1:0:0:0:
180,26,136381,1,0,1:0:0:0:
152,192,136527,6,0,P|96:244|0:228,1,160,12|8,2:2|1:2,0:0:0:0:
60,144,136955,1,0,3:0:0:0:
108,272,137098,2,0,L|204:288,1,80,8|0,0:2|3:0,0:0:0:0:
320,168,137384,2,0,L|224:184,1,80,8|0,1:2|0:0,0:0:0:0:
56,344,137669,6,0,L|213:371,1,160,8|8,3:2|1:2,0:0:0:0:
304,320,138098,1,0,3:0:0:0:
391,262,138241,2,0,L|375:183,1,80,8|0,0:2|3:0,0:0:0:0:
456,348,138527,2,0,P|484:324|496:264,1,80,8|0,1:2|0:0,0:0:0:0:
440,116,138812,6,0,P|366:86|299:121,1,160,8|8,3:2|1:2,0:0:0:0:
256,214,139241,1,0,3:0:0:0:
72,115,139384,2,0,P|143:85|212:120,1,160,8|8,0:2|1:2,0:0:0:0:
256,214,139812,1,0,0:0:0:0:
328,356,139955,6,0,P|368:360|416:336,1,80,8|0,3:2|0:0,0:0:0:0:
472,264,140241,1,8,1:2:0:0:
404,188,140384,1,0,3:0:0:0:
260,280,140527,2,0,P|300:284|348:260,1,80,8|0,0:2|3:0,0:0:0:0:
404,188,140812,1,8,1:2:0:0:
336,112,140955,1,0,0:0:0:0:
147,89,141098,6,0,B|140:132|164:164|164:164|200:176|244:164,1,160,12|8,3:2|1:2,0:0:0:0:
336,112,141527,1,0,3:0:0:0:
328,216,141669,2,0,P|324:255|332:294,1,80,8|0,0:2|3:0,0:0:0:0:
428,152,141955,2,0,P|436:112|432:72,1,80,8|0,1:2|0:0,0:0:0:0:
236,184,142241,6,0,P|228:263|244:341,1,160,8|8,3:2|1:2,0:0:0:0:
148,380,142669,1,0,3:0:0:0:
332,294,142812,2,0,L|411:299,1,80,8|0,0:2|3:0,0:0:0:0:
236,184,143098,2,0,L|120:192,1,80,8|0,1:2|0:0,0:0:0:0:
332,208,143384,6,0,B|340:168|323:130|323:130|361:107|369:66,1,160,8|8,3:2|1:2,0:0:0:0:
268,48,143812,1,0,3:0:0:0:
204,208,143955,2,0,B|196:168|213:130|213:130|175:107|167:66,1,160,8|8,0:2|1:2,0:0:0:0:
268,48,144384,1,0,0:0:0:0:
416,156,144527,6,0,B|468:168|508:148|508:148|480:216,1,160,8|8,3:2|1:2,0:0:0:0:
440,304,144955,1,0,3:0:0:0:
336,188,145098,2,0,B|324:144|344:108,1,80,8|0,0:2|3:0,0:0:0:0:
464,0,145384,2,0,B|476:44|456:80,1,80,8|0,1:2|0:0,0:0:0:0:
380,256,145669,6,0,B|312:263|312:263|289:251|289:251|218:260,1,160,12|8,3:2|1:2,0:0:0:0:
120,276,146098,1,0,3:0:0:0:
28,232,146241,2,0,B|23:195|46:157|46:157|23:119|28:81,1,160,8|8,0:2|1:2,0:0:0:0:
120,32,146669,1,0,0:0:0:0:
240,128,146812,6,0,L|320:137,1,80,8|0,3:2|0:0,0:0:0:0:
356,236,147098,1,8,1:2:0:0:
376,48,147241,2,0,L|218:28,1,160,0|0,3:0|3:0,0:0:0:0:
198,216,147669,1,8,1:2:0:0:
164,116,147812,1,0,0:0:0:0:
136,292,147955,6,0,P|216:312|280:264,1,160,8|8,3:2|1:2,0:0:0:0:
288,168,148384,1,0,3:0:0:0:
360,304,148527,2,0,B|352:328|328:348|328:348|412:364|460:312,1,160,8|8,0:2|1:2,0:0:0:0:
456,236,148955,1,0,0:0:0:0:
344,120,149098,6,0,L|265:110,1,80,8|0,3:2|0:0,0:0:0:0:
228,12,149384,1,8,1:2:0:0:
208,200,149527,2,0,L|367:219,1,160,0|0,3:0|3:0,0:0:0:0:
386,32,149955,1,8,1:2:0:0:
420,132,150098,1,0,0:0:0:0:
272,16,150241,6,0,B|156:0|156:0|116:24,1,160,12|8,3:2|1:2,0:0:0:0:
28,72,150669,1,0,0:0:0:0:
120,120,150812,2,0,B|236:104|236:104|276:128,1,160,8|8,0:2|1:2,0:0:0:0:
364,176,151241,1,0,0:0:0:0:
272,220,151384,6,0,B|156:204|156:204|116:228,1,160,8|8,3:2|1:2,0:0:0:0:
28,276,151812,1,0,0:0:0:0:
120,324,151955,2,0,B|236:308|236:308|276:332,1,160,8|8,0:2|1:2,0:0:0:0:
364,380,152384,1,0,0:0:0:0:
348,264,152527,6,0,B|400:296|400:296|456:288|488:224,1,160,8|12,3:2|1:2,0:0:0:0:
484,136,152949,1,0,0:0:0:0:
400,72,153090,2,0,P|360:72|308:92,1,80,8|0,3:2|1:0,0:0:0:0:
240,148,153372,2,0,P|200:148|161:137,1,80,8|0,1:2|3:0,0:0:0:0:
104,84,153583,1,0,1:0:0:0:
104,84,153654,5,8,3:0:0:0:
311,14,153935,1,8,3:0:0:0:
442,190,154217,1,8,3:0:0:0:
315,368,154499,1,4,3:0:0:0:
106,303,154781,6,0,B|64:268|64:204|64:204|64:156,2,160,4|0|0,3:2|0:0|0:0,0:0:0:0:
106,303,158242,5,8,0:2:0:0:
315,368,158527,1,8,0:2:0:0:
442,190,158813,1,8,0:2:0:0:
311,14,159099,1,8,0:2:0:0:
104,84,159384,6,0,P|156:84|248:156,1,160,14|8,3:2|1:2,0:0:0:0:
304,228,159812,2,0,B|340:252|384:248|384:248|452:184,1,160,2|0,3:2|3:0,0:0:0:0:
440,92,160241,1,10,1:2:0:0:
241,144,160526,6,0,L|221:316,1,160,10|8,3:2|1:2,0:0:0:0:
124,264,160955,1,0,3:0:0:0:
28,224,161098,2,0,L|42:114,1,80,10|0,0:2|3:0,0:0:0:0:
52,40,161384,1,8,1:2:0:0:
244,120,161669,6,0,B|324:104|324:104|272:44,1,160,10|8,3:2|1:2,0:0:0:0:
368,4,162098,2,0,B|420:64|420:64|436:112|416:148,1,160,2|0,3:2|3:0,0:0:0:0:
336,204,162526,1,10,1:2:0:0:
136,144,162812,6,0,L|28:116,1,80,10|0,3:2|0:0,0:0:0:0:
68,228,163098,2,0,L|176:256,1,80,8|0,1:2|3:0,0:0:0:0:
152,132,163384,2,0,L|44:104,1,80,10|0,0:2|3:0,0:0:0:0:
84,216,163669,2,0,L|192:244,1,80,8|0,1:2|0:0,0:0:0:0:
167,122,163955,6,0,L|13:81,1,160,14|8,3:2|1:2,0:0:0:0:
84,4,164384,2,0,B|140:20|140:20|180:12|180:12|240:28,1,160,2|0,3:2|3:0,0:0:0:0:
340,52,164812,1,10,1:2:0:0:
452,228,165098,6,0,B|476:272|476:272|456:380,1,160,10|8,3:2|1:2,0:0:0:0:
352,360,165526,1,0,3:0:0:0:
252,336,165669,2,0,L|168:312,1,80,10|0,0:2|3:0,0:0:0:0:
72,288,165955,1,8,1:2:0:0:
72,80,166241,6,0,B|72:164|72:164|112:168|144:204,1,160,10|8,3:2|1:2,0:0:0:0:
208,276,166669,2,0,B|246:290|285:276|285:276|324:261|363:276,1,160,2|0,3:2|3:0,0:0:0:0:
436,352,167098,1,10,1:2:0:0:
384,152,167384,6,0,L|364:52,1,80,10|0,3:2|0:0,0:0:0:0:
280,20,167669,1,8,1:2:0:0:
384,152,167812,1,0,3:0:0:0:
232,184,167955,2,0,L|216:105,1,80,10|0,3:2|1:0,0:0:0:0:
128,52,168241,1,8,1:2:0:0:
80,216,168384,1,0,1:0:0:0:
264,196,168526,6,0,B|316:164|356:216|344:272|280:272,1,160,14|8,3:2|1:2,0:0:0:0:
188,260,168955,2,0,P|168:192|232:104,1,160,2|0,3:2|3:0,0:0:0:0:
308,92,169384,1,10,1:2:0:0:
408,276,169669,6,0,P|352:336|260:348,1,160,10|8,3:2|1:2,0:0:0:0:
200,280,170098,1,0,3:0:0:0:
264,196,170241,2,0,P|268:152|248:100,1,80,10|0,0:2|3:0,0:0:0:0:
184,44,170526,1,8,1:2:0:0:
368,140,170812,6,0,B|432:160|488:152|488:152|481:128|464:100,1,160,10|8,3:2|1:2,0:0:0:0:
396,48,171241,2,0,P|314:59|272:140,1,160,2|0,3:2|3:0,0:0:0:0:
304,220,171669,1,10,1:2:0:0:
120,124,171955,6,0,L|140:46,1,80,10|0,3:2|0:0,0:0:0:0:
36,56,172241,2,0,L|15:133,1,80,8|0,1:2|3:0,0:0:0:0:
132,140,172526,2,0,L|152:62,1,80,10|0,0:2|3:0,0:0:0:0:
48,72,172812,2,0,L|27:149,1,80,8|0,1:2|0:0,0:0:0:0:
142,155,173098,6,0,L|183:1,1,160,14|8,3:2|1:2,0:0:0:0:
256,72,173526,2,0,B|304:96|344:84|344:84|432:60,1,160,2|0,3:2|3:0,0:0:0:0:
512,32,173955,1,10,1:2:0:0:
416,216,174241,6,0,B|349:197|349:197|309:185|261:209,1,160,10|8,3:2|1:2,0:0:0:0:
228,308,174669,1,0,3:0:0:0:
328,332,174812,2,0,L|412:353,1,80,10|0,0:2|3:0,0:0:0:0:
492,292,175098,1,8,1:2:0:0:
376,120,175384,6,0,P|288:112|208:144,1,160,10|12,3:2|1:2,0:0:0:0:
204,32,175812,2,0,P|116:40|36:8,1,160,2|0,0:2|3:0,0:0:0:0:
8,112,176241,2,0,L|20:200,1,80,14|0,1:2|0:0,0:0:0:0:
32,296,176526,5,14,1:2:0:0:
116,228,176669,1,0,1:0:0:0:
116,228,176741,1,0,1:0:0:0:
116,228,176812,1,0,1:0:0:0:
132,332,176955,1,0,1:0:0:0:
212,264,177098,1,10,1:2:0:0:
228,368,177241,6,0,L|272:356,1,40,0|0,1:0|1:0,0:0:0:0:
316,300,177384,2,0,L|360:312,1,40,0|0,1:0|1:0,0:0:0:0:
408,364,177526,2,0,L|452:352,1,40,0|0,1:0|1:0,0:0:0:0:
484,284,177669,6,0,B|464:240|464:240|480:128,2,160,14|10|10,3:2|1:2|3:2,0:0:0:0:
368,112,178526,1,8,1:2:0:0:
288,176,178669,2,0,B|220:172|220:172|200:156|200:156|128:152,1,160,2|2,3:2|0:0,0:0:0:0:
28,140,179098,1,8,1:2:0:0:
68,236,179241,1,2,0:0:0:0:
20,328,179384,2,0,P|80:280|180:300,1,160,10|10,3:2|1:2,0:0:0:0:
352,368,179955,5,10,3:2:0:0:
316,272,180098,1,2,3:2:0:0:
420,292,180241,1,10,1:2:0:0:
404,84,180526,1,10,3:2:0:0:
440,180,180669,1,0,1:0:0:0:
440,180,180741,1,0,1:0:0:0:
440,180,180812,1,8,1:2:0:0:
336,160,180955,1,0,3:0:0:0:
248,296,181098,6,0,P|190:280|152:219,1,120,2|0,1:2|0:0,0:0:0:0:
77,111,181384,2,0,P|91:169|57:232,1,120,2|0,1:2|0:0,0:0:0:0:
3,348,181669,2,0,P|45:307|117:304,1,120,2|0,1:2|0:0,0:0:0:0:
240,208,181955,6,0,B|281:203|324:229|324:229|367:203|410:208,1,180.000006866455,2|0,1:2|0:0,0:0:0:0:
468,340,182241,6,0,P|408:368|408:284,2,160,14|10|10,3:2|1:2|3:2,0:0:0:0:
468,132,183098,1,8,1:2:0:0:
388,68,183241,2,0,B|324:24|324:24|228:44,1,160,2|2,3:2|0:0,0:0:0:0:
192,132,183669,1,8,1:2:0:0:
112,68,183812,1,2,0:0:0:0:
61,160,183955,2,0,P|104:232|85:320,1,160,10|10,3:2|1:2,0:0:0:0:
228,144,184526,5,10,3:2:0:0:
264,48,184669,1,2,3:2:0:0:
164,68,184812,1,10,1:2:0:0:
248,260,185098,1,10,3:2:0:0:
212,356,185241,1,0,1:0:0:0:
316,340,185384,1,0,1:2:0:0:
144,276,185526,1,0,0:0:0:0:
312,200,185669,6,0,P|371:206|419:259,1,120,2|0,1:2|0:0,0:0:0:0:
248,260,185955,2,0,P|224:206|246:137,1,120,2|0,1:2|0:0,0:0:0:0:
332,288,186241,2,0,P|297:336|227:351,1,120,2|0,1:2|0:0,0:0:0:0:
312,200,186526,5,6,1:2:0:0:
256,192,186598,12,0,189313,3:0:0:0:
