osu file format v14

[General]
AudioFilename: audio.mp3
AudioLeadIn: 0
PreviewTime: 57946
Countdown: 0
SampleSet: Soft
StackLeniency: 0.7
Mode: 0
LetterboxInBreaks: 0
WidescreenStoryboard: 1

[Editor]
Bookmarks: 8518,22232,31386,40528,49671,58814,67957,77100,86243,95375,104518,118250,136527,145669,159384,168526,177669,186526,189312
DistanceSpacing: 1.2
BeatDivisor: 4
GridSize: 32
TimelineZoom: 2.799999

[Metadata]
Title:U&I
TitleUnicode:U&I
Artist:HO-KAGO TEA TIME
ArtistUnicode:放課後ティータイム
Creator:bossandy
Version:Ayynna's Insane
Source:映画けいおん!
Tags:KyoAni Tribute Kyoto Animation 京都アニメーション Kon Eiga Keion! HTT Houkago Tea Time 平沢唯 Hirasawa Yui 豊崎愛生 Toyosaki Aki 秋山澪 Akiyama Mio 日笠陽子 Hikasa Yoko 田井中律 Tainaka Ritsu 佐藤聡美 Sato Satomi 琴吹紬 Kotobuki Tsumugi 寿美菜子 Kotobuki Minako 中野梓 Nakano Azusa 竹達彩奈 Taketatsu Ayana Guitar Drum Bass Keyboard Andrea osuplayer111 Sonnyc Trynna Ayyri eiri- Japanese Anime
BeatmapID:2043261
BeatmapSetID:976322

[Difficulty]
HPDrainRate:5
CircleSize:4
OverallDifficulty:7
ApproachRate:9
SliderMultiplier:1.5
SliderTickRate:1

[Events]
//Background and Video events
Video,-20,"video.avi"
0,0,"BG.jpg",0,0
//Break Periods
2,156193,157642
//Storyboard Layer 0 (Background)
//Storyboard Layer 1 (Fail)
//Storyboard Layer 2 (Pass)
//Storyboard Layer 3 (Foreground)
//Storyboard Layer 4 (Overlay)
//Storyboard Sound Samples

[TimingPoints]
7957,272.727272727273,4,2,1,70,1,0
8518,285.714285714286,4,2,1,70,1,0
21303,-100,4,2,1,5,0,0
21375,-100,4,2,1,70,0,0
21589,-100,4,2,1,5,0,0
21660,-100,4,2,1,70,0,0
21875,-100,4,2,1,5,0,0
21946,-100,4,2,1,70,0,0
22160,-100,4,2,1,5,0,0
22232,-100,4,2,1,70,0,0
22518,289.855072463768,4,2,1,70,1,0
23387,285.714285714286,4,2,1,70,1,0
26815,292.682926829268,4,2,1,70,1,0
27254,-98.5221674876847,4,2,1,70,0,0
27400,284.765068818225,4,2,1,70,1,0
27969,284.765068818225,4,2,1,70,1,0
31386,285.714285714286,4,2,1,70,1,0
39600,-100,4,2,1,5,0,0
39671,-100,4,2,1,70,0,0
39886,-100,4,2,1,5,0,0
39957,-100,4,2,1,70,0,0
48743,-100,4,2,1,5,0,0
48814,-100,4,2,1,70,0,0
49028,-100,4,2,1,5,0,0
49100,-100,4,2,1,70,0,0
58814,-100,4,2,1,80,0,1
75314,-100,4,2,1,5,0,1
75386,-100,4,2,1,80,0,1
75886,-100,4,2,1,5,0,1
75957,-100,4,2,1,80,0,1
76457,-100,4,2,1,5,0,1
76528,-100,4,2,1,80,0,1
91957,283.018867924528,4,2,1,80,1,1
94221,288.669713735867,4,2,1,80,1,1
95375,285.714285714286,4,2,1,80,1,0
95375,-100,4,2,1,80,0,0
112803,-100,4,2,1,80,0,0
112946,-100,4,2,1,80,0,0
114803,292.682926829268,4,2,1,80,1,0
115095,-100,4,2,1,80,0,0
115681,-100,4,2,1,80,0,0
118250,285.714285714286,4,2,1,50,1,0
118250,-200,4,2,1,50,0,0
126250,-100,4,2,1,40,0,0
127392,-133.333333333333,4,2,1,40,0,0
133099,285.714285714286,4,2,1,40,1,0
133313,-100,4,2,1,5,0,0
133384,-100,4,2,1,50,0,0
133599,-100,4,2,1,5,0,0
133670,-100,4,2,1,60,0,0
133884,-100,4,2,1,5,0,0
133956,-100,4,2,1,70,0,0
134170,-100,4,2,1,5,0,0
134241,280.373831775701,4,2,1,80,1,0
134241,-100,4,2,1,80,0,0
135362,291.26213592233,4,2,1,80,1,0
136527,285.714285714286,4,2,1,80,1,1
136527,-100,4,2,1,80,0,1
152527,281.756280817093,4,2,1,80,1,1
154781,303.030303030303,4,2,1,80,1,0
158242,285.714285714286,4,2,1,80,1,0
159384,285.714285714286,4,2,1,70,1,1
181312,-100,4,2,1,5,0,1
181384,-100,4,2,1,70,0,1
181598,-100,4,2,1,5,0,1
181669,-100,4,2,1,70,0,1
181884,-100,4,2,1,5,0,1
181955,-100,4,2,1,70,0,1
182169,-100,4,2,1,5,0,1
182241,-100,4,2,1,70,0,1
185884,-100,4,2,1,5,0,1
185955,-100,4,2,1,70,0,1
186169,-100,4,2,1,5,0,1
186241,-100,4,2,1,70,0,1
186455,-100,4,2,1,5,0,1
186526,-100,4,2,1,70,0,0
186812,-100,4,2,1,60,0,0
187384,-100,4,2,1,50,0,0
187955,-100,4,2,1,40,0,0
188526,-100,4,2,1,30,0,0
189098,-100,4,2,1,20,0,0
189312,-100,4,2,1,70,0,0

[Colours]
Combo1 : 1,194,83
Combo2 : 181,78,2
Combo3 : 128,128,255
Combo4 : 254,222,137
Combo5 : 0,126,253

[HitObjects]
74,84,7820,6,0,L|71:121,1,37.5,0|0,3:0|3:0,0:0:0:0:
56,145,7957,2,0,P|93:139|129:148,1,75,0|0,1:0|1:0,0:0:0:0:
213,116,8229,2,0,P|218:152|209:188,1,75,0|0,1:0|1:0,0:0:0:0:
131,246,8518,6,0,P|203:232|272:260,1,150,14|0,3:2|1:0,0:0:0:0:
271,352,8946,2,0,B|353:359|328:307|409:305,1,150,2|0,3:2|3:0,0:0:0:0:
475,365,9375,1,10,1:2:0:0:
414,161,9660,6,0,B|392:212|392:212|411:321,1,150,10|8,3:2|1:2,0:0:0:0:
485,226,10089,1,0,3:0:0:0:
319,147,10232,2,0,P|261:167|230:170,1,75,10|0,0:2|3:0,0:0:0:0:
378,78,10518,2,0,P|328:51|273:44,1,112.5,8|0,1:2|0:0,0:0:0:0:
247,62,10803,6,0,B|194:55|194:55|155:67|155:67|96:58,1,150,10|8,3:2|1:2,0:0:0:0:
10,41,11232,2,0,B|35:12|35:12|67:64|33:123,1,150,2|0,3:2|3:0,0:0:0:0:
2,195,11660,1,10,1:2:0:0:
106,272,11946,6,0,P|152:243|79:201,1,150,10|8,3:2|1:2,0:0:0:0:
29,318,12375,1,0,3:0:0:0:
161,347,12518,2,0,P|200:358|236:380,1,75,10|0,0:2|3:0,0:0:0:0:
308,338,12803,1,8,1:2:0:0:
244,277,12946,1,0,0:0:0:0:
334,207,13089,6,0,B|395:204|395:204|425:245|467:251,1,150,14|8,3:2|1:2,0:0:0:0:
476,160,13518,2,0,B|475:55|475:55|439:88,1,150,2|0,3:2|3:0,0:0:0:0:
360,121,13946,1,10,1:2:0:0:
191,47,14232,6,0,B|223:27|249:-3|249:-3|271:33|311:53,1,150,10|8,3:2|1:2,0:0:0:0:
247,117,14660,1,0,3:0:0:0:
247,117,14803,2,0,P|255:186|256:282,1,150,10|8,0:2|1:2,0:0:0:0:
125,351,15375,6,0,P|83:317|143:336,1,150,10|8,3:2|1:2,0:0:0:0:
15,266,15803,2,0,P|57:221|148:215,1,150,2|0,3:2|3:0,0:0:0:0:
212,268,16232,1,10,1:2:0:0:
164,58,16518,5,10,3:2:0:0:
222,127,16660,1,0,3:0:0:0:
85,107,16803,1,4,1:2:0:0:
241,142,16946,2,0,B|296:142|283:109|344:104,1,112.5,0|0,1:0|0:0,0:0:0:0:
366,123,17232,1,0,1:0:0:0:
447,73,17375,1,0,1:0:0:0:
365,24,17518,1,0,1:0:0:0:
384,142,17660,6,0,L|395:238,1,75,14|0,3:2|0:0,0:0:0:0:
441,291,17946,1,2,1:2:0:0:
269,259,18232,1,2,3:2:0:0:
144,356,18518,1,0,1:2:0:0:
130,262,18660,6,0,L|119:187,1,75,2|0,3:2|0:0,0:0:0:0:
34,244,18946,2,0,L|45:319,1,75,2|0,0:0|1:2,0:0:0:0:
22,155,19232,1,2,0:0:0:0:
93,87,19375,2,0,P|157:91|198:136,1,112.5,2|0,3:2|0:0,0:0:0:0:
203,144,19660,2,0,P|210:83|211:22,1,112.5,2|0,1:2|0:0,0:0:0:0:
206,12,19946,5,2,3:2:0:0:
302,68,20089,1,2,3:2:0:0:
392,26,20232,1,2,1:2:0:0:
369,203,20518,1,2,3:2:0:0:
431,270,20660,1,0,1:0:0:0:
347,292,20803,2,0,P|311:275|292:239,1,75,0|0,1:2|0:0,0:0:0:0:
232,169,21089,6,0,P|239:218|221:326,1,150,2|2,1:2|1:2,0:0:0:0:
143,151,21660,2,0,P|182:89|254:82,1,150,2|2,1:2|1:2,0:0:0:0:
495,135,22232,6,0,B|426:135|457:46|342:70,1,150,4|0,3:2|1:0,0:0:0:0:
310,137,22662,2,0,P|348:170|316:120,1,150,0|0,0:0|3:0,0:0:0:0:
216,143,23097,2,0,L|88:128,1,112.5,0|0,1:0|0:0,0:0:0:0:
108,146,23387,6,0,P|130:98|134:61,1,75,0|0,3:0|0:0,0:0:0:0:
108,238,23672,2,0,P|130:286|134:323,1,75,0|0,1:0|0:0,0:0:0:0:
227,365,23958,2,0,P|276:356|300:256,1,150,0|0,0:0|1:0,0:0:0:0:
259,174,24387,1,0,0:0:0:0:
259,174,24529,6,0,B|300:193|300:193|437:167,1,150,0|0,3:0|1:0,0:0:0:0:
509,154,24958,2,0,L|486:0,1,150,0|0,0:0|3:0,0:0:0:0:
471,88,25387,1,0,1:0:0:0:
511,172,25529,1,0,0:0:0:0:
426,275,25672,6,0,P|365:287|266:296,1,150,0|0,3:0|1:0,0:0:0:0:
167,265,26101,2,0,P|177:220|293:199,1,150,0|0,3:0|3:0,0:0:0:0:
386,240,26529,1,8,1:2:0:0:
396,206,26815,6,0,B|412:118|412:118|320:136,1,150,0|0,3:0|1:0,0:0:0:0:
263,156,27254,2,0,P|192:141|164:75,1,150,0|0,0:0|3:0,0:0:0:0:
194,2,27684,1,0,1:0:0:0:
164,75,27827,1,0,0:0:0:0:
51,39,27969,6,0,L|-35:24,1,75,0|0,3:0|0:0,0:0:0:0:
78,127,28253,2,0,L|164:112,1,75,0|0,1:0|3:0,0:0:0:0:
38,247,28538,2,0,P|85:295|185:297,1,150,0|0,0:0|1:0,0:0:0:0:
272,276,28965,1,0,0:0:0:0:
226,149,29108,6,0,P|311:175|387:182,1,150,0|0,3:2|1:2,0:0:0:0:
471,156,29535,1,0,0:0:0:0:
387,70,29677,2,0,P|411:31|446:4,1,75,0|0,0:0|3:0,0:0:0:0:
378,198,29962,2,0,P|402:237|437:264,1,75,0|0,1:0|0:0,0:0:0:0:
508,333,30247,6,0,L|353:310,1,150,0|0,3:0|1:0,0:0:0:0:
178,360,30674,2,0,L|280:345,1,75
81,245,30959,1,0,3:0:0:0:
81,245,31101,2,0,L|183:260,1,75,8|0,1:2|0:0,0:0:0:0:
254,191,31386,6,0,P|281:124|241:64,1,150,4|0,3:2|1:0,0:0:0:0:
97,68,31814,2,0,B|180:75|149:32|239:35,1,150,0|0,0:0|3:0,0:0:0:0:
313,115,32243,2,0,L|396:109,1,75,0|0,1:0|0:0,0:0:0:0:
503,42,32528,6,0,B|463:35|463:35|432:50,1,75,0|0,3:0|0:0,0:0:0:0:
441,162,32814,2,0,B|480:168|480:168|511:153,1,75,0|0,1:0|0:0,0:0:0:0:
481,259,33100,2,0,L|408:240,1,75,0|0,0:0|3:0,0:0:0:0:
284,265,33386,1,0,1:0:0:0:
328,189,33528,1,0,0:0:0:0:
340,343,33671,6,0,P|268:359|208:317,1,150,0|0,3:0|1:0,0:0:0:0:
126,362,34100,2,0,L|111:189,1,150,0|0,0:0|3:0,0:0:0:0:
41,143,34528,1,0,1:0:0:0:
123,188,34671,1,0,0:0:0:0:
210,146,34814,6,0,B|219:94|219:94|201:53|201:53|207:0,1,150,0|0,3:0|1:0,0:0:0:0:
296,37,35243,2,0,P|343:49|342:145,1,150,0|0,0:0|3:0,0:0:0:0:
282,201,35671,1,8,1:2:0:0:
380,231,35814,1,0,0:0:0:0:
316,324,35957,6,0,P|389:311|464:311,1,150,4|0,3:2|1:0,0:0:0:0:
471,220,36386,1,0,0:0:0:0:
471,220,36528,2,0,B|490:162|490:162|459:78,1,150,0|0,0:0|1:0,0:0:0:0:
381,35,36957,1,0,0:0:0:0:
327,105,37100,6,0,P|290:85|351:42,1,150,0|0,3:0|1:0,0:0:0:0:
321,191,37528,2,0,B|236:194|267:136|184:142,1,150,0|0,0:0|3:0,0:0:0:0:
191,231,37957,2,0,L|195:306,1,75,0|0,1:0|0:0,0:0:0:0:
185,116,38243,5,0,3:0:0:0:
185,116,38386,1,2,0:0:0:0:
96,188,38528,2,0,B|61:124|61:124|88:49,2,150,2|2|0,1:2|3:2|1:0,0:0:0:0:
50,268,39243,2,0,L|82:338,1,75,2|0,0:0|3:0,0:0:0:0:
177,352,39528,5,0,3:0:0:0:
177,352,39671,2,0,P|207:318|326:327,1,150,6|0,1:2|3:0,0:0:0:0:
387,359,40100,1,0,1:0:0:0:
324,293,40243,1,0,1:0:0:0:
379,225,40386,1,0,1:0:0:0:
390,382,40528,6,0,P|452:367|477:279,1,150,4|0,3:2|1:0,0:0:0:0:
306,312,40957,2,0,L|213:296,2,75,0|0|0,3:0|0:0|3:0,0:0:0:0:
394,248,41386,1,0,1:0:0:0:
407,278,41671,6,0,L|418:157,1,112.5,0|0,3:0|0:0,0:0:0:0:
442,125,41957,2,0,L|431:4,1,112.5,0|0,1:0|0:0,0:0:0:0:
431,12,42243,1,0,0:0:0:0:
343,61,42386,1,0,3:0:0:0:
205,23,42528,2,0,L|115:35,1,75,0|0,1:0|0:0,0:0:0:0:
67,199,42814,6,0,P|129:179|133:132,1,112.5,0|0,3:0|0:0,0:0:0:0:
126,125,43100,2,0,P|109:165|114:206,1,75,0|0,1:0|3:0,0:0:0:0:
262,227,43386,2,0,P|279:187|274:146,1,75,0|0,0:0|3:0,0:0:0:0:
125,215,43671,1,0,1:0:0:0:
138,243,43957,6,0,L|7:232,1,112.5,0|0,3:0|0:0,0:0:0:0:
33,246,44243,1,0,1:0:0:0:
220,179,44386,2,0,L|389:164,1,150,0|0,3:0|3:0,0:0:0:0:
303,269,44814,1,0,1:0:0:0:
325,249,45100,6,0,P|388:258|425:275,1,75,0|0,3:0|0:0,0:0:0:0:
485,168,45386,2,0,P|448:178|411:180,1,75,0|0,1:0|3:0,0:0:0:0:
499,306,45671,1,0,0:0:0:0:
499,306,45814,1,0,3:0:0:0:
443,151,45957,1,0,1:0:0:0:
459,176,46243,6,0,B|480:138|480:138|465:38,1,112.5,0|0,3:0|0:0,0:0:0:0:
456,20,46528,1,0,1:0:0:0:
327,79,46671,2,0,L|170:66,1,150,0|0,3:0|3:0,0:0:0:0:
360,83,47100,1,0,1:0:0:0:
387,62,47386,6,0,P|403:116|368:175,1,112.5,0|0,3:0|0:0,0:0:0:0:
329,188,47671,2,0,P|359:156|413:171,1,75,0|0,1:0|3:0,0:0:0:0:
387,318,47957,2,0,P|350:313|328:285,1,75,0|0,0:0|3:0,0:0:0:0:
496,303,48243,1,0,1:0:0:0:
478,274,48528,6,0,L|496:174,1,75,0|0,3:0|3:0,0:0:0:0:
297,278,48814,1,4,1:2:0:0:
256,32,49100,1,4,3:2:0:0:
274,139,49243,1,0,3:0:0:0:
82,108,49386,2,0,B|141:105|123:150|187:148,1,112.5,4|0,1:2|0:0,0:0:0:0:
198,178,49671,6,0,P|161:209|136:324,1,150,4|0,3:2|1:0,0:0:0:0:
226,322,50100,2,0,P|290:312|265:252,1,150,0|0,3:0|3:0,0:0:0:0:
330,325,50528,6,0,L|406:317,1,75,0|0,1:0|0:0,0:0:0:0:
427,206,50814,2,0,L|395:275,1,75,0|0,3:0|0:0,0:0:0:0:
481,349,51100,2,0,L|436:287,1,75,0|0,1:0|0:0,0:0:0:0:
507,176,51386,2,0,P|462:119|390:126,1,150,0|0,0:0|1:0,0:0:0:0:
304,182,51814,1,0,0:0:0:0:
304,182,51957,6,0,B|216:196|243:139|161:152,1,150,0|0,3:0|1:0,0:0:0:0:
178,232,52386,1,0,0:0:0:0:
79,190,52528,2,0,P|69:150|146:66,1,150,0|0,0:0|1:0,0:0:0:0:
285,59,53100,6,0,P|232:57|137:34,1,150,0|0,3:0|1:0,0:0:0:0:
22,27,53528,2,0,B|50:-5|50:-5|50:104,1,150,0|0,0:0|3:0,0:0:0:0:
79,190,53957,1,4,1:2:0:0:
14,338,54243,6,0,P|48:324|96:313,1,75,4|0,3:2|0:0,0:0:0:0:
157,257,54528,2,0,P|193:261|240:276,1,75,0|0,1:0|0:0,0:0:0:0:
312,332,54814,2,0,P|270:278|323:235,1,150,0|0,0:0|1:0,0:0:0:0:
455,166,55386,6,0,B|403:158|403:158|370:131|370:131|315:122,1,150,4|0,3:2|1:0,0:0:0:0:
220,61,55814,1,0,0:0:0:0:
310,28,55957,2,0,L|302:102,1,75,0|0,0:0|3:0,0:0:0:0:
203,166,56243,2,0,P|150:149|120:102,1,112.5,0|0,1:0|0:0,0:0:0:0:
96,80,56528,6,0,L|95:229,1,150,4|0,3:2|1:0,0:0:0:0:
37,310,56957,2,0,B|75:320|102:345|102:345|126:319|167:308,1,150,0|0,0:0|3:0,0:0:0:0:
257,353,57386,1,0,1:0:0:0:
207,211,57671,5,4,3:2:0:0:
316,256,57814,2,0,L|365:250,1,37.5,0|0,1:0|1:0,0:0:0:0:
378,263,57957,1,0,1:0:0:0:
454,308,58100,1,0,1:0:0:0:
444,203,58243,2,0,P|415:178|379:170,1,75,0|0,1:0|1:0,0:0:0:0:
275,123,58528,2,0,P|311:114|339:90,1,75,0|0,1:0|1:0,0:0:0:0:
338,283,58814,6,0,L|318:122,1,150,4|8,3:2|1:2,0:0:0:0:
454,227,59243,1,0,3:0:0:0:
454,227,59386,2,0,L|467:127,1,75,8|0,0:2|3:0,0:0:0:0:
305,247,59671,2,0,L|292:147,1,75,8|0,1:2|0:0,0:0:0:0:
279,43,59957,6,0,P|344:48|359:124,1,150,8|8,3:2|1:2,0:0:0:0:
206,97,60386,1,0,3:0:0:0:
206,97,60528,2,0,L|125:114,1,75,8|0,0:2|3:0,0:0:0:0:
127,252,60814,2,0,L|208:269,1,75,8|0,1:2|0:0,0:0:0:0:
24,170,61100,6,0,B|12:202|12:202|42:336,1,150,8|8,3:2|1:2,0:0:0:0:
164,240,61528,2,0,P|137:215|101:209,1,75,0|8,3:0|0:2,0:0:0:0:
101,209,61814,1,0,3:0:0:0:
274,202,61957,2,0,L|264:119,1,75,8|0,1:2|0:0,0:0:0:0:
409,91,62243,6,0,L|391:248,1,150,8|8,3:2|1:2,0:0:0:0:
425,353,62671,1,0,3:0:0:0:
237,309,62814,2,0,L|146:326,1,75,8|0,0:2|3:0,0:0:0:0:
200,188,63100,2,0,L|291:205,1,75,8|0,1:2|0:0,0:0:0:0:
210,347,63386,6,0,L|51:376,1,150,12|8,3:2|1:2,0:0:0:0:
13,261,63814,1,0,3:0:0:0:
13,261,63957,2,0,P|71:230|92:205,1,75,8|0,0:2|3:0,0:0:0:0:
115,133,64243,2,0,P|105:67|89:39,1,75,8|0,1:2|0:0,0:0:0:0:
183,218,64528,6,0,L|344:189,1,150,8|8,3:2|1:2,0:0:0:0:
299,300,64957,1,0,3:0:0:0:
255,171,65100,2,0,L|266:80,1,75,8|0,0:2|3:0,0:0:0:0:
440,117,65386,2,0,L|429:208,1,75,8|0,1:2|0:0,0:0:0:0:
362,24,65671,6,0,P|426:21|447:98,1,150,8|8,3:2|1:2,0:0:0:0:
272,73,66100,1,0,3:0:0:0:
272,73,66243,2,0,L|283:164,1,75,8|0,0:2|3:0,0:0:0:0:
389,267,66528,2,0,L|400:176,1,75,8|0,1:2|0:0,0:0:0:0:
258,330,66814,6,0,L|93:345,1,150,8|8,3:2|1:2,0:0:0:0:
38,240,67243,1,0,3:0:0:0:
38,240,67386,2,0,L|144:249,1,75,8|0,0:2|3:0,0:0:0:0:
237,161,67671,2,0,L|343:152,1,75,8|0,1:2|0:0,0:0:0:0:
342,57,67957,6,0,L|192:71,1,150,12|8,3:2|1:2,0:0:0:0:
67,116,68386,1,0,3:0:0:0:
67,116,68528,2,0,B|50:82|50:82|60:41,1,75,8|0,0:2|3:0,0:0:0:0:
147,219,68814,2,0,B|151:256|151:256|127:291,1,75,8|0,1:2|0:0,0:0:0:0:
41,321,69100,6,0,P|114:322|165:374,1,150,8|8,3:2|1:2,0:0:0:0:
237,321,69528,1,0,3:0:0:0:
237,321,69671,2,0,P|262:346|287:378,1,75,8|0,0:2|3:0,0:0:0:0:
237,229,69957,2,0,P|259:199|286:172,1,75,8|0,1:2|0:0,0:0:0:0:
405,231,70243,6,0,P|346:266|377:326,1,150,8|8,3:2|1:2,0:0:0:0:
471,305,70671,1,0,3:0:0:0:
485,204,70814,2,0,P|462:160|421:140,1,75,8|0,0:2|3:0,0:0:0:0:
292,91,71100,2,0,P|353:91|384:81,1,75,8|0,1:2|0:0,0:0:0:0:
508,26,71386,6,0,P|463:57|442:108,1,112.5,8|0,3:2|0:0,0:0:0:0:
441,146,71671,1,8,1:2:0:0:
292,91,71814,1,0,3:0:0:0:
325,256,71957,2,0,L|345:183,1,75,8|0,0:2|3:0,0:0:0:0:
197,123,72243,2,0,P|142:132|105:204,1,112.5,8|0,1:2|0:0,0:0:0:0:
86,191,72528,6,0,P|85:116|78:41,1,150,12|8,3:2|1:2,0:0:0:0:
0,122,72957,1,0,3:0:0:0:
66,209,73100,2,0,P|113:265|185:267,1,150,8|8,0:2|1:2,0:0:0:0:
275,225,73528,1,0,0:0:0:0:
334,345,73671,6,0,P|347:298|367:277,1,75,8|0,3:2|0:0,0:0:0:0:
428,206,73957,2,0,P|451:235|459:272,1,75,8|0,1:2|3:0,0:0:0:0:
492,366,74243,2,0,L|419:350,1,75,8|0,0:2|3:0,0:0:0:0:
356,245,74528,2,0,L|283:261,1,75,8|0,1:2|0:0,0:0:0:0:
185,267,74814,6,0,B|170:205|170:205|195:122,1,150,8|12,3:2|1:2,0:0:0:0:
122,54,75243,2,0,L|71:210,1,150,0|0,0:0|3:0,0:0:0:0:
95,286,75671,1,12,1:2:0:0:
3,238,75814,1,0,0:0:0:0:
81,311,75957,6,0,L|155:306,1,75,8|0,3:2|3:0,0:0:0:0:
248,352,76243,2,0,P|272:304|253:253,1,112.5,12|0,1:2|0:0,0:0:0:0:
233,232,76528,1,8,3:2:0:0:
174,170,76671,1,0,1:0:0:0:
184,83,76814,1,8,1:2:0:0:
263,48,76957,1,0,1:0:0:0:
65,0,77100,6,0,L|80:157,1,150,12|8,3:2|1:2,0:0:0:0:
95,76,77528,1,0,3:0:0:0:
129,243,77671,2,0,P|162:212|177:169,1,75,8|0,0:2|3:0,0:0:0:0:
104,348,77957,2,0,P|87:314|59:290,1,75,8|0,1:2|0:0,0:0:0:0:
249,295,78243,6,0,P|203:352|130:358,1,150,8|8,3:2|1:2,0:0:0:0:
138,208,78671,1,0,3:0:0:0:
138,208,78814,2,0,L|121:117,1,75,8|0,0:2|3:0,0:0:0:0:
254,192,79100,2,0,L|237:283,1,75,8|0,1:2|0:0,0:0:0:0:
383,147,79386,6,0,L|353:-9,1,150,8|8,3:2|1:2,0:0:0:0:
468,120,79814,2,0,L|451:211,1,75,0|8,3:0|0:2,0:0:0:0:
283,200,80100,1,0,3:0:0:0:
283,200,80243,2,0,L|296:126,1,75,8|0,1:2|0:0,0:0:0:0:
343,335,80528,6,0,B|298:358|298:358|173:341,1,150,8|8,3:2|1:2,0:0:0:0:
274,232,80957,1,0,3:0:0:0:
274,232,81100,2,0,P|316:216|367:205,1,75,8|0,0:2|3:0,0:0:0:0:
146,120,81386,2,0,P|188:136|239:147,1,75,8|0,1:2|0:0,0:0:0:0:
75,324,81671,6,0,P|117:308|229:301,1,150,12|8,3:2|1:2,0:0:0:0:
154,338,82100,1,0,3:0:0:0:
66,231,82243,2,0,L|78:136,1,75,8|0,0:2|3:0,0:0:0:0:
238,123,82528,2,0,L|226:28,1,75,8|0,1:2|0:0,0:0:0:0:
47,112,82814,6,0,L|28:264,1,150,8|8,3:2|1:2,0:0:0:0:
70,193,83243,1,0,3:0:0:0:
53,70,83386,2,0,P|102:41|134:32,1,75,8|0,0:2|3:0,0:0:0:0:
238,123,83671,2,0,P|287:152|319:161,1,75,8|0,1:2|0:0,0:0:0:0:
497,123,83957,6,0,P|463:59|374:71,1,150,8|8,3:2|1:2,0:0:0:0:
424,218,84386,1,0,3:0:0:0:
429,202,84671,1,0,3:0:0:0:
298,187,84814,2,0,L|306:268,1,75,8|0,1:2|0:0,0:0:0:0:
512,273,85100,6,0,L|497:117,1,150,8|8,3:2|1:2,0:0:0:0:
429,202,85528,1,0,3:0:0:0:
414,32,85671,2,0,L|493:49,1,75,8|0,0:2|3:0,0:0:0:0:
322,96,85957,2,0,L|243:113,1,75,8|0,1:2|0:0,0:0:0:0:
144,139,86243,6,0,P|146:65|199:15,1,150,12|8,3:2|1:2,0:0:0:0:
108,58,86671,1,0,3:0:0:0:
108,58,86814,2,0,L|5:44,1,75,8|0,0:2|3:0,0:0:0:0:
54,177,87100,2,0,B|68:212|68:212|66:248,1,75,8|0,1:2|0:0,0:0:0:0:
37,334,87386,6,0,P|86:280|159:274,1,150,8|8,3:2|1:2,0:0:0:0:
242,329,87814,2,0,B|300:324|300:324|331:308|331:308|390:300,1,150,0|0,3:0|3:0,0:0:0:0:
468,349,88243,1,8,1:2:0:0:
391,212,88386,1,0,0:0:0:0:
500,189,88528,6,0,L|483:262,1,75,8|0,3:2|0:0,0:0:0:0:
426,107,88814,2,0,L|497:84,1,75,8|0,1:2|3:0,0:0:0:0:
391,212,89100,2,0,L|335:161,1,75,8|0,0:2|3:0,0:0:0:0:
235,81,89386,2,0,L|219:198,1,112.5,8|0,1:2|0:0,0:0:0:0:
216,218,89671,6,0,P|174:230|153:273,1,75,8|0,3:2|0:0,0:0:0:0:
232,306,89957,1,8,1:2:0:0:
135,348,90100,2,0,P|74:307|64:235,1,150,0|0,3:0|3:0,0:0:0:0:
105,155,90528,2,0,L|98:70,1,75,8|0,1:2|0:0,0:0:0:0:
172,18,90814,6,0,P|232:60|306:63,1,150,12|8,3:2|1:2,0:0:0:0:
401,31,91243,1,0,0:0:0:0:
449,126,91386,2,0,B|362:112|394:169|308:159,1,150,8|8,0:2|1:2,0:0:0:0:
435,218,91814,1,0,0:0:0:0:
406,308,91957,6,0,P|372:294|349:265,1,75,8|0,3:2|0:0,0:0:0:0:
254,345,92240,1,8,1:2:0:0:
256,248,92381,1,0,0:0:0:0:
105,308,92523,2,0,P|139:294|162:265,1,75,8|0,0:2|3:0,0:0:0:0:
143,159,92806,2,0,P|113:136|76:130,1,75,8|0,1:2|0:0,0:0:0:0:
237,201,93089,6,0,P|234:144|234:88,1,112.5,8|0,3:2|0:0,0:0:0:0:
240,64,93372,2,0,P|319:67|335:142,1,150,12|8,1:2|3:2,0:0:0:0:
367,212,93796,1,0,1:0:0:0:
428,142,93938,1,8,1:2:0:0:
413,54,94079,5,0,1:0:0:0:
413,54,94150,1,0,1:0:0:0:
413,54,94221,1,2,1:2:0:0:
512,115,94365,1,0,1:0:0:0:
512,115,94436,1,0,0:0:0:0:
512,115,94509,2,0,L|505:204,1,75,2|0,1:2|1:0,0:0:0:0:
447,252,94798,2,0,L|454:341,1,75,2|0,1:2|1:0,0:0:0:0:
367,369,95087,1,2,1:2:0:0:
284,305,95231,1,0,1:0:0:0:
142,349,95375,6,0,P|197:305|187:251,1,112.5,14|0,3:2|0:0,0:0:0:0:
165,225,95660,2,0,L|58:215,1,75,10|0,1:2|0:0,0:0:0:0:
108,82,95946,2,0,L|215:92,1,75,10|0,0:2|0:0,0:0:0:0:
337,103,96232,5,10,1:2:0:0:
337,103,96375,2,0,L|324:8,2,75,2|8|0,0:2|3:2|0:0,0:0:0:0:
355,209,96803,2,0,P|415:183|437:181,1,75,10|0,1:2|0:0,0:0:0:0:
425,336,97089,2,0,P|388:327|356:308,1,75,10|0,0:2|3:0,0:0:0:0:
351,193,97375,2,0,P|411:167|433:165,1,75,10|0,1:2|0:0,0:0:0:0:
259,253,97660,6,0,L|271:161,1,75,10|0,3:2|0:0,0:0:0:0:
153,263,97946,2,0,L|165:355,1,75,10|0,1:2|0:0,0:0:0:0:
134,158,98232,2,0,L|42:170,1,75,10|0,0:2|3:0,0:0:0:0:
62,38,98517,5,10,1:2:0:0:
62,38,98660,2,0,L|154:50,2,75,2|8|0,0:0|3:2|0:0,0:0:0:0:
90,146,99089,2,0,L|164:136,1,75,10|0,1:2|0:0,0:0:0:0:
268,83,99375,2,0,L|342:92,1,75,10|0,0:2|3:0,0:0:0:0:
329,243,99660,2,0,L|254:233,1,75,10|0,1:2|0:0,0:0:0:0:
450,176,99946,6,0,P|474:228|447:301,1,112.5,14|0,3:2|0:0,0:0:0:0:
434,274,100232,2,0,P|442:232|425:199,1,75,10|0,1:2|0:0,0:0:0:0:
291,181,100517,2,0,P|267:233|294:306,1,112.5,10|0,0:2|0:0,0:0:0:0:
307,279,100803,2,0,P|299:237|316:204,1,75,10|0,1:2|0:0,0:0:0:0:
456,170,101089,6,0,L|477:29,1,112.5,10|0,3:2|0:0,0:0:0:0:
492,87,101375,2,0,L|476:193,1,75,10|0,1:2|0:0,0:0:0:0:
304,141,101660,2,0,L|325:0,1,112.5,10|0,0:2|0:0,0:0:0:0:
340,58,101946,2,0,L|324:164,1,75,10|0,1:2|0:0,0:0:0:0:
303,300,102232,6,0,P|348:287|369:215,1,112.5,10|0,3:2|0:0,0:0:0:0:
364,200,102517,2,0,P|353:245|366:275,1,75,10|0,1:2|0:0,0:0:0:0:
209,300,102803,2,0,P|164:287|143:215,1,112.5,10|0,0:2|0:0,0:0:0:0:
148,200,103089,2,0,P|159:245|146:275,1,75,10|0,1:2|0:0,0:0:0:0:
256,128,103375,6,0,L|256:0,1,112.5,10|0,3:2|0:0,0:0:0:0:
256,160,103660,2,0,L|256:256,1,75,10|0,1:2|0:0,0:0:0:0:
256,384,103946,1,10,3:2:0:0:
352,320,104089,1,0,1:0:0:0:
160,320,104232,1,10,1:2:0:0:
160,192,104375,1,0,1:2:0:0:
352,192,104517,5,14,3:2:0:0:
352,192,104660,1,0,0:0:0:0:
422,136,104803,2,0,P|429:95|398:37,1,75,10|0,1:2|0:0,0:0:0:0:
313,14,105089,2,0,B|250:13|272:47|207:44,1,112.5,10|0,0:2|0:0,0:0:0:0:
187,62,105375,1,10,1:2:0:0:
99,127,105517,6,0,B|88:82|60:62|60:62|90:34|92:0,1,150,2|0,0:0|0:0,0:0:0:0:
115,148,105946,2,0,L|104:245,1,75,10|0,1:2|0:0,0:0:0:0:
12,168,106232,2,0,L|1:265,1,75,10|0,0:2|3:0,0:0:0:0:
82,310,106517,2,0,P|138:309|182:276,1,112.5,10|0,1:2|0:0,0:0:0:0:
193,254,106803,5,10,3:2:0:0:
254,335,106946,1,0,0:0:0:0:
338,271,107089,2,0,B|381:281|381:281|397:297|397:297|441:308,1,112.5,10|0,1:2|0:0,0:0:0:0:
455,331,107375,2,0,P|464:284|481:242,1,75,10|0,0:2|3:0,0:0:0:0:
440,175,107660,1,10,1:2:0:0:
485,51,107803,6,0,P|419:82|347:66,1,150,2|0,0:0|0:0,0:0:0:0:
253,25,108232,2,0,B|241:61|241:61|250:96,1,75,10|0,1:2|0:0,0:0:0:0:
156,131,108517,2,0,B|136:98|136:98|102:82,1,75,10|0,0:2|3:0,0:0:0:0:
226,187,108803,2,0,L|247:266,1,75,10|0,1:2|0:0,0:0:0:0:
359,358,109089,6,0,B|346:331|313:324|313:324|286:354|229:351,1,150,14|10,3:2|1:2,0:0:0:0:
156,297,109517,1,0,0:0:0:0:
78,344,109660,2,0,P|64:309|67:272,1,75,10|0,0:2|3:0,0:0:0:0:
133,208,109946,2,0,P|136:170|122:136,1,75,10|0,1:2|0:0,0:0:0:0:
37,71,110232,6,0,B|73:97|73:97|178:74,1,150,10|10,3:2|1:2,0:0:0:0:
265,41,110660,1,0,0:0:0:0:
246,136,110803,2,0,L|232:218,1,75,10|0,0:2|3:0,0:0:0:0:
339,112,111089,2,0,L|403:165,1,75,10|0,1:2|0:0,0:0:0:0:
486,166,111375,6,0,P|438:192|415:243,1,112.5,10|0,3:2|0:0,0:0:0:0:
429,273,111660,2,0,L|429:358,1,75,10|0,1:2|0:0,0:0:0:0:
316,304,111946,2,0,B|256:303|256:303|219:322|219:322|167:322,1,150,10|10,0:2|1:2,0:0:0:0:
110,252,112375,1,0,0:0:0:0:
24,324,112517,6,0,P|-13:262|11:194,1,150,10|8,3:2|1:2,0:0:0:0:
50,113,112946,2,0,P|84:132|97:173,1,75,2|8,0:0|3:2,0:0:0:0:
110,252,113232,1,0,3:0:0:0:
188,193,113375,2,0,L|266:179,1,75,14|0,1:2|0:0,0:0:0:0:
338,252,113660,6,0,B|308:215|308:215|299:112,1,150,14|8,3:2|1:2,0:0:0:0:
297,25,114089,1,0,0:0:0:0:
387,82,114232,2,0,L|393:156,1,75,8|0,3:2|3:0,0:0:0:0:
500,208,114517,6,0,P|447:227|437:299,1,112.5,8|0,1:2|0:0,0:0:0:0:
445,304,114803,2,0,L|337:301,1,100,2|0,3:2|1:0,0:0:0:0:
285,346,115095,5,0,1:0:0:0:
250,337,115193,1,0,1:0:0:0:
227,310,115290,1,0,1:0:0:0:
222,275,115388,2,0,L|231:217,2,50,0|0|0,1:0|3:0|3:0,0:0:0:0:
136,243,115681,2,0,L|127:185,2,50,0|0|0,3:0|3:0|3:0,0:0:0:0:
76,299,115973,5,14,3:2:0:0:
235,237,118250,5,2,0:0:0:0:
248,217,119392,1,2,0:0:0:0:
261,197,120535,2,0,P|234:158|130:148,2,150,2|0|2,0:0|0:0|0:0,0:0:0:0:
261,197,122250,1,0,0:0:0:0:
237,93,122821,5,2,0:0:0:0:
276,105,123964,1,2,0:0:0:0:
320,84,125107,2,0,L|315:168,2,75,2|0|0,0:0|0:0|0:0,0:0:0:0:
320,84,125964,1,2,0:0:0:0:
448,192,126250,5,2,0:0:0:0:
256,288,126821,1,0,0:0:0:0:
256,192,127107,1,0,0:0:0:0:
256,224,127250,1,0,0:0:0:0:
256,351,127392,6,0,L|386:333,2,112.500004291535,2|0|0,0:0|0:0|0:0,0:0:0:0:
96,320,128250,1,2,0:0:0:0:
96,320,128821,2,0,L|84:199,1,112.500004291535,0|0,0:0|0:0,0:0:0:0:
84,208,129392,1,0,0:0:0:0:
256,224,129678,6,0,L|256:96,2,112.500004291535,2|0|0,0:0|0:0|0:0,0:0:0:0:
256,384,130535,1,0,0:0:0:0:
256,352,130821,1,2,0:0:0:0:
256,256,131107,1,0,0:0:0:0:
256,128,131392,1,0,0:0:0:0:
256,192,131678,1,0,0:0:0:0:
448,192,131964,6,0,L|448:320,1,112.500004291535,2|0,0:0|0:0,0:0:0:0:
288,352,132535,2,0,L|288:224,1,112.500004291535,0|0,0:0|0:0,0:0:0:0:
480,160,133099,6,0,L|480:256,1,75,0|0,1:0|0:0,0:0:0:0:
352,128,133384,2,0,L|352:32,1,75,4|0,3:2|0:0,0:0:0:0:
224,224,133670,2,0,L|224:320,1,75,4|0,3:2|0:0,0:0:0:0:
96,96,133956,2,0,L|96:0,1,75,4|0,3:2|0:0,0:0:0:0:
96,192,134241,6,0,P|172:167|250:171,1,150,4|0,3:2|1:0,0:0:0:0:
241,169,134661,1,0,1:0:0:0:
177,213,134801,1,0,1:0:0:0:
96,192,134941,1,0,1:0:0:0:
64,365,135082,2,0,L|161:348,1,75,0|0,1:0|1:0,0:0:0:0:
325,372,135362,6,0,P|373:346|372:270,1,112.5,0|0,1:0|1:0,0:0:0:0:
366,253,135653,2,0,P|359:301|373:333,1,75,0|0,1:0|1:0,0:0:0:0:
469,278,135944,1,0,1:0:0:0:
382,225,136090,1,0,1:0:0:0:
511,181,136235,1,0,1:0:0:0:
511,181,136381,1,0,1:0:0:0:
395,132,136527,6,0,B|330:128|347:160|288:161,1,112.5,12|0,2:2|0:0,0:0:0:0:
264,182,136812,2,0,P|243:146|254:103,1,75,8|0,1:2|3:0,0:0:0:0:
176,35,137098,2,0,P|133:48|80:57,1,75,8|0,0:2|3:0,0:0:0:0:
30,128,137384,2,0,P|73:141|126:150,1,75,8|0,1:2|0:0,0:0:0:0:
168,240,137669,6,0,P|97:245|52:314,1,150,8|8,3:2|1:2,0:0:0:0:
141,325,138098,1,0,3:0:0:0:
227,374,138241,2,0,L|236:295,1,75,8|0,0:2|3:0,0:0:0:0:
332,323,138527,2,0,L|323:244,1,75,8|0,1:2|0:0,0:0:0:0:
335,125,138812,6,0,B|245:118|276:168|192:158,1,150,8|8,3:2|1:2,0:0:0:0:
204,2,139241,2,0,B|192:39|192:39|209:76,1,75,0|8,3:0|0:2,0:0:0:0:
288,36,139527,1,0,3:0:0:0:
335,125,139669,2,0,L|409:126,1,75,8|0,1:2|0:0,0:0:0:0:
497,58,139955,6,0,B|458:86|458:86|457:187,1,150,8|8,3:2|1:2,0:0:0:0:
501,284,140384,1,0,3:0:0:0:
398,268,140527,2,0,P|361:289|344:326,1,75,8|0,0:2|3:0,0:0:0:0:
262,367,140812,2,0,P|242:335|209:318,1,75,8|0,1:2|0:0,0:0:0:0:
112,369,141098,6,0,L|124:196,1,150,12|8,3:2|1:2,0:0:0:0:
131,127,141527,1,0,3:0:0:0:
49,172,141669,2,0,P|27:142|-13:126,1,75,8|0,0:2|3:0,0:0:0:0:
205,189,141955,2,0,P|227:159|267:143,1,75,8|0,1:2|0:0,0:0:0:0:
326,210,142241,6,0,P|353:172|311:67,1,150,8|8,3:2|1:2,0:0:0:0:
247,42,142669,1,0,3:0:0:0:
157,89,142812,2,0,L|70:109,1,75,8|0,0:2|3:0,0:0:0:0:
22,29,143098,2,0,L|95:12,1,75,8|0,1:2|0:0,0:0:0:0:
82,138,143384,6,0,P|113:189|86:272,1,150,8|8,3:2|1:2,0:0:0:0:
4,330,143812,2,0,B|49:330|87:298|87:298|141:331,1,150,0|0,3:0|3:0,0:0:0:0:
212,377,144241,2,0,L|299:361,1,75,8|0,1:2|0:0,0:0:0:0:
296,244,144527,6,0,P|251:261|231:294,1,75,8|0,3:2|0:0,0:0:0:0:
375,302,144812,2,0,P|412:332|450:333,1,75,8|0,1:2|3:0,0:0:0:0:
380,204,145098,2,0,P|387:156|369:122,1,75,8|0,0:2|3:0,0:0:0:0:
327,58,145384,1,8,1:2:0:0:
327,58,145527,1,0,0:0:0:0:
204,121,145669,6,0,L|68:113,1,112.5,12|0,3:2|0:0,0:0:0:0:
45,111,145955,2,0,P|64:67|101:42,1,75,8|0,1:2|3:0,0:0:0:0:
82,262,146241,2,0,P|56:236|44:201,1,75,8|0,0:2|3:0,0:0:0:0:
215,201,146527,2,0,L|200:338,1,112.5,8|0,1:2|0:0,0:0:0:0:
234,352,146812,6,0,L|222:250,1,75,8|0,3:2|0:0,0:0:0:0:
371,257,147098,1,8,1:2:0:0:
192,242,147241,2,0,L|204:140,1,75,0|8,3:0|0:2,0:0:0:0:
211,64,147527,1,0,3:0:0:0:
81,98,147669,1,8,1:2:0:0:
101,76,147955,6,0,L|237:92,1,112.5,8|0,3:2|0:0,0:0:0:0:
236,129,148241,2,0,L|338:117,1,75,8|0,1:2|3:0,0:0:0:0:
384,13,148527,2,0,L|282:25,1,75,8|0,0:2|3:0,0:0:0:0:
458,102,148812,2,0,L|448:193,1,75,8|0,1:2|0:0,0:0:0:0:
429,325,149098,6,0,P|410:287|346:263,1,112.5,8|0,3:2|0:0,0:0:0:0:
347,276,149384,1,8,1:2:0:0:
510,253,149527,2,0,L|491:92,1,150,0|0,3:0|3:0,0:0:0:0:
303,149,149955,1,8,1:2:0:0:
320,143,150241,6,0,P|278:109|204:103,1,112.5,12|0,3:2|0:0,0:0:0:0:
227,134,150527,1,8,1:2:0:0:
340,121,150669,1,0,0:0:0:0:
329,313,150812,2,0,L|205:292,1,112.5,8|0,0:2|0:0,0:0:0:0:
227,313,151098,1,8,1:2:0:0:
287,209,151241,1,0,0:0:0:0:
404,369,151384,6,0,P|455:344|473:279,1,112.5,8|0,3:2|0:0,0:0:0:0:
465,244,151669,1,8,1:2:0:0:
325,289,151812,1,0,0:0:0:0:
452,140,151955,2,0,L|441:282,1,112.5,8|0,0:2|0:0,0:0:0:0:
439,299,152241,1,8,1:2:0:0:
418,171,152384,1,0,0:0:0:0:
222,184,152527,6,0,P|248:134|328:142,1,112.5,8|0,3:2|0:0,0:0:0:0:
302,142,152808,2,0,P|266:127|255:95,1,75,12|0,1:2|0:0,0:0:0:0:
458,99,153090,1,8,3:2:0:0:
418,171,153231,1,0,1:0:0:0:
439,299,153372,1,8,1:2:0:0:
358,271,153513,1,0,3:0:0:0:
207,359,153654,6,0,L|218:274,1,75,8|0,3:0|3:0,0:0:0:0:
216,284,153865,1,0,0:0:0:0:
216,284,153935,2,0,L|205:199,1,75,8|0,3:0|3:0,0:0:0:0:
186,83,154217,1,8,3:0:0:0:
313,115,154358,1,0,3:0:0:0:
176,114,154499,1,4,3:0:0:0:
113,257,154640,1,0,3:0:0:0:
41,48,154781,5,4,3:2:0:0:
46,68,155387,1,0,0:0:0:0:
37,105,155993,1,0,0:0:0:0:
37,105,158242,5,8,0:2:0:0:
41,125,158527,1,8,0:2:0:0:
47,155,158813,2,0,L|62:249,1,75,8|0,0:2|0:0,0:0:0:0:
87,351,159099,1,8,0:2:0:0:
137,282,159242,1,0,0:0:0:0:
336,329,159384,6,0,P|403:314|395:246,1,150,14|8,3:2|1:2,0:0:0:0:
460,127,159812,2,0,P|388:149|314:147,1,150,2|0,3:2|3:0,0:0:0:0:
267,221,160241,1,10,1:2:0:0:
145,38,160526,2,0,B|177:5|177:5|164:117,1,150,10|8,3:2|1:2,0:0:0:0:
100,167,160955,1,0,3:0:0:0:
207,211,161098,2,0,P|224:243|221:280,1,75,10|0,0:2|3:0,0:0:0:0:
152,349,161384,2,0,P|203:328|258:340,1,112.5,8|0,1:2|0:0,0:0:0:0:
277,363,161669,6,0,B|337:362|337:362|366:345|366:345|428:341,1,150,10|8,3:2|1:2,0:0:0:0:
501,292,162098,2,0,B|470:254|470:254|470:153,1,150,2|0,3:2|3:0,0:0:0:0:
377,205,162526,1,10,1:2:0:0:
439,58,162812,6,0,P|390:74|397:-4,1,150,10|8,3:2|1:2,0:0:0:0:
278,90,163241,1,0,3:0:0:0:
213,23,163384,2,0,P|158:42|137:42,1,75,10|0,0:2|3:0,0:0:0:0:
34,5,163669,2,0,L|53:150,1,112.5,8|0,1:2|0:0,0:0:0:0:
71,145,163955,6,0,P|34:166|27:279,1,150,14|8,3:2|1:2,0:0:0:0:
89,336,164384,2,0,B|174:324|153:386|229:371,1,150,2|0,3:2|3:0,0:0:0:0:
223,284,164812,1,10,1:2:0:0:
380,354,165098,6,0,P|365:300|374:203,1,150,10|8,3:2|1:2,0:0:0:0:
450,281,165526,1,0,3:0:0:0:
353,186,165669,2,0,P|312:192|272:213,1,75,10|0,0:2|3:0,0:0:0:0:
438,140,165955,2,0,P|397:102|343:87,1,112.5,8|0,1:2|0:0,0:0:0:0:
328,59,166241,6,0,B|306:98|266:93|266:93|185:83,1,150,10|8,3:2|1:2,0:0:0:0:
78,36,166669,2,0,B|121:13|121:13|96:118,1,150,2|0,3:2|3:0,0:0:0:0:
159,179,167098,1,10,1:2:0:0:
69,334,167384,5,10,3:2:0:0:
76,249,167526,2,0,P|112:257|136:284,1,75,0|8,0:0|1:2,0:0:0:0:
205,351,167812,2,0,P|260:347|315:332,1,112.5,0|0,3:0|0:0,0:0:0:0:
344,350,168098,1,0,1:0:0:0:
389,275,168241,1,8,1:2:0:0:
308,225,168384,1,0,1:0:0:0:
408,139,168526,6,0,B|419:115|419:115|317:106,1,112.5,14|0,3:2|0:0,0:0:0:0:
277,104,168812,1,8,1:2:0:0:
307,240,168955,2,0,B|205:231,1,75,2|8,3:2|0:2,0:0:0:0:
142,227,169241,1,0,3:0:0:0:
253,131,169384,1,10,1:2:0:0:
277,104,169669,6,0,P|243:59|171:51,1,112.5,10|0,3:2|0:0,0:0:0:0:
181,77,169955,2,0,L|273:68,1,75,8|0,1:2|3:0,0:0:0:0:
211,198,170241,2,0,L|119:189,1,75,10|0,0:2|3:0,0:0:0:0:
17,180,170526,1,8,1:2:0:0:
31,157,170812,6,0,B|50:123|50:123|61:204,1,112.5,10|0,3:2|0:0,0:0:0:0:
69,248,171098,1,8,1:2:0:0:
208,225,171241,2,0,L|194:146,2,75,2|8|0,3:2|0:2|3:0,0:0:0:0:
238,370,171669,2,0,L|123:355,1,112.5,10|0,1:2|0:0,0:0:0:0:
156,325,171955,6,0,L|258:337,1,75,10|0,3:2|0:0,0:0:0:0:
352,348,172241,1,8,1:2:0:0:
250,336,172384,1,0,3:0:0:0:
426,288,172526,2,0,L|436:189,1,75,10|0,0:2|3:0,0:0:0:0:
445,65,172812,2,0,P|417:95|461:87,1,112.5,8|0,1:2|0:0,0:0:0:0:
435,90,173098,6,0,P|385:103|326:162,1,112.5,14|0,3:2|0:0,0:0:0:0:
307,186,173384,1,8,1:2:0:0:
194,111,173526,2,0,L|207:29,1,75,2|8,3:2|0:2,0:0:0:0:
188,147,173812,1,0,3:0:0:0:
347,103,173955,1,10,1:2:0:0:
339,141,174241,6,0,L|320:261,1,112.5,10|0,3:2|0:0,0:0:0:0:
307,298,174526,2,0,L|294:218,1,75,8|0,1:2|3:0,0:0:0:0:
456,203,174812,2,0,L|469:283,1,75,10|0,0:2|3:0,0:0:0:0:
228,274,175098,1,8,1:2:0:0:
224,260,175384,6,0,P|166:265|116:295,1,112.5,10|0,3:2|0:0,0:0:0:0:
81,332,175669,1,12,1:2:0:0:
7,206,175812,2,0,L|163:221,1,150,2|0,0:2|3:0,0:0:0:0:
310,143,176241,1,14,1:2:0:0:
307,111,176526,6,0,L|300:17,1,75,14|0,1:2|1:0,0:0:0:0:
463,23,176812,1,0,1:0:0:0:
468,97,176954,1,0,1:0:0:0:
282,114,177098,2,0,L|275:20,1,75,10|0,1:2|1:0,0:0:0:0:
395,172,177384,2,0,L|388:266,1,75,0|0,1:0|1:0,0:0:0:0:
418,297,177598,1,0,1:0:0:0:
418,297,177669,6,0,L|412:377,1,75,14|0,3:2|0:0,0:0:0:0:
305,228,177955,1,10,1:2:0:0:
199,323,178241,2,0,B|112:331|144:271|61:278,1,150,10|8,3:2|1:2,0:0:0:0:
25,376,178669,6,0,P|42:334|37:302,1,75,2|8,3:2|0:2,0:0:0:0:
1,212,178955,2,0,P|-1:174|14:141,1,75,2|8,0:0|1:2,0:0:0:0:
91,193,179241,1,2,0:0:0:0:
185,80,179384,2,0,B|143:86|113:104|113:104|109:74|81:36,1,150,10|10,3:2|1:2,0:0:0:0:
241,182,179955,6,0,L|319:170,1,75,10|2,3:2|3:2,0:0:0:0:
389,219,180241,1,10,1:2:0:0:
469,37,180526,1,10,3:2:0:0:
512,124,180669,1,0,1:0:0:0:
512,124,180741,1,0,1:0:0:0:
512,124,180812,1,8,1:2:0:0:
410,104,180955,1,0,3:0:0:0:
338,32,181098,6,0,P|290:54|183:66,1,150,2|2,1:2|1:2,0:0:0:0:
0,107,181669,2,0,P|48:129|67:56,1,150,2|2,1:2|1:2,0:0:0:0:
152,195,182241,6,0,L|160:287,1,75,14|0,3:2|0:0,0:0:0:0:
135,361,182526,2,0,P|186:351|241:352,1,75,10|0,1:2|0:0,0:0:0:0:
248,262,182812,2,0,P|291:292|389:251,1,150,10|8,3:2|1:2,0:0:0:0:
314,199,183241,6,0,L|318:112,1,75,2|0,3:2|0:0,0:0:0:0:
429,72,183526,2,0,L|425:159,1,75,2|8,0:0|1:2,0:0:0:0:
298,102,183812,1,2,0:0:0:0:
453,51,183955,2,0,P|486:113|445:171,1,150,10|10,3:2|1:2,0:0:0:0:
485,338,184526,6,0,P|450:313|405:309,1,75,10|2,3:2|3:2,0:0:0:0:
335,348,184812,1,10,1:2:0:0:
219,261,185098,1,10,3:2:0:0:
143,310,185241,1,0,1:0:0:0:
221,233,185384,2,0,L|227:138,1,75,0|0,1:2|0:0,0:0:0:0:
229,29,185669,6,0,B|146:26|165:77|89:74,2,150,2|2|2,1:2|1:2|1:2,0:0:0:0:
365,108,186526,5,6,1:2:0:0:
256,192,186598,12,0,189312,3:0:0:0:
