osu file format v14

[General]
AudioFilename: audio.mp3
AudioLeadIn: 0
PreviewTime: 57946
Countdown: 0
SampleSet: Soft
StackLeniency: 0.7
Mode: 0
LetterboxInBreaks: 0
WidescreenStoryboard: 1

[Editor]
DistanceSpacing: 1
BeatDivisor: 4
GridSize: 4
TimelineZoom: 1.5

[Metadata]
Title:U&I
TitleUnicode:U&I
Artist:HO-KAGO TEA TIME
ArtistUnicode:放課後ティータイム
Creator:bossandy
Version:Andrea's Normal
Source:映画けいおん!
Tags:KyoAni Tribute Kyoto Animation 京都アニメーション Kon Eiga Keion! HTT Houkago Tea Time 平沢唯 Hirasawa Yui 豊崎愛生 Toyosaki Aki 秋山澪 Akiyama Mio 日笠陽子 Hikasa Yoko 田井中律 Tainaka Ritsu 佐藤聡美 Sato Satomi 琴吹紬 Kotobuki Tsumugi 寿美菜子 Kotobuki Minako 中野梓 Nakano Azusa 竹達彩奈 Taketatsu Ayana Guitar Drum Bass Keyboard Andrea osuplayer111 Sonnyc Trynna Ayyri eiri- Japanese Anime
BeatmapID:2116528
BeatmapSetID:976322

[Difficulty]
HPDrainRate:4
CircleSize:3.5
OverallDifficulty:5
ApproachRate:6
SliderMultiplier:1
SliderTickRate:1

[Events]
//Background and Video events
Video,-20,"video.avi"
0,0,"BG.jpg",0,0
//Break Periods
2,118250,125107
2,156193,157192
//Storyboard Layer 0 (Background)
//Storyboard Layer 1 (Fail)
//Storyboard Layer 2 (Pass)
//Storyboard Layer 3 (Foreground)
//Storyboard Layer 4 (Overlay)
//Storyboard Sound Samples

[TimingPoints]
7957,272.727272727273,4,2,1,70,1,0
8518,285.714285714286,4,2,1,70,1,0
22518,289.855072463768,4,2,1,70,1,0
23387,285.714285714286,4,2,1,70,1,0
26815,292.682926829268,4,2,1,70,1,0
27400,284.765068818225,4,2,1,70,1,0
27969,284.765068818225,4,2,1,70,1,0
31386,285.714285714286,4,2,1,70,1,0
58814,-100,4,2,1,80,0,1
91957,283.018867924528,4,2,1,80,1,1
94221,288.669713735867,4,2,1,80,1,1
95375,285.714285714286,4,2,1,80,1,0
95375,-100,4,2,1,80,0,0
114803,292.682926829268,4,2,1,80,1,0
115095,-100,4,2,2,80,0,0
115681,-100,4,2,1,80,0,0
118250,285.714285714286,4,2,1,50,1,0
126250,-100,4,2,1,40,0,0
133099,285.714285714286,4,2,1,40,1,0
133384,-100,4,2,1,50,0,0
133670,-100,4,2,1,60,0,0
133956,-100,4,2,1,70,0,0
134241,280.373831775701,4,2,1,80,1,0
134241,-100,4,2,1,80,0,0
135362,291.26213592233,4,2,1,80,1,0
136527,285.714285714286,4,2,1,80,1,1
136527,-100,4,2,1,80,0,1
152527,281.756280817093,4,2,1,80,1,1
154781,303.030303030303,4,2,1,80,1,0
158242,285.714285714286,4,2,1,80,1,0
159384,285.714285714286,4,2,1,70,1,1
186526,-100,4,2,1,70,0,0
186812,-100,4,2,1,60,0,0
187384,-100,4,2,1,50,0,0
187955,-100,4,2,1,40,0,0
188526,-100,4,2,1,30,0,0
189098,-100,4,2,1,20,0,0
189312,-100,4,2,1,70,0,0

[Colours]
Combo1 : 1,194,83
Combo2 : 181,78,2
Combo3 : 128,128,255
Combo4 : 254,222,137
Combo5 : 0,126,253

[HitObjects]
324,40,7957,6,0,L|280:64,1,50,0|0,1:0|1:0,0:0:0:0:
232,64,8229,2,0,L|188:40,1,50,0|0,1:0|1:0,0:0:0:0:
140,20,8518,6,0,P|88:20|52:48,1,100,14|0,3:2|1:0,0:0:0:0:
40,96,8946,2,0,L|72:200,1,100,2|0,3:2|3:0,0:0:0:0:
108,224,9375,2,0,P|157:225|196:195,1,100,10|10,1:2|3:2,0:0:0:0:
256,116,9946,1,8,1:2:0:0:
315,195,10232,6,0,P|354:225|404:224,2,100,10|8|10,0:2|1:2|3:2,0:0:0:0:
256,116,11089,1,8,1:2:0:0:
256,116,11232,2,0,L|256:12,1,100,2|0,3:2|3:0,0:0:0:0:
204,16,11660,2,0,B|152:16|152:16|104:44,1,100,10|10,1:2|3:2,0:0:0:0:
24,92,12232,1,8,1:2:0:0:
104,152,12518,2,0,B|104:204|104:204|132:244,1,100,10|8,0:2|1:2,0:0:0:0:
232,244,13089,6,0,B|260:284|260:284|260:336,1,100,14|8,3:2|1:2,0:0:0:0:
312,336,13518,2,0,B|364:336|364:336|404:308,1,100,2|0,3:2|3:0,0:0:0:0:
432,268,13946,1,10,1:2:0:0:
496,192,14232,1,10,3:2:0:0:
432,116,14518,2,0,P|380:116|344:84,1,100,8|10,1:2|0:2,0:0:0:0:
256,40,15089,1,8,1:2:0:0:
166,86,15375,6,0,P|128:117|80:116,1,100,10|8,3:2|1:2,0:0:0:0:
56,160,15803,2,0,L|28:260,1,100,2|0,3:2|3:0,0:0:0:0:
16,304,16232,1,10,1:2:0:0:
112,324,16518,2,0,B|156:348|156:348|208:348,1,100,10|4,3:2|1:2,0:0:0:0:
307,348,17089,2,0,L|352:308,1,50,10|0,3:2|1:0,0:0:0:0:
340,264,17375,2,0,L|385:224,1,50,0|0,1:0|1:0,0:0:0:0:
412,196,17660,6,0,B|412:160|412:160|420:140|420:140|420:96,1,100,14|2,3:2|1:2,0:0:0:0:
336,44,18232,2,0,B|336:80|336:80|328:100|328:100|328:144,1,100,2|0,3:2|1:2,0:0:0:0:
292,176,18660,2,0,P|240:176|200:152,1,100,2|2,3:2|0:0,0:0:0:0:
116,96,19232,1,2,0:0:0:0:
116,96,19375,2,0,L|60:180,1,100,2|2,3:2|1:2,0:0:0:0:
144,236,19946,5,2,3:2:0:0:
232,284,20232,2,0,B|284:284|284:284|324:312,1,100,2|2,1:2|3:2,0:0:0:0:
408,364,20803,2,0,L|448:328,1,50,0|0,1:2|0:0,0:0:0:0:
480,292,21089,2,0,B|480:240|480:240|452:196,1,100,2|2,1:2|1:2,0:0:0:0:
388,124,21660,1,2,1:2:0:0:
316,52,21946,1,2,1:2:0:0:
244,124,22232,6,0,P|192:124|152:152,1,100,4|0,3:2|1:0,0:0:0:0:
116,184,22662,2,0,L|116:340,1,150,0|0,0:0|1:0,0:0:0:0:
208,372,23387,1,0,3:0:0:0:
256,284,23672,1,0,1:0:0:0:
304,372,23958,2,0,P|356:372|388:340,1,100,0|0,0:0|1:0,0:0:0:0:
428,248,24529,6,0,L|428:148,1,100,0|0,3:0|1:0,0:0:0:0:
428,96,24958,2,0,P|352:96|296:48,1,150,0|0,0:0|1:0,0:0:0:0:
196,48,25672,2,0,P|144:48|104:72,1,100,0|0,3:0|1:0,0:0:0:0:
68,108,26101,2,0,L|68:260,1,150,0|8,3:0|1:2,0:0:0:0:
132,332,26815,6,0,P|184:332|216:300,1,100,0|0,3:0|1:0,0:0:0:0:
240,256,27254,2,0,B|296:256|296:256|332:232|332:232|388:232,1,147,0|0,0:0|1:0,0:0:0:0:
444,152,27969,2,0,B|444:100|444:100|412:56,1,100,0|0,3:0|1:0,0:0:0:0:
320,32,28538,2,0,B|320:84|320:84|352:128,1,100,0|0,0:0|1:0,0:0:0:0:
320,220,29108,5,2,3:2:0:0:
256,296,29392,1,2,1:2:0:0:
192,220,29677,2,0,P|140:220|96:192,1,100,2|0,0:0|1:0,0:0:0:0:
60,168,30104,2,0,L|60:68,1,100,2|2,0:0|0:0,0:0:0:0:
148,24,30674,1,0,0:0:0:0:
148,24,30816,2,0,L|248:24,1,100,2|8,0:0|1:2,0:0:0:0:
312,100,31386,6,0,L|412:100,1,100,4|0,3:2|1:0,0:0:0:0:
456,102,31814,2,0,P|472:150|456:194,1,100,0|0,0:0|3:0,0:0:0:0:
432,232,32243,1,0,1:0:0:0:
376,316,32528,2,0,B|324:316|324:316|288:348,1,100,0|0,3:0|1:0,0:0:0:0:
200,300,33100,2,0,B|164:332|164:332|112:332,1,100,0|0,0:0|1:0,0:0:0:0:
76,240,33671,5,0,3:0:0:0:
76,144,33957,1,0,1:0:0:0:
76,144,34100,2,0,P|132:144|168:116,1,100,0|0,0:0|3:0,0:0:0:0:
204,88,34528,1,0,1:0:0:0:
284,32,34814,2,0,B|336:32|336:32|380:56|380:56|432:56,2,150,0|0|8,3:0|0:0|1:2,0:0:0:0:
312,128,35957,6,0,B|312:180|312:180|340:218,1,100,4|0,3:2|1:0,0:0:0:0:
340,320,36528,1,0,0:0:0:0:
256,268,36814,1,0,1:0:0:0:
172,320,37100,1,0,3:0:0:0:
171,218,37386,1,0,1:0:0:0:
171,218,37528,2,0,B|200:180|200:180|200:128,1,100,0|0,0:0|3:0,0:0:0:0:
200,76,37957,6,0,P|148:76|112:48,2,100,0|0|2,1:0|3:0|1:2,0:0:0:0:
284,20,38814,1,2,3:2:0:0:
348,96,39100,1,0,1:0:0:0:
264,152,39386,2,0,L|264:256,1,100,0|6,3:0|1:2,0:0:0:0:
198,328,39957,2,0,L|142:328,1,50,0|0,3:0|1:0,0:0:0:0:
112,292,40243,2,0,L|72:244,1,50,0|0,1:0|1:0,0:0:0:0:
44,216,40528,6,0,B|44:164|44:164|72:120,1,100,4|0,3:2|1:0,0:0:0:0:
104,88,40957,2,0,P|160:88|232:32,1,150,0|0,3:0|1:0,0:0:0:0:
332,32,41671,2,0,B|384:32|384:32|424:60,1,100,0|0,3:0|1:0,0:0:0:0:
448,156,42243,2,0,B|396:156|396:156|356:128,1,100,0|0,0:0|1:0,0:0:0:0:
308,128,42671,1,0,0:0:0:0:
256,128,42814,6,0,P|204:128|168:92,1,100,0|0,3:0|1:0,0:0:0:0:
92,32,43386,1,0,0:0:0:0:
12,92,43671,2,0,B|12:144|12:144|44:184,1,100,0|0,1:0|3:0,0:0:0:0:
112,252,44243,2,0,P|164:252|200:280,1,100,0|0,1:0|0:0,0:0:0:0:
268,352,44814,6,0,L|368:352,1,100,0|0,1:0|3:0,0:0:0:0:
428,272,45386,1,0,1:0:0:0:
488,192,45671,1,0,0:0:0:0:
428,112,45957,2,0,L|376:112,1,50,0|0,1:0|0:0,0:0:0:0:
328,112,46243,2,0,P|276:112|240:80,1,100,0|0,3:0|1:0,0:0:0:0:
148,44,46814,2,0,L|48:44,1,100,0|0,0:0|1:0,0:0:0:0:
44,144,47386,6,0,B|44:196|44:196|76:232,1,100,0|0,3:0|1:0,0:0:0:0:
168,276,47957,1,0,0:0:0:0:
256,324,48243,1,0,1:0:0:0:
344,276,48528,2,0,P|392:276|432:240,1,100,0|4,3:0|1:2,0:0:0:0:
430,140,49100,2,0,P|392:108|344:108,1,100,4|4,3:2|1:2,0:0:0:0:
248,80,49671,6,0,P|198:79|161:47,1,100,4|0,3:2|1:0,0:0:0:0:
116,68,50100,2,0,L|48:140,1,100,0|0,3:0|3:0,0:0:0:0:
12,176,50528,1,0,1:0:0:0:
60,264,50814,2,0,L|128:192,1,100,0|0,3:0|1:0,0:0:0:0:
200,120,51386,1,0,0:0:0:0:
256,204,51671,1,0,1:0:0:0:
312,120,51957,6,0,P|364:120|400:88,1,100,0|0,3:0|1:0,0:0:0:0:
432,52,52386,1,0,0:0:0:0:
432,52,52528,2,0,L|500:128,1,100,0|0,0:0|1:0,0:0:0:0:
424,192,53100,1,0,3:0:0:0:
498,258,53386,2,0,B|429:290|429:290|377:283|377:283|312:313,1,200,0|4,1:0|1:2,0:0:0:0:
212,316,54243,6,0,B|160:316|160:316|120:284,1,100,4|0,3:2|1:0,0:0:0:0:
92,192,54814,1,0,0:0:0:0:
122,97,55100,2,0,B|160:68|160:68|212:68,1,100,0|4,1:0|3:2,0:0:0:0:
312,68,55671,2,0,L|352:104,1,50,0|0,1:0|0:0,0:0:0:0:
384,140,55957,2,0,B|400:188|400:188|384:236,1,100,0|0,0:0|1:0,0:0:0:0:
344,328,56528,5,4,3:2:0:0:
256,280,56814,2,0,P|156:280|80:216,1,200,0|0,1:0|1:0,0:0:0:0:
80,120,57671,2,0,P|80:68|108:32,1,100,4|0,3:2|1:0,0:0:0:0:
160,32,58100,1,0,1:0:0:0:
210,32,58243,2,0,P|239:71|238:120,1,100,0|0,1:0|1:0,0:0:0:0:
328,168,58814,6,0,L|428:168,1,100,4|8,3:2|1:2,0:0:0:0:
480,168,59243,1,0,3:0:0:0:
480,168,59386,2,0,B|480:220|480:220|452:260,1,100,8|8,0:2|1:2,0:0:0:0:
392,336,59957,2,0,P|336:336|296:308,1,100,8|8,3:2|1:2,0:0:0:0:
256,288,60386,1,0,3:0:0:0:
211,312,60528,2,0,P|169:337|120:336,2,100,8|8|8,0:2|1:2|3:2,0:0:0:0:
140,244,61386,5,8,1:2:0:0:
140,244,61528,2,0,L|108:144,1,100,0|0,3:0|3:0,0:0:0:0:
92,100,61957,2,0,B|128:64|128:64|184:64,1,100,8|8,1:2|3:2,0:0:0:0:
256,128,62528,1,8,1:2:0:0:
334,64,62814,2,0,B|384:64|384:64|420:100,1,100,8|8,0:2|1:2,0:0:0:0:
448,140,63243,1,0,0:0:0:0:
420,184,63386,6,0,B|384:220|384:220|334:220,1,100,12|8,3:2|1:2,0:0:0:0:
256,280,63957,1,8,0:2:0:0:
176,340,64243,2,0,L|120:340,1,50,8|0,1:2|0:0,0:0:0:0:
84,316,64528,2,0,P|68:268|84:224,1,100,8|8,3:2|1:2,0:0:0:0:
172,176,65100,2,0,P|188:129|172:83,1,100,8|8,0:2|1:2,0:0:0:0:
256,28,65671,5,8,3:2:0:0:
339,83,65957,1,8,1:2:0:0:
339,83,66100,2,0,P|323:129|340:176,1,100,0|0,3:0|3:0,0:0:0:0:
376,212,66528,2,0,L|476:212,2,100,8|8|8,1:2|3:2|1:2,0:0:0:0:
336,244,67243,1,0,3:0:0:0:
256,304,67528,2,0,L|200:304,1,50,0|8,3:0|1:2,0:0:0:0:
156,304,67814,1,0,0:0:0:0:
156,304,67957,6,0,P|104:304|68:268,1,100,12|8,3:2|1:2,0:0:0:0:
70,172,68528,2,0,P|106:139|155:141,1,100,8|8,0:2|1:2,0:0:0:0:
256,124,69100,1,8,3:2:0:0:
357,141,69386,1,8,1:2:0:0:
357,141,69528,2,0,L|420:284,1,150,0|8,3:0|1:2,0:0:0:0:
348,352,70243,6,0,L|308:260,1,100,8|8,3:2|1:2,0:0:0:0:
256,176,70814,1,8,0:2:0:0:
204,260,71100,2,0,L|164:352,1,100,8|8,1:2|3:2,0:0:0:0:
94,278,71671,1,8,1:2:0:0:
94,278,71814,2,0,L|155:141,1,150,0|8,3:0|1:2,0:0:0:0:
192,48,72528,6,0,B|216:24|244:24|244:24|288:24,1,100,12|8,3:2|1:2,0:0:0:0:
360,88,73100,2,0,B|401:88|401:88|429:88|453:64,2,100,8|8|8,0:2|1:2|3:2,0:0:0:0:
320,180,73957,1,8,1:2:0:0:
256,256,74243,1,8,0:2:0:0:
192,180,74528,2,0,L|88:180,1,100,8|8,1:2|3:2,0:0:0:0:
52,88,75100,6,0,B|88:40|136:40|136:40|236:40,1,200,12|12,1:2|1:2,0:0:0:0:
320,92,75957,1,8,3:2:0:0:
404,144,76243,2,0,B|404:196|404:196|380:240,1,100,12|8,1:2|3:2,0:0:0:0:
352,280,76671,1,0,1:0:0:0:
352,280,76814,2,0,L|320:336,1,50,8|0,1:2|1:0,0:0:0:0:
300,368,77100,6,0,P|248:368|212:340,1,100,12|8,3:2|1:2,0:0:0:0:
144,264,77671,1,8,0:2:0:0:
76,192,77957,1,8,1:2:0:0:
144,120,78243,2,0,P|196:120|232:88,1,100,8|8,3:2|1:2,0:0:0:0:
296,12,78814,2,0,L|400:12,1,100,8|8,0:2|1:2,0:0:0:0:
480,68,79386,5,8,3:2:0:0:
480,168,79671,1,8,1:2:0:0:
480,168,79814,2,0,B|480:220|480:220|448:260,1,100,0|0,3:0|3:0,0:0:0:0:
408,284,80243,2,0,B|378:321|378:321|378:373,1,100,8|8,1:2|3:2,0:0:0:0:
276,376,80814,1,8,1:2:0:0:
176,376,81100,2,0,B|124:376|124:376|80:344,1,100,8|8,0:2|1:2,0:0:0:0:
16,276,81671,5,12,3:2:0:0:
72,192,81957,1,8,1:2:0:0:
16,108,82243,2,0,L|100:48,1,100,8|8,0:2|1:2,0:0:0:0:
176,112,82814,2,0,L|257:53,1,100,8|8,3:2|1:2,0:0:0:0:
300,28,83243,1,0,3:0:0:0:
352,28,83386,2,0,P|404:28|440:64,1,100,8|8,0:2|1:2,0:0:0:0:
448,160,83957,6,0,P|399:161|362:129,1,100,8|8,3:2|1:2,0:0:0:0:
312,136,84386,2,0,L|264:224,1,100,0|0,3:0|3:0,0:0:0:0:
236,264,84814,1,8,1:2:0:0:
136,264,85100,2,0,P|84:264|48:232,1,100,8|8,3:2|1:2,0:0:0:0:
32,188,85528,2,0,L|72:96,1,100,0|0,3:0|3:0,0:0:0:0:
88,48,85957,1,8,1:2:0:0:
188,48,86243,6,0,B|240:48|240:48|284:80,1,100,12|8,3:2|1:2,0:0:0:0:
364,132,86814,2,0,B|402:160|402:160|454:160,1,100,8|8,0:2|1:2,0:0:0:0:
456,260,87386,1,8,3:2:0:0:
456,360,87671,1,8,1:2:0:0:
456,360,87814,2,0,P|404:360|364:328,1,100,0|0,3:0|3:0,0:0:0:0:
320,316,88243,6,0,L|220:316,1,100,8|8,1:2|3:2,0:0:0:0:
120,316,88814,2,0,B|92:268|92:268|92:224,1,100,8|8,1:2|0:2,0:0:0:0:
92,124,89386,2,0,B|92:80|92:80|120:32,1,100,8|8,1:2|3:2,0:0:0:0:
208,80,89957,1,8,1:2:0:0:
208,80,90100,2,0,P|256:68|304:80,1,100,0|0,3:0|3:0,0:0:0:0:
328,124,90528,6,0,L|368:216,1,100,8|12,1:2|3:2,0:0:0:0:
304,292,91100,2,0,L|264:200,1,100,8|8,1:2|0:2,0:0:0:0:
224,108,91671,1,8,1:2:0:0:
132,152,91957,2,0,P|80:152|44:120,2,100,8|8|8,3:2|1:2|0:2,0:0:0:0:
224,108,92806,6,0,L|316:64,1,100,8|8,1:2|3:2,0:0:0:0:
404,20,93372,1,12,1:2:0:0:
460,104,93655,2,0,L|416:128,1,50,8|0,3:2|1:0,0:0:0:0:
420,180,93938,2,0,L|376:204,1,50,8|0,1:2|1:0,0:0:0:0:
332,228,94221,2,0,B|332:280|332:280|304:320,1,100,2|2,1:2|1:2,0:0:0:0:
208,320,94798,2,0,B|180:280|180:280|180:228,1,100,2|2,1:2|1:2,0:0:0:0:
256,160,95375,6,0,L|256:52,2,100,14|10|10,3:2|1:2|0:2,0:0:0:0:
200,244,96232,1,10,1:2:0:0:
200,244,96375,2,0,P|256:286|312:244,1,150,2|10,0:2|1:2,0:0:0:0:
396,192,97089,2,0,L|432:96,1,100,10|10,0:2|1:2,0:0:0:0:
356,32,97660,6,0,L|320:128,1,100,10|10,3:2|1:2,0:0:0:0:
256,48,98232,1,10,0:2:0:0:
192,125,98517,1,10,1:2:0:0:
192,125,98660,2,0,P|128:124|64:176,1,150,2|10,0:0|1:2,0:0:0:0:
156,212,99375,2,0,L|200:304,1,100,10|10,0:2|1:2,0:0:0:0:
300,304,99946,6,0,P|352:304|392:280,1,100,14|10,3:2|1:2,0:0:0:0:
440,192,100517,1,10,0:2:0:0:
392,104,100803,2,0,P|349:79|300:80,2,100,10|10|10,1:2|3:2|1:2,0:0:0:0:
440,192,101660,2,0,B|440:244|440:244|412:284,1,100,10|10,0:2|1:2,0:0:0:0:
324,332,102232,6,0,B|284:360|284:360|232:360,1,100,10|10,3:2|1:2,0:0:0:0:
156,296,102803,1,10,0:2:0:0:
76,236,103089,2,0,P|52:192|76:152,1,100,10|10,1:2|3:2,0:0:0:0:
144,80,103660,1,10,1:2:0:0:
216,12,103946,2,0,L|272:12,1,50,10|0,3:2|1:0,0:0:0:0:
308,40,104232,2,0,L|360:40,1,50,10|0,1:2|1:2,0:0:0:0:
408,44,104517,6,0,B|408:96|408:96|440:136,1,100,14|10,3:2|1:2,0:0:0:0:
496,216,105089,1,10,0:2:0:0:
440,300,105375,1,10,1:2:0:0:
440,300,105517,2,0,B|388:300|388:300|344:320|344:320|288:320,1,150,2|10,0:0|1:2,0:0:0:0:
196,320,106232,2,0,P|140:320|108:288,1,100,10|10,0:2|1:2,0:0:0:0:
92,192,106803,6,0,P|140:189|178:220,1,100,10|10,3:2|1:2,0:0:0:0:
256,156,107375,1,10,0:2:0:0:
334,220,107660,1,10,1:2:0:0:
334,220,107803,2,0,P|400:220|456:164,1,150,2|10,0:0|1:2,0:0:0:0:
396,84,108517,2,0,L|324:12,1,100,10|10,0:2|1:2,0:0:0:0:
256,84,109089,5,14,3:2:0:0:
186,13,109375,2,0,L|116:84,2,100,10|10|10,1:2|0:2|1:2,0:0:0:0:
256,84,110232,1,10,3:2:0:0:
256,184,110517,2,0,B|256:224|256:224|252:228|252:228|260:228|260:228|256:232|256:232|256:276,1,100,10|10,1:2|0:2,0:0:0:0:
344,320,111089,1,10,1:2:0:0:
256,364,111375,5,10,3:2:0:0:
168,320,111660,2,0,P|112:320|72:288,1,100,10|10,1:2|0:2,0:0:0:0:
60,192,112232,1,10,1:2:0:0:
77,88,112517,2,0,P|118:61|168:64,1,100,10|8,3:2|1:2,0:0:0:0:
204,96,112946,2,0,L|244:192,1,100,2|0,0:0|3:0,0:0:0:0:
288,212,113375,6,0,P|337:214|378:187,1,100,14|14,1:2|3:2,0:0:0:0:
436,104,113946,1,8,1:2:0:0:
436,104,114089,2,0,B|456:56|456:56|436:8,1,100,0|0,0:0|3:0,0:0:0:0:
388,12,114517,1,8,1:2:0:0:
292,12,114803,6,0,B|218:85|218:85|181:173|181:173|110:243,1,300,2|0,3:2|3:0,0:0:0:0:
40,316,115973,1,14,3:2:0:0:
176,52,126250,6,0,P|256:104|336:52,2,200,2|0|2,0:0|0:0|0:0,0:0:0:0:
76,52,127678,1,0,0:0:0:0:
34,143,127964,1,0,0:0:0:0:
34,241,128250,1,0,0:0:0:0:
76,332,128535,2,0,B|152:332|152:332|200:304|200:304|272:304,1,200,2|0,0:0|0:0,0:0:0:0:
368,308,129392,1,0,0:0:0:0:
368,208,129678,6,0,B|368:139|368:139|340:91|340:91|340:15,2,200,2|0|2,0:0|0:0|0:0,0:0:0:0:
268,208,131107,2,0,B|216:208|216:208|180:176,1,100,0|0,0:0|0:0,0:0:0:0:
108,108,131678,1,0,0:0:0:0:
44,184,131964,2,0,L|188:324,1,200,2|0,0:0|0:0,0:0:0:0:
384,320,133099,6,0,P|440:320|472:292,1,100,0|4,1:0|3:2,0:0:0:0:
488,192,133670,1,4,3:2:0:0:
471,91,133956,2,0,P|432:61|384:64,1,100,4|4,3:2|3:2,0:0:0:0:
296,108,134521,6,0,L|244:108,1,50,0|0,1:0|1:0,0:0:0:0:
196,108,134801,2,0,P|144:108|108:136,1,100,0|0,1:0|1:0,0:0:0:0:
40,204,135362,2,0,B|40:256|40:256|72:304,1,100,0|0,1:0|1:0,0:0:0:0:
104,328,135798,1,0,1:0:0:0:
152,328,135944,2,0,B|204:328|204:328|244:300,1,100,0|0,1:0|1:0,0:0:0:0:
328,236,136527,6,0,P|380:236|416:208,1,100,12|8,2:2|1:2,0:0:0:0:
420,156,136955,1,0,3:0:0:0:
420,156,137098,2,0,L|420:52,1,100,8|8,0:2|1:2,0:0:0:0:
320,56,137669,2,0,B|272:28|272:28|224:28,1,100,8|8,3:2|1:2,0:0:0:0:
176,28,138098,1,0,3:0:0:0:
176,28,138241,2,0,L|120:116,1,100,8|8,0:2|1:2,0:0:0:0:
60,192,138812,5,8,3:2:0:0:
122,271,139098,1,8,1:2:0:0:
122,271,139241,2,0,L|176:356,1,100,0|0,3:0|3:0,0:0:0:0:
228,356,139669,2,0,P|280:356|316:328,1,100,8|8,1:2|3:2,0:0:0:0:
276,236,140241,2,0,P|315:206|364:207,1,100,8|8,1:2|0:2,0:0:0:0:
436,276,140812,1,8,1:2:0:0:
492,192,141098,5,12,3:2:0:0:
436,108,141384,1,8,1:2:0:0:
436,108,141527,2,0,B|436:56|436:56|404:16,1,100,0|0,3:0|3:0,0:0:0:0:
356,16,141955,2,0,P|304:16|264:44,1,100,8|8,1:2|3:2,0:0:0:0:
196,112,142527,1,8,1:2:0:0:
124,180,142812,6,0,P|82:206|33:206,2,100,8|8|8,0:2|1:2|3:2,0:0:0:0:
192,252,143669,1,8,1:2:0:0:
192,252,143812,2,0,L|296:252,1,100,0|0,3:0|3:0,0:0:0:0:
344,252,144241,2,0,P|396:252|432:224,1,100,8|8,1:2|3:2,0:0:0:0:
432,124,144812,1,8,1:2:0:0:
360,52,145098,2,0,P|308:52|272:80,1,100,8|8,0:2|1:2,0:0:0:0:
240,120,145527,1,0,0:0:0:0:
240,120,145669,6,0,L|140:120,1,100,12|8,3:2|1:2,0:0:0:0:
72,192,146241,1,8,0:2:0:0:
140,264,146527,2,0,L|240:264,1,100,8|8,1:2|3:2,0:0:0:0:
332,304,147098,1,8,1:2:0:0:
332,304,147241,2,0,L|436:304,1,100,8|8,3:2|3:2,0:0:0:0:
484,304,147669,6,0,B|484:252|484:252|448:208,1,100,8|8,1:2|3:2,0:0:0:0:
360,172,148241,2,0,B|329:134|329:134|329:82,1,100,8|8,1:2|0:2,0:0:0:0:
256,16,148812,1,8,1:2:0:0:
182,82,149098,2,0,B|182:134|182:134|152:172,1,100,8|8,3:2|1:2,0:0:0:0:
116,208,149527,2,0,B|85:245|85:245|85:297,1,100,0|0,3:0|3:0,0:0:0:0:
120,332,149955,1,8,1:2:0:0:
220,332,150241,6,0,B|272:332|272:332|308:296,1,100,12|8,3:2|1:2,0:0:0:0:
376,228,150812,2,0,B|409:194|409:194|461:194,1,100,8|8,0:2|1:2,0:0:0:0:
460,92,151384,1,8,3:2:0:0:
388,24,151669,2,0,P|336:24|300:60,1,100,8|8,1:2|0:2,0:0:0:0:
256,144,152241,1,8,1:2:0:0:
209,54,152527,6,0,P|172:22|124:24,1,100,8|12,3:2|1:2,0:0:0:0:
72,108,153090,1,0,1:0:0:0:
48,152,153231,1,0,1:0:0:0:
26,198,153372,2,0,L|2:246,2,50,8|0|8,1:2|3:0|3:0,0:0:0:0:
120,236,153935,1,8,3:0:0:0:
216,268,154217,6,0,P|268:268|304:296,1,100,8|4,3:0|3:0,0:0:0:0:
336,336,154640,1,0,3:0:0:0:
336,336,154781,2,0,P|436:336|488:244,2,200,4|0|0,3:2|0:0|0:0,0:0:0:0:
132,56,158242,5,8,0:2:0:0:
205,123,158527,1,8,0:2:0:0:
307,123,158813,1,8,0:2:0:0:
380,56,159099,1,8,0:2:0:0:
452,124,159384,6,0,B|452:176|452:176|424:216,1,100,14|8,3:2|1:2,0:0:0:0:
392,252,159812,2,0,P|340:252|304:280,1,100,2|0,3:2|3:0,0:0:0:0:
276,324,160241,2,0,P|236:353|187:352,1,100,10|10,1:2|3:2,0:0:0:0:
120,280,160812,2,0,L|52:204,1,100,8|10,1:2|0:2,0:0:0:0:
92,112,161384,6,0,L|160:188,1,100,8|10,1:2|3:2,0:0:0:0:
256,168,161955,1,8,1:2:0:0:
256,168,162098,2,0,P|308:168|344:136,1,100,2|0,3:2|3:0,0:0:0:0:
384,108,162526,2,0,L|484:108,2,100,10|10|8,1:2|3:2|1:2,0:0:0:0:
305,45,163384,1,10,0:2:0:0:
207,45,163669,1,8,1:2:0:0:
128,108,163955,6,0,B|72:108|72:108|32:136,1,100,14|8,3:2|1:2,0:0:0:0:
32,184,164384,2,0,L|32:288,1,100,2|0,3:2|3:0,0:0:0:0:
32,336,164812,2,0,B|68:361|68:361|124:361,1,100,10|10,1:2|3:2,0:0:0:0:
192,284,165384,1,8,1:2:0:0:
256,208,165669,1,10,0:2:0:0:
320,284,165955,1,8,1:2:0:0:
387,361,166241,6,0,B|443:361|443:361|480:336,1,100,10|8,3:2|1:2,0:0:0:0:
480,284,166669,2,0,L|480:184,1,100,2|0,3:2|3:0,0:0:0:0:
476,133,167098,2,0,B|440:108|440:108|384:108,1,100,10|10,1:2|3:2,0:0:0:0:
305,45,167669,1,8,1:2:0:0:
256,132,167955,2,0,L|256:184,1,50,10|0,3:2|1:0,0:0:0:0:
256,232,168241,2,0,L|256:288,1,50,8|0,1:2|1:0,0:0:0:0:
256,332,168526,6,0,P|200:332|160:304,1,100,14|8,3:2|1:2,0:0:0:0:
148,260,168955,2,0,P|105:234|56:236,1,100,2|0,3:2|3:0,0:0:0:0:
24,196,169384,1,10,1:2:0:0:
24,96,169669,2,0,B|64:64|64:64|112:64,1,100,10|8,3:2|1:2,0:0:0:0:
212,64,170241,1,10,0:2:0:0:
256,156,170526,1,8,1:2:0:0:
300,64,170812,6,0,P|352:64|388:92,1,100,10|8,3:2|1:2,0:0:0:0:
420,132,171241,2,0,L|420:232,1,100,2|0,3:2|3:0,0:0:0:0:
420,284,171669,1,10,1:2:0:0:
344,348,171955,2,0,P|292:348|256:320,1,100,10|8,3:2|1:2,0:0:0:0:
184,248,172526,2,0,P|144:218|95:219,1,100,10|8,0:2|1:2,0:0:0:0:
12,168,173098,5,14,3:2:0:0:
96,112,173384,1,8,1:2:0:0:
96,112,173526,2,0,L|176:48,1,100,2|0,3:2|3:0,0:0:0:0:
212,16,173955,2,0,B|256:40|256:40|300:16,1,100,10|10,1:2|3:2,0:0:0:0:
332,112,174526,2,0,B|376:88|376:88|420:112,1,100,8|10,1:2|0:2,0:0:0:0:
464,204,175098,6,0,B|420:228|420:228|376:204,1,100,8|10,1:2|3:2,0:0:0:0:
320,288,175669,1,12,1:2:0:0:
320,288,175812,2,0,L|220:288,1,100,2|0,0:2|3:0,0:0:0:0:
168,288,176241,2,0,P|112:288|80:256,1,100,14|14,1:2|1:2,0:0:0:0:
60,216,176669,1,0,1:0:0:0:
60,216,176812,2,0,L|32:168,2,50,0|0|10,1:0|1:0|1:2,0:0:0:0:
148,168,177384,1,0,1:0:0:0:
236,120,177669,6,0,L|176:36,2,100,14|10|10,3:2|1:2|3:2,0:0:0:0:
320,64,178526,1,8,1:2:0:0:
320,64,178669,2,0,P|376:64|412:88,1,100,2|2,3:2|0:0,0:0:0:0:
480,164,179241,1,2,0:0:0:0:
480,164,179384,2,0,L|432:252,1,100,10|10,3:2|1:2,0:0:0:0:
372,332,179955,6,0,L|320:332,1,50,10|2,3:2|3:2,0:0:0:0:
272,332,180241,2,0,P|220:332|184:296,1,100,10|10,1:2|3:2,0:0:0:0:
92,272,180812,1,8,1:2:0:0:
28,192,181098,1,2,1:2:0:0:
92,112,181384,1,2,1:2:0:0:
186,82,181669,2,0,P|223:50|272:52,2,100,2|2|14,1:2|1:2|3:2,0:0:0:0:
260,152,182526,6,0,L|296:192,2,50,10|0|10,1:2|0:0|3:2,0:0:0:0:
184,220,183098,1,8,1:2:0:0:
184,220,183241,2,0,L|256:292,1,100,2|2,3:2|0:0,0:0:0:0:
332,356,183812,1,2,0:0:0:0:
332,356,183955,2,0,P|384:356|420:324,1,100,10|10,3:2|1:2,0:0:0:0:
468,240,184526,6,0,L|468:184,1,50,10|2,3:2|3:2,0:0:0:0:
440,148,184812,2,0,P|384:148|352:120,1,100,10|10,1:2|3:2,0:0:0:0:
320,84,185241,1,0,1:2:0:0:
320,84,185384,1,0,1:2:0:0:
256,8,185669,5,2,1:2:0:0:
192,84,185955,1,2,1:2:0:0:
256,160,186241,1,2,1:2:0:0:
320,84,186526,1,6,1:2:0:0:
256,192,186669,12,0,189312,3:0:0:0:
