osu file format v14

[General]
AudioFilename: audio.mp3
AudioLeadIn: 0
PreviewTime: 50841
Countdown: 0
SampleSet: Soft
StackLeniency: 0.7
Mode: 2
LetterboxInBreaks: 0
WidescreenStoryboard: 0

[Editor]
DistanceSpacing: 1.2
BeatDivisor: 4
GridSize: 8
TimelineZoom: 2.8

[Metadata]
Title:U&I
TitleUnicode:U&I
Artist:HO-KAGO TEA TIME
ArtistUnicode:放課後ティータイム
Creator:Ponchiwi
Version:Salad
Source:けいおん!!
Tags:放課後ティータイム K-ON! HTT anime 平沢唯 hirasawa yui 平沢憂 hirasawa ui 豊崎愛生 toyosaki aki Seria
BeatmapID:2418308
BeatmapSetID:854941

[Difficulty]
HPDrainRate:3
CircleSize:2.5
OverallDifficulty:7
ApproachRate:7
SliderMultiplier:1.2
SliderTickRate:1

[Events]
//Background and Video events
0,0,"k-on!.jpg",0,0
//Break Periods
//Storyboard Layer 0 (Background)
//Storyboard Layer 1 (Fail)
//Storyboard Layer 2 (Pass)
//Storyboard Layer 3 (Foreground)
//Storyboard Layer 4 (Overlay)
//Storyboard Sound Samples

[TimingPoints]
-16,285.714285714286,4,1,0,80,1,0
1126,-100,4,2,1,60,0,0
10269,-100,4,2,1,60,0,0
13698,-100,4,2,1,70,0,0
14841,-100,4,2,1,60,0,0
33126,-100,4,2,1,55,0,0
42269,-100,4,2,1,50,0,0
50269,-100,4,2,1,60,0,0
51412,-100,4,2,1,60,0,1
60555,-100,4,2,1,60,0,1
69126,-100,4,2,1,60,0,0
69698,-100,4,2,1,70,0,1
78841,-100,4,2,1,70,0,0
86823,285.714285714286,4,2,1,75,1,1
86823,-100,4,2,1,75,0,1
87965,-100,4,2,1,60,0,0

[Colours]
Combo1 : 236,245,148
Combo2 : 255,166,166
Combo3 : 165,244,138
Combo4 : 242,183,247
Combo5 : 175,184,239

[HitObjects]
184,80,1126,6,0,L|56:80,2,120,6|8|0,0:0|0:0|0:0,0:0:0:0:
328,76,1984,1,8,0:0:0:0:
184,80,2269,6,0,P|128:104|120:168,1,120,2|8,0:0|0:0,0:0:0:0:
261,163,2841,2,0,P|312:196|304:259,1,120,0|8,0:0|0:0,0:0:0:0:
166,243,3412,6,0,P|166:171|310:99,1,240,2|0,0:0|0:0,0:0:0:0:
442,93,4269,1,8,0:0:0:0:
298,95,4555,6,0,P|210:159|301:194,1,240,2|2,0:0|0:0,0:0:0:0:
433,200,5412,1,8,0:0:0:0:
160,80,5698,6,0,L|40:80,1,120,6|8,0:0|0:0,0:0:0:0:
184,83,6269,2,0,L|304:83,1,120,0|8,0:0|0:0,0:0:0:0:
160,80,6841,5,2,0:0:0:0:
304,83,7126,1,8,0:0:0:0:
448,81,7412,1,0,0:0:0:0:
304,83,7698,1,8,0:0:0:0:
160,80,7984,6,0,P|151:189|275:206,1,240,2|0,0:0|0:0,0:0:0:0:
402,222,8841,1,8,0:0:0:0:
258,216,9126,6,0,L|240:96,1,120,2|8,0:0|0:0,0:0:0:0:
430,87,9698,2,0,P|470:119|414:159,1,120,2|8,0:0|0:0,0:0:0:0:
152,152,10269,6,0,B|24:152,2,120,2|8|2,0:0|0:0|0:0,0:0:0:0:
296,160,11126,2,0,L|360:160,1,60
192,160,11555,6,0,L|128:200,1,60
160,264,11841,1,0,0:0:0:0:
224,312,11984,2,0,P|280:280|288:208,1,120,2|8,0:0|0:0,0:0:0:0:
360,64,12555,6,0,B|240:64,1,120,2|8,0:0|0:0,0:0:0:0:
72,296,13126,2,0,P|80:232|128:200,1,120,2|8,0:0|0:0,0:0:0:0:
320,144,13698,5,8,0:0:0:0:
456,272,13984,1,8,0:0:0:0:
272,288,14269,2,8,L|144:288,1,120
432,208,14841,6,0,P|477:244|468:301,1,120,4|0,0:0|0:0,0:0:0:0:
321,305,15412,1,0,0:0:0:0:
468,301,15698,1,8,0:0:0:0:
321,209,15984,6,0,L|198:211,1,120,2|8,0:0|0:0,0:0:0:0:
353,273,16555,2,0,P|401:257|410:183,1,120,2|8,0:0|0:0,0:0:0:0:
272,192,17126,6,0,P|224:96|336:64,1,240,2|0,0:0|0:0,0:0:0:0:
480,96,17984,1,8,0:0:0:0:
320,208,18269,6,0,L|192:208,1,120,2|8,0:0|0:0,0:0:0:0:
352,96,18841,2,0,P|403:121|403:178,1,120,0|8,0:0|0:0,0:0:0:0:
112,96,19412,6,0,P|40:176|88:304,1,240,4|0,0:0|0:0,0:0:0:0:
232,304,20269,1,8,0:0:0:0:
88,168,20555,5,2,0:0:0:0:
232,168,20841,1,8,0:0:0:0:
368,72,21126,2,0,L|240:72,1,120,2|8,0:0|0:0,0:0:0:0:
88,160,21698,6,0,P|56:272|160:288,1,240,2|2,0:0|0:0,0:0:0:0:
296,296,22555,1,8,0:0:0:0:
440,296,22841,6,0,L|192:296,1,240,0|2,0:0|0:0,0:0:0:0:
344,296,23698,1,8,0:0:0:0:
64,224,23984,6,0,P|64:136|208:80,1,240,4|0,0:0|0:0,0:0:0:0:
328,64,24841,1,8,0:0:0:0:
184,64,25126,6,0,L|314:63,2,120,2|8|2,0:0|0:0|0:0,0:0:0:0:
72,152,25984,1,8,0:0:0:0:
216,144,26269,6,0,P|328:176|320:296,1,240,2|0,0:0|0:0,0:0:0:0:
200,200,27126,1,8,0:0:0:0:
343,190,27412,6,0,P|346:113|206:69,1,240,2|0,0:0|0:0,0:0:0:0:
56,64,28269,1,8,0:0:0:0:
344,96,28555,6,0,L|472:96,1,120,4|8,0:0|0:0,0:0:0:0:
320,102,29126,2,0,L|200:102,1,120,2|8,0:0|0:0,0:0:0:0:
344,106,29698,6,0,L|472:106,2,120,2|8|0,0:0|0:0|0:0,0:0:0:0:
162,254,30555,6,0,P|134:189|270:117,1,240,8|8,0:0|0:0,0:0:0:0:
395,109,31412,1,2,0:0:0:0:
251,107,31698,1,8,0:0:0:0:
395,109,31984,1,2,0:0:0:0:
252,176,32269,6,0,L|251:297,1,120,12|2,0:0|0:0,0:0:0:0:
400,200,32841,1,8,0:0:0:0:
120,328,33126,6,0,P|61:267|152:160,1,240,4|2,0:0|0:0,0:0:0:0:
256,88,33984,1,8,0:0:0:0:
120,88,34269,6,0,L|248:88,1,120,2|8,0:0|0:0,0:0:0:0:
384,88,34841,1,2,0:0:0:0:
240,88,35126,1,8,0:0:0:0:
384,88,35412,6,0,L|248:88,1,120,2|8,0:0|0:0,0:0:0:0:
112,96,35984,2,0,L|208:176,1,120,2|8,0:0|0:0,0:0:0:0:
368,88,36555,6,0,P|384:208|280:248,1,240,2|2,0:0|0:0,0:0:0:0:
146,250,37412,1,8,0:0:0:0:
419,247,37698,6,0,P|467:208|442:149,1,120,4|8,0:0|0:0,0:0:0:0:
309,158,38269,1,2,0:0:0:0:
453,158,38555,1,8,0:0:0:0:
309,158,38841,6,0,P|210:175|212:298,1,240,2|2,0:0|0:0,0:0:0:0:
353,291,39698,1,8,0:0:0:0:
209,295,39984,6,0,L|73:295,1,120,2|8,0:0|0:0,0:0:0:0:
233,206,40555,2,0,P|290:229|297:297,1,120,2|8,0:0|0:0,0:0:0:0:
144,80,41126,6,0,P|41:106|96:208,1,240,2|2,0:0|0:0,0:0:0:0:
178,320,41984,1,8,0:0:0:0:
464,272,42269,6,0,P|464:160|348:120,1,240,4|0,0:0|0:0,0:0:0:0:
202,166,43126,2,0,L|83:165,1,120,8|2,0:0|0:0,0:0:0:0:
218,82,43698,5,8,0:0:0:0:
363,84,43984,1,2,0:0:0:0:
218,82,44269,1,8,0:0:0:0:
72,291,44555,6,0,P|48:184|175:137,1,240,2|2,0:0|0:0,0:0:0:0:
256,152,45412,1,8,0:0:0:0:
397,183,45698,6,0,P|359:106|207:87,1,240,2|2,0:0|0:0,0:0:0:0:
72,168,46555,1,8,0:0:0:0:
350,196,46841,6,0,B|469:198,1,120,4|8,0:0|0:0,0:0:0:0:
325,195,47412,1,2,0:0:0:0:
180,194,47698,1,8,0:0:0:0:
336,80,47984,6,0,P|440:136|360:184,1,240,2|2,0:0|0:0,0:0:0:0:
248,184,48841,1,8,0:0:0:0:
120,256,49126,6,0,P|80:160|200:136,1,240,2|2,0:0|0:0,0:0:0:0:
328,128,49984,1,0,0:0:0:0:
456,312,50269,6,8,L|320:312,1,120
192,152,50841,1,8,0:0:0:0:
128,152,50984,1,8,0:0:0:0:
64,152,51126,1,8,0:0:0:0:
343,150,51412,6,0,P|435:170|395:283,1,240,6|2,0:0|0:0,0:0:0:0:
264,280,52269,1,8,0:0:0:0:
398,281,52555,6,0,P|384:184|248:152,1,240,2|2,0:0|0:0,0:0:0:0:
392,152,53412,1,8,0:0:0:0:
261,146,53698,6,0,P|200:112|200:48,1,120,2|8,0:0|0:0,0:0:0:0:
328,72,54269,1,2,0:0:0:0:
193,67,54555,6,0,L|329:67,2,120,8|2|8,0:0|0:0|0:0,0:0:0:0:
328,64,55412,2,0,L|400:64,2,60,2|0|8,0:0|0:0|0:0,0:0:0:0:
48,320,55984,6,0,P|56:208|144:112,1,240,6|2,0:0|0:0,0:0:0:0:
264,104,56841,1,8,0:0:0:0:
392,112,57126,6,0,P|376:248|304:344,1,240,2|2,0:0|0:0,0:0:0:0:
176,320,57984,1,8,0:0:0:0:
304,320,58269,6,0,L|172:321,1,120,2|8,0:0|0:0,0:0:0:0:
72,248,58841,2,0,L|208:248,1,120,2|8,0:0|0:0,0:0:0:0:
320,256,59412,6,0,P|320:152|192:96,1,240,2|2,0:0|0:0,0:0:0:0:
80,88,60269,1,8,0:0:0:0:
360,96,60555,6,0,L|480:96,2,120,6|8|2,0:0|0:0|0:0,0:0:0:0:
224,128,61412,6,0,P|117:201|165:297,1,240,8|8,0:0|0:0,0:0:0:0:
288,288,62269,1,0,0:0:0:0:
148,286,62555,1,8,0:0:0:0:
288,272,62841,6,0,L|176:224,1,120,6|8,0:0|0:0,0:0:0:0:
32,192,63412,1,2,0:0:0:0:
152,88,63698,6,0,L|392:176,1,240,8|8,0:0|0:0,0:0:0:0:
248,256,64555,1,0,0:0:0:0:
384,256,64841,1,8,0:0:0:0:
112,320,65126,6,0,L|112:192,1,120,6|8,0:0|0:0,0:0:0:0:
248,200,65698,1,2,0:0:0:0:
112,200,65984,1,8,0:0:0:0:
240,200,66269,6,0,L|370:199,2,120,2|8|2,0:0|0:0|0:0,0:0:0:0:
376,208,67126,1,8,0:0:0:0:
248,200,67412,6,0,P|144:168|216:96,1,240,6|2,0:0|0:0,0:0:0:0:
336,96,68269,1,8,0:0:0:0:
202,95,68555,1,2,0:0:0:0:
336,96,68841,1,8,0:0:0:0:
464,96,69126,5,2,0:0:0:0:
448,160,69269,1,8,0:0:0:0:
416,216,69412,1,8,0:0:0:0:
152,104,69698,6,0,P|56:136|80:256,1,240,6|2,0:0|0:0,0:0:0:0:
208,256,70555,1,8,0:0:0:0:
75,253,70841,6,0,P|67:133|179:93,1,240,2|2,0:0|0:0,0:0:0:0:
296,96,71698,1,8,0:0:0:0:
162,89,71984,5,0,0:0:0:0:
296,88,72269,2,0,L|416:88,2,120,8|2|8,0:0|0:0|0:0,0:0:0:0:
432,88,73126,5,2,0:0:0:0:
296,88,73412,1,8,0:0:0:0:
160,88,73698,2,0,L|88:88,2,60,2|0|8,0:0|0:0|0:0,0:0:0:0:
440,248,74269,6,0,P|424:136|312:104,1,240,6|2,0:0|0:0,0:0:0:0:
184,104,75126,1,8,0:0:0:0:
64,168,75412,6,0,P|72:288|168:280,1,240,2|2,0:0|0:0,0:0:0:0:
296,280,76269,1,8,0:0:0:0:
184,208,76555,6,0,L|320:208,2,120,2|8|2,0:0|0:0|0:0,0:0:0:0:
320,208,77412,1,8,0:0:0:0:
184,208,77698,6,0,P|104:128|184:104,1,240,2|2,0:0|0:0,0:0:0:0:
312,104,78555,1,8,0:0:0:0:
47,303,78841,6,0,P|51:240|117:207,1,120,6|8,0:0|0:0,0:0:0:0:
211,136,79412,1,2,0:0:0:0:
352,239,79698,6,0,P|407:151|308:69,1,240,8|8,0:0|0:0,0:0:0:0:
176,64,80555,1,0,0:0:0:0:
42,67,80841,1,8,0:0:0:0:
193,129,81126,6,0,L|321:129,1,120,6|8,0:0|0:0,0:0:0:0:
177,129,81698,1,2,0:0:0:0:
313,129,81984,6,0,P|421:144|413:253,1,240,8|8,0:0|0:0,0:0:0:0:
281,249,82841,1,0,0:0:0:0:
413,253,83126,1,8,0:0:0:0:
137,313,83412,6,0,B|153:193,1,120,6|8,0:0|0:0,0:0:0:0:
313,185,83984,2,0,L|281:57,1,120,2|8,0:0|0:0,0:0:0:0:
137,81,84555,6,0,L|273:81,1,120,6|8,0:0|0:0,0:0:0:0:
393,81,85126,2,0,L|417:208,1,120,2|8,0:0|0:0,0:0:0:0:
136,80,85698,6,0,P|48:120|192:168,1,360,6|8,0:0|0:0,0:0:0:0:
456,128,86823,6,8,L|312:128,1,120,8|8,0:0|0:0,0:0:0:0:
64,256,87394,2,8,L|192:256,1,120,8|8,0:0|0:0,0:0:0:0:
456,296,87965,5,6,0:0:0:0:
