osu file format v14

[General]
AudioFilename: audio.mp3
AudioLeadIn: 0
PreviewTime: 50841
Countdown: 0
SampleSet: Normal
StackLeniency: 0.7
Mode: 2
LetterboxInBreaks: 0
WidescreenStoryboard: 0

[Editor]
DistanceSpacing: 1.3
BeatDivisor: 1
GridSize: 32
TimelineZoom: 3.899999

[Metadata]
Title:U&I
TitleUnicode:U&I
Artist:HO-KAGO TEA TIME
ArtistUnicode:放課後ティータイム
Creator:Ponchiwi
Version:Cup
Source:けいおん!!
Tags:放課後ティータイム K-ON! HTT anime 平沢唯 hirasawa yui 平沢憂 hirasawa ui 豊崎愛生 toyosaki aki Seria
BeatmapID:1786451
BeatmapSetID:854941

[Difficulty]
HPDrainRate:3
CircleSize:2
OverallDifficulty:6
ApproachRate:6
SliderMultiplier:1
SliderTickRate:1

[Events]
//Background and Video events
0,0,"k-on!.jpg",0,0
//Break Periods
//Storyboard Layer 0 (Background)
//Storyboard Layer 1 (Fail)
//Storyboard Layer 2 (Pass)
//Storyboard Layer 3 (Foreground)
//Storyboard Layer 4 (Overlay)
//Storyboard Sound Samples

[TimingPoints]
-16,285.714285714286,4,1,0,80,1,0
1126,-100,4,2,1,60,0,0
10269,-100,4,2,1,60,0,0
13698,-100,4,2,1,70,0,0
14841,-100,4,2,1,60,0,0
33126,-100,4,2,1,55,0,0
42269,-100,4,2,1,50,0,0
50269,-100,4,2,1,60,0,0
51412,-100,4,2,1,60,0,1
60555,-100,4,2,1,60,0,1
69126,-100,4,2,1,60,0,0
69698,-100,4,2,1,70,0,1
78841,-100,4,2,1,70,0,0
86823,285.714285714286,4,2,1,75,1,1
86823,-100,4,2,1,75,0,1
87965,-100,4,2,1,60,0,0

[Colours]
Combo1 : 236,245,148
Combo2 : 255,166,166
Combo3 : 165,244,138
Combo4 : 242,183,247
Combo5 : 175,184,239

[HitObjects]
192,80,1126,6,0,P|112:112|96:216,1,200,6|0,0:0|0:0,0:0:0:0:
276,264,2269,6,0,P|376:224|376:128,1,200,2|0,0:0|0:0,0:0:0:0:
160,256,3412,6,0,P|128:160|224:128,1,200,2|0,0:0|0:0,0:0:0:0:
328,120,4269,2,0,L|432:120,1,100,8|2,0:0|0:0,0:0:0:0:
168,128,5126,1,2,0:0:0:0:
384,168,5698,6,0,P|401:261|321:310,1,200,6|0,0:0|0:0,0:0:0:0:
193,310,6555,1,8,0:0:0:0:
321,310,6841,5,2,0:0:0:0:
112,72,7412,1,0,0:0:0:0:
384,256,7984,6,0,P|448:208|370:162,1,200,2|0,0:0|0:0,0:0:0:0:
256,192,8841,1,8,0:0:0:0:
160,112,9126,6,0,L|360:56,1,200,2|2,0:0|0:0,0:0:0:0:
144,272,10269,6,0,B|376:272,2,200,2|8|2,0:0|0:0|0:0,0:0:0:0:
272,272,11698,5,0,0:0:0:0:
144,272,11984,1,2,0:0:0:0:
272,272,12269,1,8,0:0:0:0:
416,272,12555,6,0,P|440:192|336:152,1,200,2|0,0:0|0:0,0:0:0:0:
172,104,13698,6,0,L|40:104,1,100,8|8,0:0|0:0,0:0:0:0:
172,104,14269,2,0,L|304:104,1,100,8|8,0:0|0:0,0:0:0:0:
416,96,14841,6,0,P|424:196|300:229,1,200,4|0,0:0|0:0,0:0:0:0:
216,244,15698,1,8,0:0:0:0:
336,248,15984,6,0,L|320:136,1,100,2|8,0:0|0:0,0:0:0:0:
168,136,16555,2,0,L|53:137,1,100,2|8,0:0|0:0,0:0:0:0:
188,140,17126,6,0,P|280:180|296:272,1,200,2|0,0:0|0:0,0:0:0:0:
450,209,18269,6,0,P|442:119|345:78,1,200,2|0,0:0|0:0,0:0:0:0:
225,74,19126,1,8,0:0:0:0:
96,271,19412,6,0,P|124:179|224:163,1,200,4|0,0:0|0:0,0:0:0:0:
336,164,20269,1,8,0:0:0:0:
216,160,20555,5,2,0:0:0:0:
336,164,20841,1,8,0:0:0:0:
208,160,21126,2,0,L|96:160,1,100,2|8,0:0|0:0,0:0:0:0:
248,160,21698,6,0,P|336:176|328:275,1,200,2|2,0:0|0:0,0:0:0:0:
69,192,22841,6,0,P|69:96|184:96,1,200,0|2,0:0|0:0,0:0:0:0:
280,73,23698,1,8,0:0:0:0:
442,201,23984,6,0,P|462:290|376:320,1,200,4|0,0:0|0:0,0:0:0:0:
204,208,24841,1,8,0:0:0:0:
320,208,25126,6,0,L|480:208,1,100,2|8,0:0|0:0,0:0:0:0:
304,208,25698,2,0,L|192:208,1,100,2|8,0:0|0:0,0:0:0:0:
80,128,26269,6,0,L|304:128,1,200,2|0,0:0|0:0,0:0:0:0:
160,128,27126,1,8,0:0:0:0:
288,128,27412,6,0,P|372:174|380:270,1,200,2|0,0:0|0:0,0:0:0:0:
272,320,28269,1,8,0:0:0:0:
130,122,28555,6,0,B|46:190|46:190|130:234,1,200,4|2,0:0|0:0,0:0:0:0:
360,200,29698,2,0,P|360:120|232:84,1,200,2|0,0:0|0:0,0:0:0:0:
112,112,30555,6,0,P|80:256|288:128,1,500,8|2,0:0|0:0,0:0:0:0:
432,112,32555,2,0,L|320:112,1,100,2|8,0:0|0:0,0:0:0:0:
176,304,33126,6,0,P|160:224|272:176,1,200,4|2,0:0|0:0,0:0:0:0:
384,176,33984,1,8,0:0:0:0:
248,96,34269,6,0,L|136:96,1,100,2|8,0:0|0:0,0:0:0:0:
288,64,34841,2,0,P|384:96|384:224,1,200,2|2,0:0|0:0,0:0:0:0:
191,320,35984,2,0,P|141:291|136:243,1,100,2|8,0:0|0:0,0:0:0:0:
248,57,36555,6,0,L|444:104,1,200,2|2,0:0|0:0,0:0:0:0:
320,208,37412,1,8,0:0:0:0:
192,176,37698,6,0,L|80:176,1,100,4|8,0:0|0:0,0:0:0:0:
208,176,38269,2,0,L|320:176,1,100,2|8,0:0|0:0,0:0:0:0:
192,176,38841,6,0,P|96:224|128:304,1,200,2|2,0:0|0:0,0:0:0:0:
264,276,39984,6,0,L|468:192,1,200,2|2,0:0|0:0,0:0:0:0:
240,108,41126,6,0,L|36:172,1,200,2|2,0:0|0:0,0:0:0:0:
132,304,41984,1,8,0:0:0:0:
288,112,42269,6,0,P|376:152|368:272,1,200,4|0,0:0|0:0,0:0:0:0:
248,256,43126,1,8,0:0:0:0:
128,144,43412,6,0,L|248:144,1,100,2|8,0:0|0:0,0:0:0:0:
344,240,43984,1,2,0:0:0:0:
232,240,44269,1,8,0:0:0:0:
120,240,44555,6,0,P|124:156|232:108,1,200,2|2,0:0|0:0,0:0:0:0:
448,104,45698,1,2,0:0:0:0:
240,120,46555,6,0,B|128:120,3,100,8|4|8|2,0:0|0:0|0:0|0:0,0:0:0:0:
248,120,47698,1,8,0:0:0:0:
360,120,47984,6,0,P|432:168|352:216,1,200,2|2,0:0|0:0,0:0:0:0:
160,289,49126,6,0,P|173:197|281:168,1,200,2|2,0:0|0:0,0:0:0:0:
379,164,49984,2,0,L|483:164,1,100,8|8,0:0|0:0,0:0:0:0:
240,152,50841,6,0,L|129:151,1,100,8|8,0:0|0:0,0:0:0:0:
272,152,51412,6,0,P|360:200|296:296,1,200,6|2,0:0|0:0,0:0:0:0:
208,288,52269,1,8,0:0:0:0:
80,288,52555,5,2,0:0:0:0:
212,256,53126,2,0,L|320:256,1,100,2|8,0:0|0:0,0:0:0:0:
432,256,53698,6,0,P|432:160|321:128,1,200,2|2,0:0|0:0,0:0:0:0:
224,120,54555,6,0,L|100:120,1,100,8|2,0:0|0:0,0:0:0:0:
336,136,55412,2,0,L|448:136,1,100,2|8,0:0|0:0,0:0:0:0:
300,276,55984,6,0,P|232:208|300:184,1,200,6|2,0:0|0:0,0:0:0:0:
416,184,56841,1,8,0:0:0:0:
294,182,57126,6,0,P|214:150|194:34,1,200,2|2,0:0|0:0,0:0:0:0:
308,52,57984,1,8,0:0:0:0:
188,56,58269,6,0,P|96:104|120:216,1,200,2|2,0:0|0:0,0:0:0:0:
200,256,59126,1,8,0:0:0:0:
308,56,59412,6,0,P|420:164|300:236,1,300,2|8,0:0|0:0,0:0:0:0:
200,240,60555,5,6,0:0:0:0:
328,240,60841,2,0,P|363:273|363:329,1,100,8|2,0:0|0:0,0:0:0:0:
220,140,61412,6,0,P|237:235|326:270,1,200,8|8,0:0|0:0,0:0:0:0:
445,264,62269,1,0,0:0:0:0:
325,266,62555,1,8,0:0:0:0:
204,264,62841,6,0,L|104:264,2,100,6|8|2,0:0|0:0|0:0,0:0:0:0:
341,167,63698,6,0,P|413:219|413:355,1,200,8|8,0:0|0:0,0:0:0:0:
308,310,64555,1,0,0:0:0:0:
427,323,64841,1,8,0:0:0:0:
308,310,65126,6,0,L|198:310,1,100,6|8,0:0|0:0,0:0:0:0:
328,308,65698,2,0,L|360:211,1,100,2|8,0:0|0:0,0:0:0:0:
240,212,66269,5,2,0:0:0:0:
120,212,66555,2,0,L|256:212,1,100,8|2,0:0|0:0,0:0:0:0:
340,220,67126,1,8,0:0:0:0:
220,204,67412,6,0,P|136:160|200:88,1,200,6|2,0:0|0:0,0:0:0:0:
312,88,68269,2,0,L|424:88,1,100,8|2,0:0|0:0,0:0:0:0:
168,112,69126,6,0,L|68:112,1,100,2|8,0:0|0:0,0:0:0:0:
216,108,69698,6,0,P|312:140|324:232,1,200,6|2,0:0|0:0,0:0:0:0:
444,232,70555,1,8,0:0:0:0:
325,227,70841,5,2,0:0:0:0:
84,224,71412,1,2,0:0:0:0:
204,228,71698,1,8,0:0:0:0:
324,232,71984,6,0,P|412:192|432:96,1,200,0|2,0:0|0:0,0:0:0:0:
312,96,72841,2,0,L|208:96,1,100,8|2,0:0|0:0,0:0:0:0:
452,84,73698,6,0,L|452:188,1,100,2|8,0:0|0:0,0:0:0:0:
320,184,74269,1,6,0:0:0:0:
152,296,74841,6,0,L|40:296,2,100,2|8|2,0:0|0:0|0:0,0:0:0:0:
352,296,75984,1,2,0:0:0:0:
472,296,76269,1,8,0:0:0:0:
352,296,76555,6,0,P|264:240|248:144,1,200,2|2,0:0|0:0,0:0:0:0:
128,152,77412,1,8,0:0:0:0:
248,160,77698,6,0,P|334:185|350:297,1,200,2|2,0:0|0:0,0:0:0:0:
236,284,78555,1,8,0:0:0:0:
116,276,78841,5,6,0:0:0:0:
236,284,79126,1,8,0:0:0:0:
356,284,79412,1,2,0:0:0:0:
236,284,79698,6,0,P|148:240|156:134,1,200,8|8,0:0|0:0,0:0:0:0:
386,154,80841,5,8,0:0:0:0:
266,152,81126,1,6,0:0:0:0:
145,155,81412,2,0,L|245:155,1,100,8|2,0:0|0:0,0:0:0:0:
391,193,81984,6,0,P|383:101|285:73,1,200,8|8,0:0|0:0,0:0:0:0:
64,88,83126,1,8,0:0:0:0:
176,88,83412,6,0,B|416:88,1,200,6|2,0:0|0:0,0:0:0:0:
152,80,84555,6,0,P|64:128|64:240,1,200,6|2,0:0|0:0,0:0:0:0:
272,192,85698,6,0,P|368:216|272:320,1,300,6|8,0:0|0:0,0:0:0:0:
160,328,86823,6,0,L|40:328,1,100,8|8,0:0|0:0,0:0:0:0:
168,328,87394,2,0,L|288:328,1,100,8|8,0:0|0:0,0:0:0:0:
440,240,87965,5,6,0:0:0:0:
