osu file format v14

[General]
AudioFilename: audio.mp3
AudioLeadIn: 0
PreviewTime: 77185
Countdown: 1
SampleSet: Soft
StackLeniency: 0.2
Mode: 0
LetterboxInBreaks: 0
WidescreenStoryboard: 0

[Editor]
Bookmarks: 11356,22327,33299,38785,44270,47013,49756,55242,60727,63813,66213,71699,72042,72385,77185,79927,82499,88156,90899,93642,96385,99127,115453,120938,131910,142881
DistanceSpacing: 1.3
BeatDivisor: 4
GridSize: 8
TimelineZoom: 3.399999

[Metadata]
Title:Tenshi ni Fureta yo! (Asterisk DnB Remix)
TitleUnicode:Tenshi ni Fureta yo! (Asterisk DnB Remix)
Artist:HO-KAGO TEA TIME
ArtistUnicode:HO-KAGO TEA TIME
Creator:hlanden
Version:Heaven
Source:K-ON!!
Tags:
BeatmapID:1565612
BeatmapSetID:742238

[Difficulty]
HPDrainRate:6.4
CircleSize:4
OverallDifficulty:8.8
ApproachRate:9.2
SliderMultiplier:1.6
SliderTickRate:1

[Events]
//Background and Video events
0,0,"k-on-anime-hd-wallpaper-1920x1080-9478.jpg",0,0
//Break Periods
//Storyboard Layer 0 (Background)
//Storyboard Layer 1 (Fail)
//Storyboard Layer 2 (Pass)
//Storyboard Layer 3 (Foreground)
//Storyboard Sound Samples

[TimingPoints]
385,342.857142857143,4,2,0,69,1,0
385,-86.9565217391304,4,2,0,69,0,0
3127,-100,4,2,0,69,0,0
11356,-90.9090909090909,4,2,0,69,0,0
18899,-133.333333333333,4,2,0,69,0,0
19242,-200,4,2,0,69,0,0
19585,-90.9090909090909,4,2,0,69,0,0
22327,-100,4,2,0,69,0,0
23527,-105.263157894737,4,2,0,69,0,0
23870,-111.111111111111,4,2,0,69,0,0
24213,-117.647058823529,4,2,0,69,0,0
24556,-125,4,2,0,69,0,0
25070,-100,4,2,0,69,0,0
34499,-105.263157894737,4,2,0,69,0,0
34842,-111.111111111111,4,2,0,69,0,0
35185,-117.647058823529,4,2,0,69,0,0
35527,-125,4,2,0,69,0,0
36042,-100,4,2,0,69,0,0
38785,-90.9090909090909,4,2,0,69,0,0
44270,-133.333333333333,4,2,0,69,0,0
55242,-100,4,2,0,69,0,0
60727,-111.111111111111,4,2,0,69,0,0
66213,-111.111111111111,4,2,0,69,0,0
68270,-90.9090909090909,4,2,0,69,0,0
68613,-95.2380952380952,4,2,0,69,0,0
68956,-100,4,2,0,69,0,0
69299,-105.263157894737,4,2,0,69,0,0
69985,-100,4,2,0,69,0,0
70327,-95.2380952380952,4,2,0,69,0,0
70670,-90.9090909090909,4,2,0,69,0,0
71699,-90.9090909090909,4,2,0,69,0,0
77185,-83.3333333333333,4,2,0,69,0,1
93642,-90.9090909090909,4,2,0,69,0,0
99127,-100,4,2,0,69,0,0

[Colours]
Combo1 : 75,179,254
Combo2 : 0,255,255
Combo3 : 253,255,255
Combo4 : 75,214,207

[HitObjects]
80,48,385,6,0,B|117:2|184:17,1,92.0000017547608
151,106,727,1,0,0:0:0:0:
161,13,899,1,0,0:0:0:0:
237,74,1070,6,0,B|258:129|211:179,1,92.0000017547608
151,106,1412,1,0,0:0:0:0:
226,161,1584,1,0,0:0:0:0:
136,197,1756,6,0,B|77:187|57:122,1,92.0000017547608
151,106,2098,1,0,0:0:0:0:
65,143,2270,1,0,0:0:0:0:
80,48,2442,5,0,0:0:0:0:
136,197,2613,1,0,0:0:0:0:
65,143,2785,5,0,0:0:0:0:
221,211,2956,1,0,0:0:0:0:
362,275,3127,6,0,L|313:190,1,80
275,127,3471,1,0,0:0:0:0:
354,127,3642,1,0,0:0:0:0:
446,132,3813,6,0,L|396:216,1,80
362,275,4156,1,0,0:0:0:0:
322,205,4327,1,0,0:0:0:0:
275,127,4499,6,0,L|372:126,1,80
446,132,4842,1,0,0:0:0:0:
404,204,5013,1,0,0:0:0:0:
407,52,5185,5,0,0:0:0:0:
315,204,5356,1,0,0:0:0:0:
319,51,5527,5,0,0:0:0:0:
275,127,5698,1,0,0:0:0:0:
225,199,5870,6,0,P|204:239|203:293,2,80
260,346,6385,2,0,P|279:311|284:271,2,80
260,346,6899,1,0,0:0:0:0:
171,357,7070,1,0,0:0:0:0:
79,362,7242,6,0,L|-15:367,2,80
171,357,7756,2,0,L|265:351,2,80
171,357,8270,1,0,0:0:0:0:
120,282,8442,1,0,0:0:0:0:
240,272,8613,6,0,B|288:278|314:250,1,80
232,104,8956,2,0,B|226:152|254:178,1,80
392,88,9299,2,0,B|344:82|308:118,1,80
400,248,9642,2,0,B|406:200|379:173,1,80
240,272,9985,5,0,0:0:0:0:
162,361,10156,1,0,0:0:0:0:
212,197,10327,5,0,0:0:0:0:
77,243,10498,1,0,0:0:0:0:
192,120,10670,5,0,0:0:0:0:
0,80,10841,1,0,0:0:0:0:
212,197,11013,5,0,0:0:0:0:
77,243,11185,1,0,0:0:0:0:
192,120,11356,6,0,P|175:95|169:66,2,44.0000013427735
264,64,11699,1,0,0:0:0:0:
264,64,11784,1,0,0:0:0:0:
264,64,11870,1,0,0:0:0:0:
282,150,12042,6,0,P|268:184|247:204,2,44.0000013427735
198,122,12385,1,0,0:0:0:0:
198,122,12471,1,0,0:0:0:0:
198,122,12557,1,0,0:0:0:0:
264,64,12727,6,0,P|301:64|330:74,2,44.0000013427735
282,150,13070,1,0,0:0:0:0:
282,150,13156,1,0,0:0:0:0:
282,150,13241,1,0,0:0:0:0:
263,64,13413,6,0,P|285:63|307:67,1,44.0000013427735
282,150,13585,2,0,P|268:175|247:196,1,44.0000013427735
198,122,13756,2,0,P|187:102|180:82,1,44.0000013427735
264,64,13927,2,0,P|293:64|321:74,1,44.0000013427735
472,176,14099,6,0,L|449:138,2,44.0000013427735
379,201,14442,1,0,0:0:0:0:
379,201,14527,1,0,0:0:0:0:
379,201,14613,1,0,0:0:0:0:
344,288,14785,6,0,L|419:290,2,44.0000013427735
379,201,15127,1,0,0:0:0:0:
379,201,15213,1,0,0:0:0:0:
379,201,15299,1,0,0:0:0:0:
322,128,15470,6,0,L|282:191,2,44.0000013427735
379,201,15812,1,0,0:0:0:0:
379,201,15898,1,0,0:0:0:0:
379,201,15984,1,0,0:0:0:0:
472,176,16156,6,0,L|435:115,1,44.0000013427735
349,292,16327,2,0,L|422:288,1,44.0000013427735
322,128,16499,2,0,P|306:154|285:193,1,44.0000013427735
472,176,16670,2,0,L|435:115,1,44.0000013427735
227,128,16842,6,0,P|175:117|119:132,1,88.000002685547
170,290,17185,2,0,P|181:238|166:182,1,88.000002685547
8,233,17527,2,0,P|60:244|116:229,1,88.000002685547
65,71,17870,2,0,P|54:123|69:179,1,88.000002685547
65,162,18127,1,0,0:0:0:0:
65,162,18213,5,0,0:0:0:0:
32,0,18385,1,0,0:0:0:0:
136,112,18556,5,0,0:0:0:0:
120,16,18727,1,0,0:0:0:0:
226,87,18899,6,0,L|211:10,1,60.0000022888184
315,60,19242,2,0,L|307:20,1,40
398,21,19585,5,0,0:0:0:0:
226,87,19756,1,0,0:0:0:0:
315,60,19927,5,0,0:0:0:0:
109,14,20099,1,0,0:0:0:0:
254,6,20270,5,0,0:0:0:0:
110,161,20442,1,0,0:0:0:0:
231,90,20613,5,0,2:0:0:0:
185,315,20785,1,0,2:0:0:0:
315,60,20956,5,0,0:0:0:0:
341,100,21041,1,0,0:0:0:0:
380,120,21127,1,0,0:0:0:0:
423,119,21213,1,0,0:0:0:0:
466,98,21299,5,0,0:0:0:0:
439,91,21384,1,0,0:0:0:0:
412,95,21470,1,0,0:0:0:0:
389,109,21556,1,0,0:0:0:0:
373,131,21641,1,0,0:0:0:0:
367,158,21727,1,0,0:0:0:0:
372,185,21813,1,0,0:0:0:0:
388,207,21899,1,0,0:0:0:0:
410,221,21984,5,0,0:0:0:0:
400,24,22156,1,0,0:0:0:0:
491,179,22327,2,0,P|502:214|492:266,1,80
412,384,22670,2,0,P|406:344|417:306,1,80
344,272,23013,1,0,0:0:0:0:
344,272,23185,6,0,L|256:280,1,80
122,341,23527,2,0,L|202:333,1,75.9999979705811
141,191,23870,2,0,P|150:233|149:263,1,71.9999978027344,0|0,3:0|3:0,3:0:0:0:
2,243,24213,2,0,P|44:235|70:239,1,68.0000012969971
44,381,24556,2,0,P|33:349|41:313,1,64
64,160,24899,1,0,0:0:0:0:
169,82,25070,6,0,B|88:108|100:53|-12:104,1,160
128,8,25585,1,0,0:0:0:0:
64,160,25756,2,0,P|19:176|-21:169,1,80
131,12,26099,2,0,P|177:-2|218:12,1,80
328,106,26442,6,0,B|295:92|256:104|256:104|245:87|245:87|206:100|168:85,1,160
291,182,26956,1,0,0:0:0:0:
206,5,27127,5,0,0:0:0:0:
291,182,27299,1,0,0:0:0:0:
131,12,27470,1,0,0:0:0:0:
325,108,27642,1,0,0:0:0:0:
325,108,27813,6,0,B|328:162|365:179|365:179|328:162|275:190,1,160
335,260,28327,1,0,0:0:0:0:
409,106,28499,5,0,0:0:0:0:
335,260,28670,1,0,0:0:0:0:
325,108,28842,5,0,0:0:0:0:
294,179,29013,1,0,0:0:0:0:
451,188,29185,6,0,L|544:216,1,80
373,187,29527,5,0,0:0:0:0:
463,30,29699,1,0,0:0:0:0:
451,188,29870,5,0,0:0:0:0:
368,32,30042,1,0,0:0:0:0:
511,114,30213,5,0,0:0:0:0:
325,108,30385,1,0,0:0:0:0:
325,108,30556,6,0,B|293:93|285:57|285:57|271:112|304:172,1,160
368,32,31070,1,0,0:0:0:0:
368,208,31242,2,0,P|336:233|287:242,1,80
129,204,31585,2,0,P|160:179|209:170,1,80
288,384,31927,6,0,B|258:328|258:328|225:304|225:304|199:244,1,160
190,384,32442,1,0,0:0:0:0:
202,376,32527,1,0,0:0:0:0:
288,240,32699,1,0,0:0:0:0:
285,256,32785,1,0,0:0:0:0:
115,283,32956,5,0,0:0:0:0:
288,384,33127,1,0,0:0:0:0:
288,384,33213,1,0,0:0:0:0:
288,384,33299,6,0,L|392:368,1,80
434,226,33642,2,0,B|437:266|449:288|449:288|439:320|439:320|455:342|453:379,1,160
417,128,34156,6,0,L|402:44,1,80
352,194,34499,2,0,L|270:205,1,75.9999979705811
91,242,34842,2,0,L|168:229,1,71.9999978027344
193,80,35185,2,0,L|205:153,1,68.0000012969971
245,350,35527,2,0,L|232:278,1,64
204,147,35870,1,0,0:0:0:0:
342,278,36042,6,0,B|404:270|404:270|431:252|431:252|494:243,1,160
233,287,36556,1,0,0:0:0:0:
434,167,36727,2,0,L|532:151,1,80
424,352,37070,2,0,L|325:363,1,80
347,186,37413,5,0,0:0:0:0:
511,334,37585,1,0,0:0:0:0:
344,360,37756,1,0,0:0:0:0:
512,147,37927,1,0,0:0:0:0:
347,186,38099,5,0,0:0:0:0:
511,334,38270,1,0,0:0:0:0:
512,147,38442,5,0,0:0:0:0:
344,360,38613,1,0,0:0:0:0:
346,185,38785,6,0,P|354:206|358:228,3,44.0000013427735
303,63,39127,2,0,P|294:43|290:22,3,44.0000013427735
384,32,39470,5,0,0:0:0:0:
384,32,39556,1,0,0:0:0:0:
384,32,39642,2,0,L|438:21,1,44.0000013427735
276,224,39813,5,0,0:0:0:0:
276,224,39899,1,0,0:0:0:0:
276,224,39985,2,0,L|232:232,1,44.0000013427735
267,0,40156,5,0,0:0:0:0:
263,43,40241,1,0,0:0:0:0:
278,83,40327,1,0,0:0:0:0:
308,115,40413,1,0,0:0:0:0:
347,127,40499,2,0,P|365:138|382:154,3,44.0000013427735
348,307,40842,5,0,0:0:0:0:
382,278,40927,1,0,0:0:0:0:
401,238,41013,1,0,0:0:0:0:
400,194,41099,1,0,0:0:0:0:
382,154,41185,2,0,P|366:139|346:127,3,44.0000013427735
267,0,41527,6,0,P|263:22|264:44,1,44.0000013427735
191,175,41699,2,0,P|211:168|229:156,1,44.0000013427735
382,154,41870,2,0,P|364:139|344:130,1,44.0000013427735
267,0,42042,2,0,P|263:22|264:44,1,44.0000013427735
300,233,42213,6,0,L|299:277,1,44.0000013427735
376,44,42384,2,0,L|416:24,1,44.0000013427735
173,71,42556,2,0,L|136:48,1,44.0000013427735
300,233,42727,2,0,L|299:277,1,44.0000013427735
112,158,42900,5,0,0:0:0:0:
112,210,42985,1,0,0:0:0:0:
149,246,43071,1,0,0:0:0:0:
201,245,43157,1,0,0:0:0:0:
236,208,43242,5,0,0:0:0:0:
272,170,43328,1,0,0:0:0:0:
323,169,43414,1,0,0:0:0:0:
361,205,43500,1,0,0:0:0:0:
360,255,43585,5,0,0:0:0:0:
325,293,43670,1,0,0:0:0:0:
272,296,43756,1,0,0:0:0:0:
236,258,43842,1,0,0:0:0:0:
236,208,43927,5,0,0:0:0:0:
108,314,44099,1,0,0:0:0:0:
93,153,44270,6,0,P|86:108|121:41,1,120.000004577637
171,111,44785,1,0,0:0:0:0:
205,33,44956,2,0,B|234:13|234:13|264:8,2,60.0000022888184
264,88,45470,1,0,0:0:0:0:
332,40,45642,5,0,0:0:0:0:
339,122,45813,1,0,0:0:0:0:
264,88,45985,1,0,0:0:0:0:
271,170,46156,6,0,B|264:207|272:235|272:235|279:265|271:298,1,120.000004577637
211,346,46670,1,0,0:0:0:0:
195,266,46842,1,0,0:0:0:0:
272,289,47013,6,0,B|279:265|272:235|272:235|264:207|271:170,1,120.000004577637
352,200,47527,1,0,0:0:0:0:
336,112,47699,2,0,B|372:109|372:109|400:120,2,60.0000022888184
270,170,48213,1,0,0:0:0:0:
188,140,48385,5,0,0:0:0:0:
199,225,48556,1,0,0:0:0:0:
270,170,48727,1,0,0:0:0:0:
279,268,48899,6,0,B|316:260|340:273|340:273|368:283|398:275,1,120.000004577637
385,190,49413,1,0,0:0:0:0:
474,223,49585,1,0,0:0:0:0:
474,223,49756,6,0,B|488:264|480:288,1,60.0000022888184
396,280,50099,1,0,0:0:0:0:
448,360,50270,1,0,0:0:0:0:
448,360,50442,1,0,0:0:0:0:
353,357,50613,2,0,L|289:351,1,60.0000022888184
208,344,50956,1,0,0:0:0:0:
208,344,51127,5,0,0:0:0:0:
192,264,51299,1,0,0:0:0:0:
125,314,51470,2,0,B|122:348|122:348|133:384,1,60.0000022888184
192,264,51813,2,0,B|195:230|195:230|184:194,1,60.0000022888184
117,237,52156,1,0,0:0:0:0:
135,130,52327,1,0,0:0:0:0:
135,130,52413,1,0,0:0:0:0:
135,130,52499,5,0,0:0:0:0:
38,171,52670,1,0,0:0:0:0:
236,111,52842,5,0,0:0:0:0:
155,31,53013,1,0,0:0:0:0:
204,207,53185,6,0,P|238:216|272:213,1,60.0000022888184
380,126,53527,2,0,P|346:117|312:120,1,60.0000022888184
204,197,53870,6,0,B|233:207|233:207|263:204,1,60.0000022888184
383,121,54213,1,0,0:0:0:0:
228,110,54385,1,0,0:0:0:0:
359,41,54556,1,0,0:0:0:0:
346,195,54727,5,0,0:0:0:0:
272,33,54899,1,0,0:0:0:0:
465,125,55070,1,0,0:0:0:0:
346,195,55242,6,0,B|360:288|320:264|346:370,1,160,0|0,2:0|2:0,2:0:0:0:
248,232,55756,2,0,L|166:217,2,80,0|0|0,2:0|2:0|2:0,2:0:0:0:
432,312,56270,1,0,0:0:0:0:
248,232,56442,1,0,0:0:0:0:
432,312,56613,2,0,L|514:327,2,80,0|0|0,2:0|2:0|2:0,2:0:0:0:
344,192,57127,6,0,B|358:285|318:261|344:367,1,160,0|0,2:0|2:0,2:0:0:0:
182,239,57642,2,0,P|238:231|278:247,1,80
65,383,57985,6,0,B|64:320|64:320|78:273|78:273|74:208,1,160
30,61,58499,1,0,0:0:0:0:
30,61,58670,2,0,L|37:147,1,80
122,154,59013,1,0,0:0:0:0:
233,3,59185,5,0,0:0:0:0:
122,154,59356,1,0,0:0:0:0:
301,96,59527,1,0,0:0:0:0:
121,38,59699,1,0,0:0:0:0:
232,192,59870,6,0,B|300:197|300:197|338:188|338:188|392:192,1,160
429,334,60385,2,0,B|388:312|388:312|362:261,1,80
456,244,60727,6,0,L|475:214,3,35.9999989013672
372,282,61070,2,0,L|389:315,3,35.9999989013672
390,191,61413,5,0,0:0:0:0:
390,191,61499,1,0,0:0:0:0:
390,191,61585,2,0,L|334:191,1,35.9999989013672
232,192,61756,5,0,0:0:0:0:
232,192,61842,1,0,0:0:0:0:
232,192,61928,2,0,L|288:192,1,35.9999989013672
475,179,62099,5,0,0:0:0:0:
466,153,62184,1,0,0:0:0:0:
450,130,62270,1,0,0:0:0:0:
429,114,62356,1,0,0:0:0:0:
405,101,62442,2,0,P|385:98|357:101,3,35.9999989013672
135,177,62785,5,0,0:0:0:0:
141,150,62870,1,0,0:0:0:0:
156,127,62956,1,0,0:0:0:0:
178,110,63042,1,0,0:0:0:0:
202,98,63128,2,0,P|226:94|250:98,1,35.9999989013672
308,36,63299,5,0,0:0:0:0:
308,36,63385,1,0,0:0:0:0:
308,36,63470,6,0,P|313:3|310:-28,1,35.9999989013672
300,164,63642,2,0,P|297:186|305:213,1,35.9999989013672
369,98,63813,6,0,P|387:98|405:101,1,35.9999989013672
237,94,63985,2,0,P|219:94|202:98,1,35.9999989013672
372,171,64156,6,0,L|412:203,1,35.9999989013672
240,24,64327,2,0,L|211:1,1,35.9999989013672
383,28,64499,6,0,L|405:0,1,35.9999989013672
229,167,64670,2,0,L|206:195,1,35.9999989013672
98,266,64842,5,0,0:0:0:0:
116,276,64927,1,0,0:0:0:0:
134,286,65013,1,0,0:0:0:0:
152,296,65099,1,0,0:0:0:0:
171,306,65185,5,0,0:0:0:0:
191,299,65270,1,0,0:0:0:0:
213,292,65356,1,0,0:0:0:0:
235,287,65442,1,0,0:0:0:0:
250,282,65527,5,0,0:0:0:0:
272,289,65612,1,0,0:0:0:0:
294,295,65698,1,0,0:0:0:0:
316,301,65784,1,0,0:0:0:0:
335,307,65869,5,0,0:0:0:0:
179,227,66041,1,0,0:0:0:0:
78,255,66213,6,0,B|69:215|84:184|84:184|96:152|84:115,1,143.999995605469
86,20,66727,2,0,P|50:27|22:46,1,71.9999978027344
166,69,67070,2,0,P|177:34|175:-1,1,71.9999978027344
84,115,67413,6,0,B|96:152|84:184|84:184|69:215|78:255,1,143.999995605469
0,224,67927,1,0,0:0:0:0:
0,224,68013,1,0,0:0:0:0:
0,224,68099,1,0,0:0:0:0:
7,317,68270,6,0,P|51:348|114:332,1,88.000002685547
163,384,68613,2,0,P|172:343|160:303,1,83.9999974365235
157,268,68870,1,0,0:0:0:0:
154,230,68956,6,0,P|144:191|153:152,1,80
304,208,69299,2,0,P|264:188|207:202,1,75.9999979705811
253,277,69642,6,0,P|293:297|350:283,1,75.9999979705811
337,128,69985,2,0,P|369:147|387:183,1,80
340,382,70327,6,0,P|382:367|410:308,1,83.9999974365235
468,150,70670,2,0,P|477:186|463:239,1,88.000002685547
489,70,71013,5,0,0:0:0:0:
484,56,71098,1,0,0:0:0:0:
479,42,71184,1,0,0:0:0:0:
474,26,71270,1,0,0:0:0:0:
442,39,71355,5,0,0:0:0:0:
422,68,71441,1,0,0:0:0:0:
420,102,71527,1,0,0:0:0:0:
437,133,71612,1,0,0:0:0:0:
468,150,71699,6,0,P|480:192|463:239,1,88.000002685547
244,383,72042,2,0,P|286:396|328:384,1,88.000002685547
276,99,72385,2,0,P|263:140|276:182,1,88.000002685547
499,331,72728,2,0,P|457:343|415:331,1,88.000002685547
291,299,73070,5,0,0:0:0:0:
56,275,73242,1,0,0:0:0:0:
167,336,73413,5,0,0:0:0:0:
16,154,73585,1,0,0:0:0:0:
56,275,73755,5,0,0:0:0:0:
79,40,73927,1,0,0:0:0:0:
16,154,74098,5,0,0:0:0:0:
199,5,74270,1,0,0:0:0:0:
79,40,74442,5,0,0:0:0:0:
312,64,74614,1,0,0:0:0:0:
312,64,74699,1,0,0:0:0:0:
312,64,74785,1,0,0:0:0:0:
199,5,74956,5,0,0:0:0:0:
342,190,75128,1,0,0:0:0:0:
342,190,75213,1,0,0:0:0:0:
342,190,75299,1,0,0:0:0:0:
184,168,75470,5,0,0:0:0:0:
184,168,75642,1,0,0:0:0:0:
312,64,75813,6,0,B|368:64|368:64|402:50|402:50|459:51,1,132.00000402832
472,52,76156,1,0,0:0:0:0:
473,138,76327,1,0,0:0:0:0:
473,138,76499,2,0,B|434:137|434:137|400:152|400:152|344:151,1,132.00000402832
312,152,76842,1,0,0:0:0:0:
312,64,77013,1,0,0:0:0:0:
352,232,77185,6,0,B|306:242|276:230|276:230|244:213|211:221,1,143.999995605469,0|0,3:0|3:0,3:0:0:0:
168,216,77527,1,0,3:0:0:0:
232,304,77699,1,0,3:0:0:0:
64,248,77870,6,0,B|49:175|104:136,1,95.9999970703126,0|0,3:0|3:0,3:0:0:0:
112,336,78212,1,0,3:0:0:0:
210,220,78384,1,0,3:0:0:0:
210,220,78470,1,0,0:0:0:0:
211,221,78556,6,0,B|244:213|276:230|276:230|306:242|352:232,1,143.999995605469,0|0,3:0|3:0,3:0:0:0:
377,230,78899,1,0,0:0:0:0:
232,312,79070,1,0,0:0:0:0:
320,144,79242,1,0,0:0:0:0:
424,322,79413,5,0,0:0:0:0:
312,96,79584,1,0,0:0:0:0:
311,338,79756,1,0,0:0:0:0:
512,256,79927,6,0,P|453:223|365:235,1,143.999995605469,0|0,2:0|2:0,2:0:0:0:
343,234,80270,1,0,0:0:0:0:
424,322,80442,1,0,0:0:0:0:
214,326,80613,6,2,L|88:313,1,95.9999970703126
311,338,80956,1,0,0:0:0:0:
72,310,81127,1,0,0:0:0:0:
240,224,81299,6,2,B|175:220|175:220|149:206|149:206|77:201,1,143.999995605469
57,196,81642,1,0,0:0:0:0:
232,99,81813,1,0,0:0:0:0:
112,296,81985,1,0,0:0:0:0:
113,99,82156,5,0,0:0:0:0:
312,280,82327,1,0,0:0:0:0:
99,202,82499,6,0,L|0:186,2,95.9999970703126
265,183,83013,1,0,0:0:0:0:
119,97,83185,6,0,B|180:114|221:94|221:94|266:76|320:96,1,191.999994140625
171,8,83699,1,0,0:0:0:0:
265,183,83870,1,0,0:0:0:0:
272,189,83956,1,0,0:0:0:0:
272,189,84042,5,0,0:0:0:0:
256,0,84213,1,0,0:0:0:0:
272,189,84385,1,0,0:0:0:0:
306,91,84556,6,0,B|266:77|221:94|221:94|180:114|119:97,1,191.999994140625
272,189,85070,1,0,0:0:0:0:
168,16,85242,1,0,0:0:0:0:
306,91,85413,6,0,P|368:144|352:248,1,191.999994140625
318,384,85927,1,0,0:0:0:0:
354,245,86099,6,0,P|285:286|188:255,1,143.999995605469
184,280,86442,1,0,0:0:0:0:
272,189,86613,1,0,0:0:0:0:
318,384,86785,1,0,0:0:0:0:
392,192,86956,5,0,0:0:0:0:
216,360,87127,1,0,0:0:0:0:
272,189,87299,5,0,0:0:0:0:
277,207,87385,1,0,0:0:0:0:
318,384,87556,1,0,0:0:0:0:
314,366,87642,1,0,0:0:0:0:
424,208,87813,5,0,0:0:0:0:
165,254,87985,1,0,0:0:0:0:
165,254,88070,1,0,0:0:0:0:
165,254,88156,6,0,B|151:210|169:175|169:175|184:142|166:105,1,143.999995605469
160,80,88499,1,0,0:0:0:0:
256,224,88670,1,0,0:0:0:0:
80,136,88842,1,0,0:0:0:0:
261,116,89013,5,0,0:0:0:0:
80,136,89184,1,0,0:0:0:0:
241,29,89356,1,0,0:0:0:0:
241,29,89442,1,0,0:0:0:0:
241,29,89527,6,0,P|326:51|353:117,1,143.999995605469
355,126,89870,1,0,0:0:0:0:
429,0,90042,1,0,0:0:0:0:
264,120,90213,1,0,0:0:0:0:
424,88,90385,5,0,0:0:0:0:
347,216,90556,1,0,0:0:0:0:
512,96,90727,1,0,0:0:0:0:
378,299,90899,6,0,B|334:313|299:295|299:295|266:280|229:298,1,143.999995605469
210,301,91242,1,0,0:0:0:0:
347,216,91413,1,0,0:0:0:0:
263,384,91585,1,0,0:0:0:0:
240,136,91756,5,0,0:0:0:0:
266,381,91927,1,0,0:0:0:0:
162,213,92099,1,0,0:0:0:0:
162,213,92185,1,0,0:0:0:0:
162,213,92270,6,0,P|135:125|176:40,1,143.999995605469
160,48,92613,1,0,0:0:0:0:
34,165,92785,1,0,0:0:0:0:
240,136,92956,1,0,0:0:0:0:
0,20,93127,5,0,0:0:0:0:
162,213,93299,1,0,0:0:0:0:
71,82,93470,1,0,0:0:0:0:
116,314,93642,5,0,0:0:0:0:
116,314,93728,1,0,0:0:0:0:
116,314,93814,2,0,L|66:338,1,44.0000013427735
240,80,93985,5,0,0:0:0:0:
240,80,94071,1,0,0:0:0:0:
240,80,94157,2,0,L|280:60,1,44.0000013427735
112,72,94327,5,0,0:0:0:0:
108,115,94412,1,0,0:0:0:0:
123,155,94498,1,0,0:0:0:0:
153,187,94584,1,0,0:0:0:0:
192,199,94670,2,0,P|210:210|227:226,3,44.0000013427735
193,379,95013,5,0,0:0:0:0:
227,350,95098,1,0,0:0:0:0:
246,310,95184,1,0,0:0:0:0:
245,266,95270,1,0,0:0:0:0:
227,226,95356,2,0,P|211:211|191:199,3,44.0000013427735
97,352,95699,5,0,0:0:0:0:
124,374,95784,1,0,0:0:0:0:
157,383,95870,1,0,0:0:0:0:
194,374,95956,1,0,0:0:0:0:
227,350,96042,5,0,0:0:0:0:
246,310,96127,1,0,0:0:0:0:
282,277,96213,1,0,0:0:0:0:
329,269,96299,1,0,0:0:0:0:
371,284,96385,6,0,P|382:298|392:327,1,44.0000013427735
157,125,96556,2,0,P|146:109|137:87,1,44.0000013427735
290,330,96727,6,0,P|286:349|275:378,1,44.0000013427735
248,74,96899,2,0,P|249:46|256:21,1,44.0000013427735
186,306,97070,6,0,P|168:317|141:327,1,44.0000013427735
343,100,97242,2,0,P|359:90|381:81,1,44.0000013427735
133,227,97413,6,0,P|113:223|90:210,1,44.0000013427735
392,192,97585,2,0,P|412:196|435:209,1,44.0000013427735
157,132,97756,5,0,0:0:0:0:
157,81,97841,1,0,0:0:0:0:
187,38,97927,1,0,0:0:0:0:
237,22,98013,1,0,0:0:0:0:
288,38,98099,5,0,0:0:0:0:
320,71,98185,1,0,0:0:0:0:
367,75,98271,1,0,0:0:0:0:
404,47,98357,1,0,0:0:0:0:
393,0,98442,5,0,0:0:0:0:
363,24,98527,1,0,0:0:0:0:
359,61,98613,1,0,0:0:0:0:
383,90,98699,1,0,0:0:0:0:
423,101,98784,5,0,0:0:0:0:
244,112,98956,1,0,0:0:0:0:
496,16,99128,1,0,0:0:0:0:
