osu file format v14

[General]
AudioFilename: audio.mp3
AudioLeadIn: 0
PreviewTime: 76967
Countdown: 0
SampleSet: Soft
StackLeniency: 0.7
Mode: 0
LetterboxInBreaks: 0
WidescreenStoryboard: 1

[Editor]
Bookmarks: 253,11224,22195,33167,44138,54595,66081,77053,88024,98995
DistanceSpacing: 0.6
BeatDivisor: 4
GridSize: 32
TimelineZoom: 1.7

[Metadata]
Title:Tenshi ni Fureta yo! (Asterisk DnB Remix)
TitleUnicode:天使にふれたよ!(Asterisk DnB Remix)
Artist:HO-KAGO TEA TIME
ArtistUnicode:放課後ティータイム
Creator:Sotarks
Version:Reform's Insane
Source:K-ON!!
Tags:Works3 Touched by an Angel Edit Cut Short Ver Version reform kujinn onlybiscuit snownino_ akitoshi corinn -laura- shunao shogunmoon
BeatmapID:1849408
BeatmapSetID:881769

[Difficulty]
HPDrainRate:5
CircleSize:4
OverallDifficulty:8
ApproachRate:9
SliderMultiplier:1.62
SliderTickRate:1

[Events]
//Background and Video events
0,0,"bg.jpg",0,0
//Break Periods
2,44346,54003
2,99203,108003
//Storyboard Layer 0 (Background)
//Storyboard Layer 1 (Fail)
//Storyboard Layer 2 (Pass)
//Storyboard Layer 3 (Foreground)
//Storyboard Sound Samples

[TimingPoints]
261,342.857142857143,4,2,22,52,1,0
261,-121.951219512195,4,2,22,52,0,0
11232,-108.695652173913,4,2,22,62,0,0
16718,-108.695652173913,4,2,22,72,0,0
22203,-98.0392156862745,4,2,22,82,0,0
54603,-98.0392156862745,4,2,22,72,0,0
55118,-98.0392156862745,4,2,22,72,0,0
66089,-121.951219512195,4,2,22,72,0,0
72946,-108.695652173913,4,2,22,72,0,0
75689,-121.951219512195,4,2,22,62,0,0
77061,-89.2857142857142,4,2,22,82,0,0
108603,-98.0392156862745,4,2,22,72,0,0
120946,-121.951219512195,4,2,22,62,0,0
121032,-121.951219512195,4,2,22,52,0,0
129175,-121.951219512195,4,2,22,72,0,0
145632,-121.951219512195,4,2,22,5,0,0

[Colours]
Combo1 : 252,255,108
Combo2 : 89,238,255
Combo3 : 206,255,104
Combo4 : 255,185,53

[HitObjects]
454,157,261,6,0,P|443:198|440:243,1,66.4200010134888,6|0,0:2|0:2,0:0:0:0:
352,322,603,2,0,P|348:287|339:253,1,66.4200010134888,0|0,3:2|0:2,0:0:0:0:
246,172,946,2,0,P|295:165|327:154,1,66.4200010134888,0|0,0:2|0:2,0:0:0:0:
223,272,1289,2,0,P|190:262|154:259,1,66.4200010134888,0|0,3:2|0:2,0:0:0:0:
31,161,1632,6,0,P|89:174|143:107,1,132.840002026978,2|0,0:2|3:2,0:0:0:0:
213,17,2146,1,0,0:2:0:0:
213,17,2318,2,0,P|220:67|232:99,1,66.4200010134888,0|0,0:2|0:2,0:0:0:0:
358,156,2661,2,0,P|367:122|371:87,1,66.4200010134888,2|0,3:2|0:2,0:0:0:0:
247,207,3003,6,0,P|208:221|167:227,1,66.4200010134888,2|0,0:2|0:2,0:0:0:0:
51,287,3346,2,0,P|117:300|146:377,1,132.840002026978,0|0,3:2|0:2,0:0:0:0:
249,290,3861,1,0,0:2:0:0:
249,290,4032,2,0,P|257:341|261:379,1,66.4200010134888,0|0,3:2|0:2,0:0:0:0:
381,190,4375,6,0,P|375:224|370:259,1,66.4200010134888,2|0,0:2|0:2,0:0:0:0:
259,88,4718,2,0,P|264:122|269:157,1,66.4200010134888,0|0,3:2|0:2,0:0:0:0:
328,33,5061,1,0,0:2:0:0:
328,33,5232,1,0,0:2:0:0:
186,110,5403,1,0,3:2:0:0:
347,174,5575,1,0,0:2:0:0:
218,32,5746,6,0,B|130:16|161:66|65:42,1,132.840002026978,2|0,0:2|3:2,0:0:0:0:
21,145,6261,2,0,P|56:183|53:290,1,132.840002026978,2|0,0:2|0:2,0:0:0:0:
111,369,6775,2,0,P|157:344|201:347,1,66.4200010134888,0|0,3:2|0:2,0:0:0:0:
357,287,7118,6,0,P|303:294|231:228,1,132.840002026978,2|0,0:2|3:2,0:0:0:0:
296,78,7632,2,0,P|329:121|307:216,1,132.840002026978,2|0,0:2|0:2,0:0:0:0:
170,162,8146,2,0,P|216:156|265:147,1,66.4200010134888,0|0,3:2|0:2,0:0:0:0:
357,287,8489,6,0,P|305:247|240:251,1,132.840002026978,2|0,0:2|3:2,0:0:0:0:
158,306,9003,2,0,P|118:300|69:292,1,66.4200010134888,0|0,0:2|0:2,0:0:0:0:
10,182,9346,1,0,0:2:0:0:
10,182,9518,2,0,P|50:176|99:168,1,66.4200010134888,0|0,3:2|0:2,0:0:0:0:
241,72,9861,5,2,0:2:0:0:
241,72,10032,1,0,0:2:0:0:
200,240,10203,1,2,3:2:0:0:
200,240,10375,1,0,0:2:0:0:
334,161,10546,1,2,0:2:0:0:
181,113,10718,1,0,0:2:0:0:
301,256,10889,1,2,3:2:0:0:
364,88,11061,1,0,0:2:0:0:
185,215,11232,6,0,P|169:271|161:374,1,149.039994996826,6|0,3:2|3:2,0:0:0:0:
71,261,11746,1,0,0:2:0:0:
76,263,11918,2,0,P|68:214|52:173,1,74.5199974984132,0|0,3:2|0:2,0:0:0:0:
145,49,12261,2,0,P|132:86|127:125,1,74.5199974984132,0|0,3:2|0:2,0:0:0:0:
230,243,12603,6,0,P|291:274|396:250,1,149.039994996826,2|0,3:2|3:2,0:0:0:0:
463,199,13118,1,0,0:2:0:0:
463,199,13289,2,0,P|480:245|484:280,1,74.5199974984132,0|0,3:2|0:2,0:0:0:0:
351,112,13632,2,0,P|334:158|330:193,1,74.5199974984132,2|0,3:2|0:2,0:0:0:0:
399,24,13975,6,0,B|311:-1|327:57|234:32,1,149.039994996826,6|0,3:2|3:2,0:0:0:0:
136,126,14489,1,0,0:2:0:0:
136,126,14661,2,0,P|178:108|222:107,1,74.5199974984132,0|0,3:2|0:2,0:0:0:0:
115,253,15003,2,0,P|75:249|40:232,1,74.5199974984132,0|0,3:2|0:2,0:0:0:0:
200,200,15346,6,0,P|214:243|219:289,1,74.5199974984132,2|0,3:2|0:2,0:0:0:0:
312,176,15689,2,0,P|317:136|330:99,1,74.5199974984132,0|0,3:2|0:2,0:0:0:0:
415,264,16032,1,0,3:2:0:0:
415,264,16203,1,0,0:2:0:0:
488,171,16375,1,0,3:2:0:0:
488,171,16546,1,0,0:2:0:0:
312,176,16718,6,0,P|257:185|211:193,1,74.5199974984132,6|2,1:0|0:0,0:0:0:0:
97,261,17061,2,0,P|152:270|198:278,1,74.5199974984132,2|2,1:0|0:0,0:0:0:0:
268,349,17403,2,0,P|294:303|397:316,1,149.039994996826,0|0,1:0|1:0,0:0:0:0:
469,197,17918,1,2,0:0:0:0:
469,197,18003,1,2,0:0:0:0:
469,197,18089,6,0,P|478:242|488:291,1,74.5199974984132,2|2,1:0|0:0,0:0:0:0:
379,118,18432,2,0,P|386:79|394:40,1,74.5199974984132,2|2,1:0|0:0,0:0:0:0:
263,99,18775,2,0,B|259:193|303:157|294:263,1,149.039994996826,0|0,1:0|1:0,0:0:0:0:
401,163,19289,1,2,0:0:0:0:
330,336,19461,5,2,1:0:0:0:
330,336,19632,1,0,1:0:0:0:
204,224,19804,1,0,1:0:0:0:
204,224,19975,1,0,1:0:0:0:
358,220,20146,1,2,1:0:0:0:
191,311,20318,1,0,1:0:0:0:
227,136,20489,1,0,1:0:0:0:
350,250,20661,1,2,1:0:0:0:
89,185,20832,6,0,P|75:139|72:119,3,37.2599987492066,2|0|0|0,1:0|1:0|1:0|1:0,0:0:0:0:
161,70,21175,2,0,P|175:24|178:4,3,37.2599987492066,2|0|0|0,1:0|1:0|1:0|1:0,0:0:0:0:
199,171,21518,2,0,P|205:190|212:209,1,37.2599987492066,2|0,1:0|1:0,0:0:0:0:
277,83,21689,2,0,P|291:37|294:17,1,37.2599987492066,0|0,1:0|1:0,0:0:0:0:
368,190,21861,1,10,0:0:0:0:
449,87,22032,1,10,0:0:0:0:
356,211,22203,6,0,P|367:268|375:313,1,82.6200005042725,4|2,1:2|0:2,0:0:0:0:
199,364,22546,2,0,P|206:320|215:277,1,82.6200005042725,10|0,0:2|0:2,0:0:0:0:
159,162,22889,1,0,1:2:0:0:
313,243,23061,1,2,3:2:0:0:
162,325,23232,2,0,P|114:335|57:314,1,82.6200005042725,8|2,0:2|0:2,0:0:0:0:
103,154,23575,6,0,P|114:220|119:266,1,82.6200005042725,0|2,1:2|0:2,0:0:0:0:
246,87,23918,2,0,P|251:43|259:0,1,82.6200005042725,8|2,0:2|0:2,0:0:0:0:
270,204,24261,1,0,1:2:0:0:
154,90,24432,1,2,3:2:0:0:
226,284,24603,1,10,0:2:0:0:
329,128,24775,1,0,0:2:0:0:
138,235,24946,6,0,P|96:247|52:244,1,82.6200005042725,0|0,1:2|0:0,0:0:0:0:
312,141,25289,2,0,P|355:137|397:150,1,82.6200005042725,8|2,0:2|0:2,0:0:0:0:
162,145,25632,1,0,1:2:0:0:
318,273,25803,1,0,3:2:0:0:
173,123,25975,2,0,P|143:110|65:115,1,82.6200005042725,8|0,0:2|0:2,0:0:0:0:
106,306,26318,6,0,P|115:240|119:190,1,82.6200005042725,0|0,1:2|0:2,0:0:0:0:
257,79,26661,2,0,P|261:122|267:166,1,82.6200005042725,8|0,0:2|0:2,0:0:0:0:
387,290,27003,1,2,1:2:0:0:
212,234,27175,1,2,3:2:0:0:
384,165,27346,1,10,0:2:0:0:
325,351,27518,1,2,0:2:0:0:
182,197,27689,6,0,B|83:181|125:250|0:228,1,165.240001008545,2|8,1:2|0:2,0:0:0:0:
53,131,28203,2,0,P|43:78|23:31,1,82.6200005042725,0|0,0:2|1:2,0:0:0:0:
104,246,28546,1,0,3:2:0:0:
179,115,28718,2,0,P|186:71|201:30,1,82.6200005042725,8|0,0:2|0:2,0:0:0:0:
351,216,29061,6,0,P|375:260|498:259,1,165.240001008545,2|8,1:2|0:2,0:0:0:0:
366,98,29575,2,0,P|321:78|262:79,1,82.6200005042725,0|0,0:2|1:2,0:0:0:0:
460,42,29918,1,0,3:2:0:0:
312,187,30089,2,0,P|272:205|229:209,1,82.6200005042725,8|0,0:2|0:2,0:0:0:0:
87,143,30432,6,0,P|78:78|67:40,1,82.6200005042725,2|0,1:2|0:2,0:0:0:0:
148,255,30775,2,0,P|138:297|133:341,1,82.6200005042725,8|0,0:2|0:2,0:0:0:0:
231,149,31118,1,0,1:2:0:0:
298,288,31289,1,0,3:2:0:0:
373,140,31461,2,0,P|377:96|387:53,1,82.6200005042725,8|0,0:2|0:2,0:0:0:0:
443,256,31803,6,0,P|452:298|457:342,1,82.6200005042725,2|0,1:2|0:2,0:0:0:0:
281,127,32146,1,10,0:2:0:0:
456,171,32318,1,0,3:2:0:0:
456,171,32403,1,0,1:2:0:0:
456,171,32489,2,0,L|529:159,1,41.3100002521362,2|8,3:2|0:2,0:0:0:0:
312,236,32661,1,0,1:2:0:0:
379,93,32832,1,10,0:2:0:0:
459,292,33003,1,8,0:2:0:0:
459,292,33089,1,8,0:2:0:0:
459,292,33175,6,0,B|352:269|397:344|264:310,1,165.240001008545,4|10,1:2|0:2,0:0:0:0:
138,193,33689,1,0,0:2:0:0:
138,193,33861,2,0,P|152:246|156:295,1,82.6200005042725,0|2,1:2|3:2,0:0:0:0:
285,137,34203,2,0,P|271:190|267:239,1,82.6200005042725,8|2,0:2|0:2,0:0:0:0:
183,60,34546,6,0,P|134:43|80:43,1,82.6200005042725,0|0,1:2|0:0,0:0:0:0:
300,148,34889,2,0,P|343:144|384:128,1,82.6200005042725,8|2,0:2|0:2,0:0:0:0:
164,165,35232,1,0,1:2:0:0:
280,42,35403,1,2,3:2:0:0:
220,221,35575,1,8,0:2:0:0:
113,56,35746,1,2,0:2:0:0:
300,148,35918,6,0,B|406:136|365:200|491:184,1,165.240001008545,4|8,1:2|0:2,0:0:0:0:
332,247,36432,1,2,0:2:0:0:
332,247,36603,2,0,P|277:260|227:292,1,82.6200005042725,0|2,1:2|3:2,0:0:0:0:
119,133,36946,2,0,P|158:151|201:160,1,82.6200005042725,8|2,0:2|0:2,0:0:0:0:
146,336,37289,6,0,P|141:293|129:251,1,82.6200005042725,2|0,1:2|0:2,0:0:0:0:
305,81,37632,2,0,P|292:123|287:166,1,82.6200005042725,10|0,0:2|0:2,0:0:0:0:
209,31,37975,1,2,1:2:0:0:
388,132,38146,1,2,3:2:0:0:
189,174,38318,2,0,P|138:191|101:226,1,82.6200005042725,10|2,0:2|0:2,0:0:0:0:
266,319,38661,6,0,P|302:326|328:332,3,41.3100002521362,4|0|0|0,1:2|0:2|0:2|0:2,0:0:0:0:
150,348,39003,2,0,P|128:352|106:356,3,41.3100002521362,0|0|0|0,1:2|0:2|0:2|0:2,0:0:0:0:
216,238,39346,1,0,1:2:0:0:
216,238,39432,1,0,0:2:0:0:
216,238,39518,2,0,P|221:194|223:170,1,41.3100002521362,0|0,0:2|0:2,0:0:0:0:
117,95,39689,1,0,1:2:0:0:
117,95,39775,1,0,0:2:0:0:
117,95,39861,2,0,P|122:139|124:163,1,41.3100002521362,0|0,0:2|0:2,0:0:0:0:
235,72,40032,5,4,1:2:0:0:
258,59,40118,1,0,0:2:0:0:
283,54,40203,1,0,0:2:0:0:
309,55,40289,1,0,0:2:0:0:
334,62,40375,2,0,P|367:70|399:73,3,41.3100002521362,0|0|0|0,1:2|0:2|0:2|0:2,0:0:0:0:
440,164,40718,2,0,P|461:158|483:154,3,41.3100002521362,0|0|0|0,1:2|0:2|0:2|0:2,0:0:0:0:
366,260,41061,2,0,P|345:256|324:251,3,41.3100002521362,0|0|0|0,1:2|0:2|0:2|0:2,0:0:0:0:
216,165,41403,5,6,1:2:0:0:
124,306,41575,1,0,1:2:0:0:
64,141,41746,1,0,1:2:0:0:
230,192,41918,1,0,1:2:0:0:
42,247,42089,1,6,1:2:0:0:
215,85,42261,1,0,1:2:0:0:
211,286,42432,1,0,1:2:0:0:
50,150,42603,1,0,1:2:0:0:
296,217,42775,5,6,1:2:0:0:
320,227,42861,1,0,1:2:0:0:
346,226,42946,1,0,1:2:0:0:
370,216,43032,1,0,1:2:0:0:
391,200,43118,2,0,L|399:138,1,41.3100002521362,0|0,1:2|1:2,0:0:0:0:
301,38,43289,2,0,L|306:81,1,41.3100002521362,0|0,1:2|1:2,0:0:0:0:
270,247,43461,2,0,L|262:185,1,41.3100002521362,0|0,1:2|1:2,0:0:0:0:
180,98,43632,2,0,L|174:141,1,41.3100002521362,0|0,1:2|1:2,0:0:0:0:
129,262,43803,1,8,0:2:0:0:
62,121,43975,1,8,0:2:0:0:
79,335,44146,5,6,1:2:0:0:
352,305,54603,5,0,1:0:0:0:
395,131,54775,1,8,0:0:0:0:
214,307,55118,6,0,B|178:197|244:242|194:114,1,165.240001008545,6|8,1:2|0:2,0:0:0:0:
126,53,55632,1,0,0:2:0:0:
78,143,55803,2,0,P|87:185|101:227,1,82.6200005042725,0|0,0:2|1:2,0:0:0:0:
222,57,56146,2,0,P|269:30|327:35,1,82.6200005042725,8|2,0:2|0:2,0:0:0:0:
409,230,56489,6,0,P|418:187|432:145,1,82.6200005042725,2|2,1:2|0:2,0:0:0:0:
468,42,56832,1,10,0:2:0:0:
322,171,57003,2,0,B|226:139|251:210|136:175,1,165.240001008545,2|2,0:2|1:2,0:0:0:0:
285,257,57518,1,10,0:2:0:0:
201,93,57689,1,2,0:2:0:0:
70,266,57861,6,0,P|98:322|206:335,1,165.240001008545,6|8,1:2|0:2,0:0:0:0:
270,252,58375,2,0,P|321:233|371:236,1,82.6200005042725,0|0,0:2|0:2,0:0:0:0:
180,198,58718,1,0,1:2:0:0:
333,335,58889,2,0,P|378:353|419:348,1,82.6200005042725,8|2,0:2|0:2,0:0:0:0:
430,125,59232,6,0,P|409:188|408:231,1,82.6200005042725,2|2,1:2|0:2,0:0:0:0:
323,64,59575,1,10,0:2:0:0:
282,222,59746,2,0,P|241:273|131:268,1,165.240001008545,2|2,0:2|1:2,0:0:0:0:
34,172,60261,1,10,0:2:0:0:
64,326,60432,1,2,0:2:0:0:
153,171,60603,6,0,P|159:131|164:108,3,41.3100002521362,6|0|2|0,1:2|0:2|0:2|0:2,0:0:0:0:
210,246,60946,2,0,P|213:267|216:289,3,41.3100002521362,0|0|0|0,1:2|0:2|0:2|0:2,0:0:0:0:
268,152,61289,2,0,P|305:135|332:129,1,41.3100002521362,0|0,1:2|0:2,0:0:0:0:
427,244,61461,2,0,P|406:236|387:226,1,41.3100002521362,2|0,0:2|0:2,0:0:0:0:
384,82,61632,2,0,P|395:121|397:151,1,41.3100002521362,2|0,1:2|0:2,0:0:0:0:
307,269,61803,2,0,P|296:230|294:200,1,41.3100002521362,0|0,0:2|0:2,0:0:0:0:
244,57,61975,6,0,P|216:49|194:45,3,41.3100002521362,6|0|2|0,1:2|0:2|0:2|0:2,0:0:0:0:
125,127,62318,2,0,P|97:135|75:139,3,41.3100002521362,0|0|0|0,1:2|0:2|0:2|0:2,0:0:0:0:
26,225,62661,1,0,1:2:0:0:
52,226,62746,1,0,0:2:0:0:
77,232,62832,1,0,0:2:0:0:
100,244,62918,1,0,0:2:0:0:
119,261,63003,2,0,L|133:337,3,41.3100002521362,0|0|2|2,1:2|0:2|0:2|0:2,0:0:0:0:
275,183,63346,5,4,1:2:0:0:
232,334,63518,1,2,1:2:0:0:
199,134,63689,1,2,1:2:0:0:
323,289,63861,1,2,1:2:0:0:
358,110,64032,1,4,1:2:0:0:
209,217,64203,1,2,1:2:0:0:
423,189,64375,1,2,1:2:0:0:
295,50,64546,1,2,1:2:0:0:
191,207,64718,5,4,1:2:0:0:
170,222,64803,1,0,1:2:0:0:
145,231,64889,1,0,1:2:0:0:
119,236,64975,1,0,1:2:0:0:
92,233,65061,2,0,L|39:223,1,41.3100002521362,0|0,1:2|1:2,0:0:0:0:
126,147,65232,2,0,L|169:138,1,41.3100002521362,2|0,1:2|0:0,0:0:0:0:
187,300,65403,2,0,L|134:290,1,41.3100002521362,2|0,1:2|1:2,0:0:0:0:
227,215,65575,2,0,L|270:206,1,41.3100002521362,0|0,1:2|1:2,0:0:0:0:
355,300,65746,1,10,0:2:0:0:
355,300,65918,1,8,0:2:0:0:
444,98,66089,6,0,B|428:184|482:141|456:255,1,132.840002026978,6|2,1:2|0:2,0:0:0:0:
356,92,66603,1,2,1:2:0:0:
321,210,66775,2,0,P|293:253|200:262,1,132.840002026978,8|0,0:2|0:2,0:0:0:0:
100,152,67289,6,0,B|183:136|152:185|256:167,1,132.840002026978,2|0,1:2|0:2,0:0:0:0:
132,237,67803,1,2,1:2:0:0:
132,237,67889,1,0,1:2:0:0:
132,237,67975,1,2,1:2:0:0:
223,140,68146,2,0,P|233:94|235:59,1,66.4200010134888,8|0,0:2|1:2,0:0:0:0:
314,232,68489,2,0,P|317:267|325:301,1,66.4200010134888,0|2,0:0|1:2,0:0:0:0:
399,129,68832,5,2,1:2:0:0:
274,237,69003,2,0,P|232:240|150:178,1,132.840002026978,0|2,0:0|1:2,0:0:0:0:
94,68,69518,2,0,B|184:52|146:100|248:83,1,132.840002026978,10|2,0:2|0:2,0:0:0:0:
327,109,70032,2,0,P|339:63|345:26,1,66.4200010134888,0|2,1:2|0:2,0:0:0:0:
409,174,70375,2,0,P|415:208|425:242,1,66.4200010134888,0|2,1:2|0:2,0:0:0:0:
462,92,70718,1,0,1:2:0:0:
323,160,70889,1,10,0:2:0:0:
474,245,71061,1,8,0:2:0:0:
154,346,71403,5,2,1:2:0:0:
77,256,71575,2,0,P|35:243|0:239,1,66.4200010134888,10|0,0:2|1:2,0:0:0:0:
150,165,71918,2,0,P|184:159|218:148,1,66.4200010134888,8|2,0:2|1:2,0:0:0:0:
41,110,72261,1,10,0:2:0:0:
194,252,72432,1,0,1:2:0:0:
66,94,72603,1,8,0:2:0:0:
76,287,72775,1,2,1:2:0:0:
176,84,72946,6,0,P|229:70|321:139,1,149.039994996826,10|8,0:2|0:2,0:0:0:0:
402,210,73461,1,2,1:2:0:0:
402,210,73546,1,0,0:0:0:0:
402,210,73632,2,0,P|415:137|424:107,1,74.5199974984132,8|0,0:2|1:2,0:0:0:0:
286,250,73975,2,0,P|294:288|300:327,1,74.5199974984132,8|0,0:2|1:2,0:0:0:0:
139,154,74318,5,12,0:0:0:0:
128,322,74489,1,0,1:0:0:0:
128,322,74575,1,0,1:0:0:0:
128,322,74661,1,0,1:0:0:0:
226,131,74832,1,12,0:0:0:0:
284,303,75003,1,0,1:0:0:0:
284,303,75089,1,0,1:0:0:0:
284,303,75175,1,0,1:0:0:0:
109,102,75346,1,8,0:0:0:0:
73,296,75518,1,0,1:0:0:0:
288,188,75689,6,0,P|328:203|371:202,1,66.4200010134888,4|0,0:0|0:0,0:0:0:0:
482,97,76032,2,0,P|446:99|414:113,1,66.4200010134888,0|0,0:0|3:0,0:0:0:0:
455,256,76375,2,0,P|461:200|465:173,1,66.4200010134888,0|0,3:0|1:0,0:0:0:0:
332,78,76718,1,0,1:0:0:0:
332,78,76889,1,0,1:0:0:0:
217,223,77061,6,0,B|108:200|147:266|21:235,1,181.440002214844,6|8,1:2|0:2,0:0:0:0:
176,317,77575,1,2,0:2:0:0:
69,154,77746,2,0,P|58:103|68:40,1,90.7200011074219,2|0,0:2|1:2,0:0:0:0:
57,311,78089,1,8,0:2:0:0:
198,155,78261,1,2,0:2:0:0:
198,155,78432,6,0,P|275:148|329:260,1,181.440002214844,2|8,1:2|0:2,0:0:0:0:
476,129,78946,1,2,0:2:0:0:
438,351,79118,2,0,P|447:282|462:228,1,90.7200011074219,2|0,0:2|1:2,0:0:0:0:
318,140,79461,2,0,P|328:187|333:234,1,90.7200011074219,8|2,0:2|0:2,0:0:0:0:
223,326,79803,6,0,B|107:350|158:279|13:314,1,181.440002214844,2|8,1:2|0:2,0:0:0:0:
234,226,80318,1,2,0:2:0:0:
125,130,80489,2,0,P|75:115|15:123,1,90.7200011074219,2|0,0:2|1:2,0:0:0:0:
242,66,80832,1,8,0:2:0:0:
71,218,81003,1,2,0:2:0:0:
71,218,81175,6,0,P|61:301|157:356,1,181.440002214844,2|8,1:2|0:2,0:0:0:0:
292,242,81689,1,2,0:2:0:0:
176,123,81861,2,0,P|186:193|188:242,1,90.7200011074219,2|0,0:2|1:2,0:0:0:0:
301,340,82203,2,0,P|304:294|312:250,1,90.7200011074219,8|2,0:2|0:2,0:0:0:0:
381,87,82546,6,0,P|439:70|479:75,1,90.7200011074219,2|2,1:2|0:2,0:0:0:0:
290,41,82889,1,10,0:2:0:0:
442,156,83061,2,0,P|466:210|421:330,1,181.440002214844,2|0,0:2|1:2,0:0:0:0:
188,241,83575,1,8,0:2:0:0:
335,192,83746,1,2,0:2:0:0:
335,192,83832,1,2,0:2:0:0:
335,192,83918,6,0,P|320:245|311:293,1,90.7200011074219,2|2,1:2|0:2,0:0:0:0:
182,133,84261,1,10,0:2:0:0:
73,301,84432,2,0,B|190:284|132:352|274:333,1,181.440002214844,2|0,0:2|1:2,0:0:0:0:
94,197,84946,2,0,P|79:140|76:90,1,90.7200011074219,8|2,0:2|0:2,0:0:0:0:
216,24,85289,6,0,P|301:12|355:109,1,181.440002214844,2|8,1:2|0:2,0:0:0:0:
410,229,85803,1,2,0:2:0:0:
447,34,85974,2,0,P|432:119|429:152,1,90.7200011074219,2|0,0:2|1:2,0:0:0:0:
288,244,86318,2,0,P|281:199|272:154,1,90.7200011074219,10|0,0:2|0:2,0:0:0:0:
76,59,86661,5,0,1:2:0:0:
142,203,86832,1,2,0:2:0:0:
142,203,87003,1,10,0:2:0:0:
207,66,87175,2,0,L|273:57,1,45.3600005537109,2|0,3:2|1:2,0:0:0:0:
65,142,87346,2,0,L|20:135,1,45.3600005537109,2|8,3:2|0:2,0:0:0:0:
212,234,87518,1,2,1:2:0:0:
56,298,87689,1,10,0:2:0:0:
199,141,87861,1,8,0:2:0:0:
199,141,87946,1,8,0:2:0:0:
199,141,88032,6,0,B|319:141|263:204|381:203,1,181.440002214844,6|8,1:2|0:2,0:0:0:0:
458,297,88546,1,2,0:2:0:0:
417,150,88718,2,0,P|424:90|441:45,1,90.7200011074219,2|0,0:2|1:2,0:0:0:0:
332,295,89061,1,8,0:2:0:0:
249,113,89232,1,2,0:2:0:0:
249,113,89403,6,0,P|191:98|116:204,1,181.440002214844,2|8,1:2|0:2,0:0:0:0:
44,331,89918,1,2,0:2:0:0:
21,121,90089,2,0,P|33:188|36:224,1,90.7200011074219,2|0,0:2|1:2,0:0:0:0:
164,344,90432,2,0,P|169:298|178:254,1,90.7200011074219,8|2,0:2|0:2,0:0:0:0:
341,89,90775,6,0,B|337:197|392:146|385:277,1,181.440002214844,2|8,1:2|0:2,0:0:0:0:
446,108,91289,1,2,0:2:0:0:
299,237,91461,2,0,P|282:287|279:344,1,90.7200011074219,2|0,0:2|1:2,0:0:0:0:
231,117,91803,1,8,0:2:0:0:
390,277,91975,1,2,0:2:0:0:
390,277,92146,6,0,P|340:311|224:260,1,181.440002214844,2|8,1:2|0:2,0:0:0:0:
118,142,92661,1,2,0:2:0:0:
136,342,92832,2,0,P|126:265|120:219,1,90.7200011074219,2|0,0:2|1:2,0:0:0:0:
263,83,93175,2,0,P|257:127|251:172,1,90.7200011074219,8|2,0:2|0:2,0:0:0:0:
107,43,93518,6,0,P|70:36|47:35,3,45.3600005537109,6|0|2|0,1:2|0:2|0:2|0:2,0:0:0:0:
218,90,93861,2,0,P|240:87|262:82,3,45.3600005537109,2|0|2|0,1:2|0:2|0:2|0:2,0:0:0:0:
120,162,94203,2,0,P|98:165|76:170,3,45.3600005537109,0|0|0|0,1:2|0:2|0:2|0:2,0:0:0:0:
223,219,94546,2,0,P|232:255|236:289,1,45.3600005537109,0|0,1:2|0:2,0:0:0:0:
327,165,94718,2,0,P|331:142|337:120,1,45.3600005537109,2|2,0:2|0:2,0:0:0:0:
431,226,94889,6,0,P|438:272|440:291,3,45.3600005537109,6|0|2|0,1:2|0:2|0:2|0:2,0:0:0:0:
341,348,95232,1,2,1:2:0:0:
317,362,95318,1,0,0:2:0:0:
290,365,95403,1,2,0:2:0:0:
262,361,95489,1,0,0:2:0:0:
238,347,95575,2,0,P|199:332|184:328,3,45.3600005537109,0|0|0|0,1:2|0:2|0:2|0:2,0:0:0:0:
268,255,95918,2,0,P|307:240|322:236,3,45.3600005537109,0|0|2|0,1:2|0:2|0:2|0:2,0:0:0:0:
153,209,96261,5,6,1:2:0:0:
101,74,96432,1,0,1:2:0:0:
275,138,96603,1,0,1:2:0:0:
126,221,96775,1,0,1:2:0:0:
209,69,96946,1,6,1:2:0:0:
245,243,97118,1,0,1:2:0:0:
58,157,97289,1,0,1:2:0:0:
225,150,97461,1,2,1:2:0:0:
139,254,97632,5,6,1:2:0:0:
130,279,97718,1,0,1:2:0:0:
127,305,97803,1,0,1:2:0:0:
135,330,97889,1,0,1:2:0:0:
152,350,97975,2,0,L|217:364,1,45.3600005537109,2|0,1:2|1:2,0:0:0:0:
282,249,98146,2,0,L|237:258,1,45.3600005537109,0|0,1:2|1:2,0:0:0:0:
308,358,98318,2,0,L|373:372,1,45.3600005537109,2|0,1:2|1:2,0:0:0:0:
438,257,98489,2,0,L|393:266,1,45.3600005537109,0|0,1:2|1:2,0:0:0:0:
508,335,98661,1,10,0:2:0:0:
444,163,98832,1,10,0:2:0:0:
336,316,99003,5,4,1:2:0:0:
216,229,108603,6,0,P|169:246|116:245,1,82.6200005042725,2|0,1:2|0:2,0:0:0:0:
318,275,108946,1,10,0:2:0:0:
190,151,109118,1,0,3:2:0:0:
190,151,109203,1,0,1:2:0:0:
190,151,109289,2,0,L|117:142,1,41.3100002521362,2|8,3:2|0:2,0:0:0:0:
337,115,109461,1,0,1:2:0:0:
224,251,109632,1,10,0:2:0:0:
203,68,109803,1,8,0:2:0:0:
203,68,109889,1,8,0:2:0:0:
203,68,109975,6,0,B|300:83|246:139|352:156,1,165.240001008545,4|10,1:2|0:2,0:0:0:0:
442,76,110489,1,0,0:2:0:0:
445,250,110661,2,0,P|457:192|468:160,1,82.6200005042725,0|2,1:2|3:2,0:0:0:0:
330,347,111003,2,0,P|318:289|307:257,1,82.6200005042725,8|2,0:2|0:2,0:0:0:0:
154,167,111346,6,0,P|111:150|68:148,1,82.6200005042725,0|2,1:2|0:2,0:0:0:0:
183,278,111689,2,0,P|223:274|261:258,1,82.6200005042725,8|2,0:2|0:2,0:0:0:0:
78,292,112032,1,0,1:2:0:0:
198,159,112203,1,2,3:2:0:0:
87,322,112375,1,8,0:2:0:0:
55,139,112546,1,2,0:2:0:0:
223,293,112718,6,0,B|333:293|268:243|404:240,1,165.240001008545,4|8,1:2|0:2,0:0:0:0:
200,179,113232,1,2,0:2:0:0:
310,108,113403,2,0,P|322:56|324:13,1,82.6200005042725,0|2,1:2|3:2,0:0:0:0:
218,189,113746,2,0,P|221:230|232:270,1,82.6200005042725,8|2,0:2|0:2,0:0:0:0:
160,95,114089,6,0,P|106:79|68:81,1,82.6200005042725,2|0,1:2|0:2,0:0:0:0:
306,196,114432,2,0,P|347:194|385:180,1,82.6200005042725,10|0,0:2|0:2,0:0:0:0:
146,273,114775,1,2,1:2:0:0:
245,120,114946,1,2,3:2:0:0:
252,309,115118,1,10,0:2:0:0:
110,186,115289,1,2,0:2:0:0:
354,265,115461,6,0,P|388:257|411:254,3,41.3100002521362,4|0|0|0,1:2|0:2|0:2|0:2,0:0:0:0:
286,183,115803,2,0,P|265:179|245:173,3,41.3100002521362,0|0|0|0,1:2|0:2|0:2|0:2,0:0:0:0:
390,132,116146,1,0,1:2:0:0:
396,107,116232,1,0,0:2:0:0:
393,82,116318,1,0,0:2:0:0:
387,57,116403,1,0,0:2:0:0:
376,34,116489,2,0,P|344:22|321:18,3,41.3100002521362,0|0|0|0,1:2|0:2|0:2|0:2,0:0:0:0:
223,69,116832,6,0,P|216:94|209:133,3,41.3100002521362,4|0|0|0,1:2|0:2|0:2|0:2,0:0:0:0:
292,186,117175,2,0,P|299:211|306:250,3,41.3100002521362,0|0|0|0,1:2|0:2|0:2|0:2,0:0:0:0:
225,312,117518,1,0,1:2:0:0:
225,312,117603,1,0,0:2:0:0:
225,312,117689,2,0,P|187:302|160:298,1,41.3100002521362,0|0,0:2|0:2,0:0:0:0:
66,215,117861,1,0,1:2:0:0:
66,215,117946,1,0,0:2:0:0:
66,215,118032,2,0,P|104:205|131:201,1,41.3100002521362,0|0,0:2|0:2,0:0:0:0:
262,90,118203,5,6,1:2:0:0:
119,70,118375,1,0,1:2:0:0:
215,219,118546,1,0,1:2:0:0:
275,62,118718,1,0,1:2:0:0:
144,166,118889,1,6,1:2:0:0:
382,137,119061,1,0,1:2:0:0:
205,22,119232,1,0,1:2:0:0:
263,221,119403,1,0,1:2:0:0:
408,46,119575,5,6,1:2:0:0:
408,46,119661,1,0,1:2:0:0:
408,46,119746,1,0,1:2:0:0:
408,46,119832,1,0,1:2:0:0:
408,46,119918,2,0,P|423:81|440:105,1,41.3100002521362,0|0,1:2|1:2,0:0:0:0:
398,225,120089,2,0,P|383:190|366:166,1,41.3100002521362,0|0,1:2|1:2,0:0:0:0:
292,98,120261,2,0,P|254:93|226:96,1,41.3100002521362,0|0,1:2|1:2,0:0:0:0:
212,220,120432,2,0,P|232:219|252:215,1,41.3100002521362,0|0,1:2|1:2,0:0:0:0:
99,115,120603,1,8,0:2:0:0:
99,115,120775,1,8,0:2:0:0:
77,275,120946,6,0,P|87:320|89:342,3,66.4200010134888,6|0|0|0,1:2|0:0|0:0|0:0,0:0:0:0:
201,228,121632,2,0,P|204:195|212:162,3,66.4200010134888,0|0|0|0,0:0|0:0|0:0|0:0,0:0:0:0:
282,318,122318,2,0,P|326:337|365:345,3,66.4200010134888,0|0|0|0,0:0|0:0|0:0|0:0,0:0:0:0:
415,246,123003,2,0,P|470:231|493:217,1,66.4200010134888,0|0,0:0|0:0,0:0:0:0:
355,115,123346,2,0,P|324:101|291:95,1,66.4200010134888,2|0,0:0|0:0,0:0:0:0:
206,197,123689,6,0,P|216:243|225:279,3,66.4200010134888,2|0|0|0,0:0|0:0|0:0|0:0,0:0:0:0:
117,120,124375,2,0,P|124:87|131:55,3,66.4200010134888,0|0|0|0,0:0|0:0|0:0|0:0,0:0:0:0:
67,213,125061,2,0,P|78:271|84:296,3,66.4200010134888,2|0|0|0,0:0|0:0|0:0|0:0,0:0:0:0:
175,143,125746,1,2,0:0:0:0:
175,143,125918,1,0,0:0:0:0:
242,242,126089,1,2,0:0:0:0:
242,242,126261,1,0,0:0:0:0:
346,161,126432,6,0,P|395:147|419:144,1,66.4200010134888,2|0,0:0|0:0,0:0:0:0:
471,275,126775,2,0,P|438:269|406:258,1,66.4200010134888,0|0,0:0|0:0,0:0:0:0:
308,321,127118,2,0,P|275:326|243:337,3,66.4200010134888,0|0|0|0,0:0|0:0|0:0|0:0,0:0:0:0:
160,240,127803,2,0,P|149:188|140:152,1,66.4200010134888,2|0,0:0|0:0,0:0:0:0:
77,280,128146,2,0,P|69:312|62:344,1,66.4200010134888,0|0,0:0|0:0,0:0:0:0:
237,193,128489,2,0,P|249:143|258:107,3,66.4200010134888,0|0|0|0,0:0|0:0|0:0|0:0,0:0:0:0:
185,55,129175,6,0,P|150:44|112:44,3,66.4200010134888,2|0|0|0,0:0|0:0|0:0|0:0,0:0:0:0:
252,128,129861,2,0,P|285:126|316:115,3,66.4200010134888,0|0|0|0,0:0|0:0|0:0|0:0,0:0:0:0:
177,196,130546,2,0,P|140:197|104:210,1,66.4200010134888,2|0,0:0|0:0,0:0:0:0:
264,241,130889,2,0,P|294:228|320:207,1,66.4200010134888,2|0,0:0|0:0,0:0:0:0:
222,338,131232,2,0,P|188:352|159:376,1,66.4200010134888,2|0,0:0|0:0,0:0:0:0:
319,350,131575,2,0,P|343:327|360:299,1,66.4200010134888,2|0,0:0|0:0,0:0:0:0:
327,141,131918,6,0,P|319:90|314:65,3,66.4200010134888,2|0|0|0,0:0|0:0|0:0|0:0,0:0:0:0:
228,192,132603,2,0,P|221:223|217:257,3,66.4200010134888,0|0|0|0,0:0|0:0|0:0|0:0,0:0:0:0:
168,99,133289,2,0,P|130:82|95:79,3,66.4200010134888,2|0|0|0,0:0|0:0|0:0|0:0,0:0:0:0:
240,195,133975,2,0,P|282:193|320:176,1,66.4200010134888,0|0,0:0|0:0,0:0:0:0:
158,258,134318,2,0,P|118:269|91:290,1,66.4200010134888,2|0,0:0|0:0,0:0:0:0:
301,338,134661,6,0,P|341:353|386:351,3,66.4200010134888,2|0|0|0,0:0|0:0|0:0|0:0,0:0:0:0:
426,227,135346,2,0,P|466:212|511:214,3,66.4200010134888,0|0|0|0,0:0|0:0|0:0|0:0,0:0:0:0:
316,142,136032,2,0,P|307:96|311:56,3,66.4200010134888,2|0|0|0,0:0|0:0|0:0|0:0,0:0:0:0:
227,232,136718,1,2,0:0:0:0:
227,232,136889,1,0,0:0:0:0:
140,153,137061,1,2,0:0:0:0:
140,153,137232,1,0,0:0:0:0:
63,266,137403,6,0,P|55:309|55:344,3,66.4200010134888,2|0|0|2,0:0|0:0|0:0|0:0,0:0:0:0:
19,152,138089,2,0,P|17:118|10:86,3,66.4200010134888,0|0|0|0,0:0|0:0|0:0|0:0,0:0:0:0:
143,238,138775,2,0,P|189:254|224:253,3,66.4200010134888,2|0|0|2,0:0|0:0|0:0|0:0,0:0:0:0:
282,131,139461,2,0,P|328:115|363:116,3,66.4200010134888,0|0|0|0,0:0|0:0|0:0|0:0,0:0:0:0:
165,119,140146,6,0,P|156:68|146:30,7,66.4200010134888,2|0|0|0|0|0|0|0,0:0|0:0|0:0|0:0|0:0|0:0|0:0|0:0,0:0:0:0:
110,195,141518,2,0,P|98:235|92:276,1,66.4200010134888,2|0,0:0|0:0,0:0:0:0:
238,166,141861,2,0,P|252:117|257:85,1,66.4200010134888,2|2,0:0|0:0,0:0:0:0:
254,288,142203,2,0,P|266:328|272:369,1,66.4200010134888,2|2,0:0|0:0,0:0:0:0:
126,259,142546,1,2,0:0:0:0:
214,183,142718,1,2,0:0:0:0:
