osu file format v14

[General]
AudioFilename: audio.mp3
AudioLeadIn: 0
PreviewTime: 76967
Countdown: 0
SampleSet: Soft
StackLeniency: 0.7
Mode: 0
LetterboxInBreaks: 0
WidescreenStoryboard: 1

[Editor]
Bookmarks: 101738
DistanceSpacing: 0.8
BeatDivisor: 4
GridSize: 16
TimelineZoom: 1

[Metadata]
Title:Tenshi ni Fureta yo! (Asterisk DnB Remix)
TitleUnicode:天使にふれたよ!(Asterisk DnB Remix)
Artist:HO-KAGO TEA TIME
ArtistUnicode:放課後ティータイム
Creator:Sotarks
Version:Onlybiscuit's Extra
Source:K-ON!!
Tags:Works3 Touched by an Angel Edit Cut Short Ver Version reform kujinn onlybiscuit snownino_ akitoshi corinn -laura- shunao shogunmoon
BeatmapID:1843610
BeatmapSetID:881769

[Difficulty]
HPDrainRate:5.2
CircleSize:4
OverallDifficulty:9.2
ApproachRate:9.2
SliderMultiplier:1.72
SliderTickRate:1

[Events]
//Background and Video events
0,0,"bg.jpg",0,0
//Break Periods
2,44346,53995
2,101946,108938
//Storyboard Layer 0 (Background)
//Storyboard Layer 1 (Fail)
//Storyboard Layer 2 (Pass)
//Storyboard Layer 3 (Foreground)
//Storyboard Sound Samples

[TimingPoints]
261,342.857142857143,4,2,22,52,1,0
261,-121.951219512195,4,2,22,52,0,0
11232,-108.695652173913,4,2,22,62,0,0
16718,-108.695652173913,4,2,22,72,0,0
22203,-98.0392156862745,4,2,22,82,0,0
54603,-98.0392156862745,4,2,22,72,0,0
55118,-98.0392156862745,4,2,22,72,0,0
66089,-121.951219512195,4,2,22,72,0,0
72946,-108.695652173913,4,2,22,72,0,0
75689,-121.951219512195,4,2,22,62,0,0
77061,-89.2857142857142,4,2,22,82,0,0
99003,-98.0392156862745,4,2,22,82,0,0
108603,-98.0392156862745,4,2,22,72,0,0
120946,-121.951219512195,4,2,22,62,0,0
121032,-121.951219512195,4,2,22,52,0,0
129175,-121.951219512195,4,2,22,72,0,0
145632,-121.951219512195,4,2,22,5,0,0

[Colours]
Combo1 : 252,255,108
Combo2 : 89,238,255
Combo3 : 206,255,104
Combo4 : 255,185,53

[HitObjects]
109,66,261,6,0,P|100:96|95:141,1,70.5200010760498,6|0,0:2|0:2,0:0:0:0:
242,216,603,2,0,P|237:181|228:147,1,70.5200010760498,0|0,3:2|0:2,0:0:0:0:
130,291,946,1,0,0:2:0:0:
253,335,1118,1,0,0:2:0:0:
149,204,1289,1,0,3:2:0:0:
108,371,1461,1,0,0:2:0:0:
251,231,1632,6,0,P|287:220|322:218,1,70.5200010760498,2|0,0:2|0:2,0:0:0:0:
431,360,1975,2,0,P|395:357|362:346,1,70.5200010760498,0|0,3:2|0:2,0:0:0:0:
480,219,2318,1,0,0:2:0:0:
511,355,2489,1,0,0:2:0:0:
388,230,2661,2,0,P|352:219|317:217,1,70.5200010760498,2|0,3:2|0:2,0:0:0:0:
487,109,3003,6,0,P|499:65|502:30,1,70.5200010760498,2|0,0:2|0:2,0:0:0:0:
318,0,3346,2,0,P|322:34|332:68,1,70.5200010760498,0|0,3:2|0:2,0:0:0:0:
391,209,3689,1,0,0:2:0:0:
487,109,3861,1,0,0:2:0:0:
315,145,4032,1,0,3:2:0:0:
480,220,4203,1,0,0:2:0:0:
332,68,4375,6,0,P|287:45|261:45,1,70.5200010760498,2|0,0:2|0:2,0:0:0:0:
125,179,4718,2,0,P|159:174|189:155,1,70.5200010760498,0|0,3:2|0:2,0:0:0:0:
54,30,5061,1,0,0:2:0:0:
10,202,5232,1,0,0:2:0:0:
140,54,5403,1,0,3:2:0:0:
189,155,5575,1,0,0:2:0:0:
332,68,5746,6,0,P|345:98|353:143,1,70.5200010760498,2|0,0:2|0:0,0:0:0:0:
160,132,6089,2,0,P|167:98|181:66,1,70.5200010760498,0|2,3:2|0:2,0:0:0:0:
264,205,6432,1,0,0:2:0:0:
149,280,6603,1,0,0:2:0:0:
304,333,6775,1,0,3:2:0:0:
202,379,6946,1,0,0:2:0:0:
344,256,7118,6,0,P|376:287|389:323,1,70.5200010760498,2|0,0:2|0:0,0:0:0:0:
191,225,7461,2,0,P|159:256|146:292,1,70.5200010760498,0|2,3:2|0:2,0:0:0:0:
302,159,7803,1,0,0:2:0:0:
181,65,7975,1,0,0:2:0:0:
333,149,8146,1,0,3:2:0:0:
191,225,8318,1,0,0:2:0:0:
292,76,8489,6,0,P|305:40|313:0,1,70.5200010760498,2|0,0:2|0:0,0:0:0:0:
425,177,8832,2,0,P|432:211|444:244,1,70.5200010760498,0|0,3:2|0:2,0:0:0:0:
313,364,9175,1,0,0:2:0:0:
338,238,9346,1,0,0:2:0:0:
442,384,9518,1,0,3:2:0:0:
361,250,9689,1,0,0:2:0:0:
228,366,9861,5,2,0:2:0:0:
400,317,10032,1,0,0:2:0:0:
200,237,10203,1,2,3:2:0:0:
313,364,10375,1,0,0:2:0:0:
266,182,10546,1,2,0:2:0:0:
225,343,10718,1,0,0:2:0:0:
136,172,10889,1,2,3:2:0:0:
55,342,11061,1,0,0:2:0:0:
289,163,11232,6,0,B|377:150|349:211|439:206,1,158.239994687988,6|0,3:2|3:2,0:0:0:0:
484,113,11746,1,0,0:2:0:0:
305,31,11918,1,0,3:2:0:0:
419,10,12089,1,0,0:2:0:0:
272,141,12261,1,0,3:2:0:0:
417,196,12432,1,0,0:2:0:0:
283,44,12603,6,0,P|237:45|196:56,1,79.1199973439942,2|0,3:2|0:2,0:0:0:0:
52,164,12946,2,0,P|90:172|130:172,1,79.1199973439942,0|0,3:2|0:2,0:0:0:0:
272,141,13289,1,0,3:2:0:0:
140,97,13461,1,0,0:2:0:0:
295,169,13632,1,2,3:2:0:0:
150,251,13803,1,0,0:2:0:0:
326,317,13975,6,0,P|347:343|366:385,1,79.1199973439942,6|0,3:2|0:2,0:0:0:0:
172,275,14318,2,0,P|187:238|211:207,1,79.1199973439942,0|0,3:2|0:2,0:0:0:0:
260,369,14661,1,0,3:2:0:0:
347,235,14832,1,0,0:2:0:0:
172,275,15003,1,0,3:2:0:0:
326,317,15175,1,0,0:2:0:0:
191,187,15346,6,0,P|156:157|124:144,1,79.1199973439942,2|0,3:2|0:2,0:0:0:0:
314,135,15689,2,0,P|349:105|381:92,1,79.1199973439942,0|0,3:2|0:2,0:0:0:0:
183,55,16032,1,0,3:2:0:0:
271,198,16203,1,0,0:2:0:0:
267,26,16375,1,0,3:2:0:0:
191,187,16546,1,0,0:2:0:0:
379,92,16718,6,0,P|393:118|409:170,1,79.1199973439942,6|2,1:0|0:0,0:0:0:0:
243,33,17061,2,0,P|228:59|213:111,1,79.1199973439942,2|2,1:0|0:0,0:0:0:0:
312,268,17403,1,0,1:0:0:0:
314,135,17575,1,0,0:0:0:0:
232,314,17746,1,0,1:0:0:0:
393,226,17918,1,2,0:0:0:0:
393,226,18003,1,2,0:0:0:0:
393,226,18089,1,2,1:0:0:0:
191,187,18261,1,2,0:0:0:0:
311,355,18432,1,2,1:0:0:0:
271,198,18603,1,2,0:0:0:0:
164,378,18775,6,0,P|102:356|95:266,1,158.239994687988,0|0,1:0|1:0,0:0:0:0:
191,187,19289,1,2,0:0:0:0:
311,355,19461,5,2,1:0:0:0:
284,112,19632,1,0,1:0:0:0:
91,272,19803,1,0,1:0:0:0:
404,176,19975,1,0,1:0:0:0:
168,58,20146,1,2,1:0:0:0:
212,310,20318,1,0,1:0:0:0:
333,36,20489,1,0,1:0:0:0:
62,185,20661,1,2,1:0:0:0:
307,226,20832,5,2,1:0:0:0:
346,224,20918,1,0,1:0:0:0:
380,206,21003,1,0,1:0:0:0:
404,176,21089,1,0,1:0:0:0:
414,138,21175,6,0,L|404:90,1,39.5599986719971,2|0,1:0|1:0,0:0:0:0:
301,27,21346,2,0,L|292:65,1,39.5599986719971,0|0,1:0|1:0,0:0:0:0:
203,168,21518,2,0,L|194:129,1,39.5599986719971,2|0,1:0|1:0,0:0:0:0:
94,23,21689,2,0,L|85:61,1,39.5599986719971,0|0,1:0|1:0,0:0:0:0:
41,271,21861,1,10,0:0:0:0:
187,44,22032,1,10,0:0:0:0:
346,224,22203,6,0,P|379:244|432:259,1,87.7200005354004,4|2,1:2|0:2,0:0:0:0:
194,129,22546,2,0,P|151:141|114:163,1,87.7200005354004,10|0,0:2|0:2,0:0:0:0:
318,126,22889,1,0,1:2:0:0:
246,277,23061,1,2,3:2:0:0:
421,144,23232,2,0,P|435:96|439:53,1,87.7200005354004,8|2,0:2|0:2,0:0:0:0:
257,197,23575,6,0,P|262:240|274:282,1,87.7200005354004,0|2,1:2|0:2,0:0:0:0:
272,58,23918,1,8,0:2:0:0:
114,162,24089,1,2,0:2:0:0:
289,194,24261,1,0,1:2:0:0:
108,68,24432,1,2,3:2:0:0:
301,37,24603,1,10,0:2:0:0:
140,144,24775,1,0,0:2:0:0:
274,282,24946,6,0,P|219:268|188:266,1,87.7200005354004,0|0,1:2|0:0,0:0:0:0:
4,376,25289,2,0,P|47:371|89:359,1,87.7200005354004,8|2,0:2|0:2,0:0:0:0:
105,230,25632,1,0,1:2:0:0:
223,365,25803,1,0,3:2:0:0:
289,194,25975,1,8,0:2:0:0:
188,266,26146,1,0,0:2:0:0:
399,346,26318,6,0,P|445:362|494:365,1,87.7200005354004,0|0,1:2|0:2,0:0:0:0:
365,175,26661,1,8,0:2:0:0:
503,192,26832,1,0,0:2:0:0:
336,271,27003,1,2,1:2:0:0:
391,83,27175,1,2,3:2:0:0:
483,290,27346,1,10,0:2:0:0:
512,85,27518,1,2,0:2:0:0:
280,194,27689,6,0,P|262:147|254:106,1,87.7200005354004,2|0,1:2|0:2,0:0:0:0:
418,0,28032,2,0,P|408:42|392:83,1,87.7200005354004,8|0,0:2|0:2,0:0:0:0:
241,29,28375,1,0,1:2:0:0:
353,153,28546,1,0,3:2:0:0:
164,185,28718,1,8,0:2:0:0:
254,110,28889,1,0,0:2:0:0:
182,294,29061,6,0,P|164:331|149:380,1,87.7200005354004,2|0,1:2|0:2,0:0:0:0:
23,166,29403,2,0,P|41:203|56:252,1,87.7200005354004,8|0,0:2|0:2,0:0:0:0:
138,83,29746,1,0,1:2:0:0:
237,229,29918,1,0,3:2:0:0:
49,146,30089,1,8,0:2:0:0:
161,64,30261,1,0,0:2:0:0:
255,251,30432,6,0,P|273:288|288:337,1,87.7200005354004,2|0,1:2|0:2,0:0:0:0:
399,165,30775,1,8,0:2:0:0:
436,290,30946,1,0,0:2:0:0:
299,140,31118,1,0,1:2:0:0:
451,267,31289,1,0,3:2:0:0:
229,230,31461,1,8,0:2:0:0:
412,140,31632,1,0,0:2:0:0:
274,341,31803,5,2,1:2:0:0:
283,160,31975,1,0,0:2:0:0:
367,369,32146,1,10,0:2:0:0:
206,239,32318,2,0,P|184:228|163:223,1,43.8600002677002,0|0,3:2|1:2,0:0:0:0:
373,180,32489,2,0,P|394:171|416:164,1,43.8600002677002,2|8,3:2|0:2,0:0:0:0:
208,84,32661,1,0,1:2:0:0:
307,258,32832,1,10,0:2:0:0:
364,39,33003,1,8,0:2:0:0:
364,39,33089,1,8,0:2:0:0:
364,39,33175,5,4,1:2:0:0:
283,160,33346,1,2,0:2:0:0:
129,47,33518,2,0,P|86:26|32:19,1,87.7200005354004,10|0,0:2|0:2,0:0:0:0:
220,106,33861,1,0,1:2:0:0:
89,192,34032,1,2,3:2:0:0:
279,286,34203,2,0,P|322:307|376:314,1,87.7200005354004,8|2,0:2|0:2,0:0:0:0:
120,211,34546,6,0,P|102:248|91:298,1,87.7200005354004,0|0,1:2|0:0,0:0:0:0:
209,85,34889,1,8,0:2:0:0:
266,256,35061,1,2,0:2:0:0:
136,127,35232,1,0,1:2:0:0:
336,173,35403,1,2,3:2:0:0:
175,317,35575,1,8,0:2:0:0:
220,106,35746,1,2,0:2:0:0:
348,281,35918,6,0,P|361:316|372:371,1,87.7200005354004,4|2,1:2|0:2,0:0:0:0:
197,190,36261,2,0,P|205:147|220:105,1,87.7200005354004,8|2,0:2|0:2,0:0:0:0:
394,96,36603,1,0,1:2:0:0:
266,256,36775,1,2,3:2:0:0:
312,51,36946,1,8,0:2:0:0:
445,195,37118,1,2,0:2:0:0:
262,121,37289,5,2,1:2:0:0:
418,78,37461,1,0,0:2:0:0:
269,229,37632,1,10,0:2:0:0:
446,226,37803,1,0,0:2:0:0:
290,136,37975,1,2,1:2:0:0:
364,296,38146,1,2,3:2:0:0:
399,102,38318,1,10,0:2:0:0:
249,250,38489,1,2,0:2:0:0:
151,113,38661,5,4,1:2:0:0:
130,105,38746,1,0,0:2:0:0:
108,99,38832,1,0,0:2:0:0:
86,97,38918,1,0,0:2:0:0:
64,99,39003,2,0,P|42:105|21:122,3,43.8600002677002,0|0|0|0,1:2|0:2|0:2|0:2,0:0:0:0:
151,208,39346,2,0,P|173:202|194:185,3,43.8600002677002,0|0|0|0,1:2|0:2|0:2|0:2,0:0:0:0:
38,301,39689,2,0,P|16:295|-5:278,3,43.8600002677002,0|0|0|0,1:2|0:2|0:2|0:2,0:0:0:0:
166,334,40032,6,0,P|176:355|185:384,1,43.8600002677002,4|0,1:2|0:2,0:0:0:0:
278,228,40203,2,0,P|285:207|294:187,1,43.8600002677002,0|0,0:2|0:2,0:0:0:0:
335,343,40375,2,0,P|345:364|354:393,1,43.8600002677002,0|0,1:2|0:2,0:0:0:0:
447,237,40546,2,0,P|454:216|463:196,1,43.8600002677002,0|0,0:2|0:2,0:0:0:0:
314,330,40718,2,0,P|289:321|262:316,1,43.8600002677002,0|0,1:2|0:2,0:0:0:0:
450,262,40889,2,0,P|475:253|502:248,1,43.8600002677002,0|0,0:2|0:2,0:0:0:0:
294,187,41061,2,0,P|269:178|242:173,1,43.8600002677002,0|0,1:2|0:2,0:0:0:0:
424,111,41232,2,0,P|449:102|476:97,1,43.8600002677002,0|0,0:2|0:2,0:0:0:0:
227,69,41403,5,6,1:2:0:0:
363,235,41575,1,0,1:2:0:0:
318,0,41746,1,0,1:2:0:0:
174,214,41918,1,0,1:2:0:0:
424,111,42089,1,6,1:2:0:0:
152,29,42261,1,0,1:2:0:0:
260,271,42432,1,0,1:2:0:0:
310,27,42603,1,0,1:2:0:0:
112,156,42775,5,6,1:2:0:0:
82,175,42861,1,0,1:2:0:0:
63,204,42946,1,0,1:2:0:0:
57,238,43032,1,0,1:2:0:0:
66,271,43118,2,0,P|75:294|91:325,1,43.8600002677002,0|0,1:2|1:2,0:0:0:0:
196,199,43289,2,0,P|205:179|213:158,1,43.8600002677002,0|0,1:2|1:2,0:0:0:0:
81,63,43461,2,0,P|59:55|36:49,1,43.8600002677002,0|0,1:2|1:2,0:0:0:0:
236,27,43632,2,0,P|256:18|277:12,1,43.8600002677002,0|0,1:2|1:2,0:0:0:0:
63,204,43803,1,8,0:2:0:0:
316,328,43975,1,8,0:2:0:0:
81,63,44146,1,6,1:2:0:0:
168,79,54603,5,0,1:0:0:0:
84,296,54775,1,8,0:0:0:0:
291,70,55118,6,0,B|283:170|334:134|323:248,1,175.440001070801,6|8,1:2|0:2,0:0:0:0:
390,81,55632,2,0,P|403:34|426:-7,1,87.7200005354004,0|0,0:2|0:2,0:0:0:0:
443,248,55975,1,0,1:2:0:0:
291,70,56146,1,8,0:2:0:0:
324,238,56318,1,2,0:2:0:0:
390,81,56489,6,0,P|433:55|479:47,1,87.7200005354004,2|2,1:2|0:2,0:0:0:0:
357,159,56832,1,10,0:2:0:0:
153,55,57003,2,0,P|104:62|77:176,1,175.440001070801,2|2,0:2|1:2,0:0:0:0:
185,289,57518,1,10,0:2:0:0:
217,114,57689,1,2,0:2:0:0:
100,338,57861,6,0,P|56:368|21:378,1,87.7200005354004,6|0,1:2|0:2,0:0:0:0:
260,245,58203,1,8,0:2:0:0:
83,201,58375,2,0,P|39:171|4:161,1,87.7200005354004,0|0,0:2|0:2,0:0:0:0:
192,312,58718,1,0,1:2:0:0:
137,89,58889,1,8,0:2:0:0:
284,226,59061,1,2,0:2:0:0:
403,65,59232,6,0,P|420:104|434:156,1,87.7200005354004,2|2,1:2|0:2,0:0:0:0:
362,328,59575,1,10,0:2:0:0:
175,176,59746,2,0,B|75:168|110:253|-16:261,1,175.440001070801,2|2,0:2|1:2,0:0:0:0:
266,99,60261,1,10,0:2:0:0:
80,42,60432,1,2,0:2:0:0:
221,234,60603,5,6,1:2:0:0:
246,258,60689,1,0,0:2:0:0:
275,277,60775,1,2,0:2:0:0:
309,284,60861,1,0,0:2:0:0:
343,282,60946,2,0,P|369:271|390:252,3,43.8600002677002,0|0|0|0,1:2|0:2|0:2|0:2,0:0:0:0:
266,152,61289,2,0,P|242:140|216:131,1,43.8600002677002,0|0,1:2|0:2,0:0:0:0:
379,70,61461,2,0,P|403:58|429:49,1,43.8600002677002,2|0,0:2|0:2,0:0:0:0:
239,39,61632,2,0,P|226:17|219:-7,1,43.8600002677002,2|0,1:2|0:2,0:0:0:0:
353,164,61803,2,0,P|345:184|334:203,1,43.8600002677002,0|0,0:2|0:2,0:0:0:0:
123,78,61975,5,6,1:2:0:0:
88,86,62061,1,0,0:2:0:0:
61,108,62146,1,2,0:2:0:0:
45,139,62232,1,0,0:2:0:0:
42,174,62318,2,0,P|49:201|63:222,3,43.8600002677002,0|0|0|0,1:2|0:2|0:2|0:2,0:0:0:0:
121,334,62661,2,0,P|131:314|136:293,3,43.8600002677002,0|0|0|0,1:2|0:2|0:2|0:2,0:0:0:0:
193,205,63003,2,0,P|208:186|233:171,1,43.8600002677002,0|0,1:2|0:2,0:0:0:0:
322,315,63175,2,0,P|304:302|290:284,1,43.8600002677002,2|2,0:2|0:2,0:0:0:0:
394,104,63346,5,4,1:2:0:0:
458,346,63518,1,2,1:2:0:0:
292,99,63689,1,2,1:2:0:0:
198,320,63861,1,2,1:2:0:0:
438,185,64032,1,4,1:2:0:0:
178,108,64203,1,2,1:2:0:0:
337,332,64375,1,2,1:2:0:0:
354,38,64546,1,2,1:2:0:0:
228,250,64718,5,4,1:2:0:0:
199,282,64803,1,0,1:2:0:0:
159,301,64889,1,0,1:2:0:0:
115,298,64975,1,0,1:2:0:0:
80,270,65061,2,0,L|54:224,1,43.8600002677002,0|0,1:2|1:2,0:0:0:0:
187,133,65232,2,0,L|137:162,1,43.8600002677002,2|0,1:2|0:0,0:0:0:0:
53,58,65403,2,0,L|22:12,1,43.8600002677002,2|0,1:2|1:2,0:0:0:0:
198,108,65575,2,0,L|246:85,1,43.8600002677002,0|0,1:2|1:2,0:0:0:0:
80,270,65746,1,10,0:2:0:0:
144,12,65918,1,8,0:2:0:0:
270,166,66089,6,0,B|344:154|328:208|411:203,1,141.0400021521,6|2,1:2|0:2,0:0:0:0:
262,249,66603,1,2,1:2:0:0:
423,342,66775,2,8,L|401:202,1,141.0400021521,8|0,0:0|0:0,0:0:0:0:
270,166,67289,6,0,P|218:176|179:258,1,141.0400021521,2|0,1:2|0:2,0:0:0:0:
281,343,67803,2,0,P|297:339|318:331,2,35.2600005380249,2|0|2,1:2|1:2|1:2,0:0:0:0:
179,177,68146,1,8,0:2:0:0:
68,347,68318,1,0,1:2:0:0:
20,218,68489,2,0,P|11:164|11:129,1,70.5200010760498,0|2,0:0|1:2,0:0:0:0:
86,321,68832,5,2,1:2:0:0:
187,145,69003,2,0,P|196:91|196:56,1,70.5200010760498,0|0,0:0|0:2,0:0:0:0:
268,227,69346,1,2,1:2:0:0:
107,89,69518,2,0,P|71:71|28:64,1,70.5200010760498,10|0,0:2|0:0,0:0:0:0:
239,43,69861,2,0,P|275:25|318:18,1,70.5200010760498,2|0,0:2|1:2,0:0:0:0:
430,174,70203,6,0,P|395:166|364:149,1,70.5200010760498,2|0,0:2|1:2,0:0:0:0:
216,278,70546,2,0,P|247:261|281:253,1,70.5200010760498,2|0,0:2|1:2,0:0:0:0:
437,342,70889,1,10,0:2:0:0:
326,143,71061,1,8,0:2:0:0:
326,143,71403,1,2,1:2:0:0:
226,353,71575,5,10,0:2:0:0:
167,137,71746,1,0,1:2:0:0:
260,346,71918,5,8,0:2:0:0:
355,103,72089,1,2,1:2:0:0:
144,301,72261,5,10,0:2:0:0:
384,218,72432,1,0,1:2:0:0:
140,118,72603,5,8,0:2:0:0:
379,241,72775,1,2,1:2:0:0:
184,23,72946,6,0,P|166:130|160:200,1,158.239994687988,10|8,0:2|0:0,0:0:0:0:
387,249,73461,1,2,1:2:0:0:
388,249,73546,1,0,0:0:0:0:
388,249,73632,5,8,0:2:0:0:
150,104,73803,1,0,1:2:0:0:
397,36,73975,5,8,0:2:0:0:
290,198,74146,1,0,1:2:0:0:
79,24,74318,5,12,0:0:0:0:
9,227,74489,1,0,1:0:0:0:
9,227,74575,1,0,1:0:0:0:
9,227,74661,1,0,1:0:0:0:
233,117,74832,5,12,0:0:0:0:
310,318,75003,1,0,1:0:0:0:
310,318,75089,1,0,1:0:0:0:
310,318,75175,1,0,1:0:0:0:
109,158,75346,5,8,0:0:0:0:
347,115,75518,1,0,1:0:0:0:
172,355,75689,6,0,P|130:342|80:319,1,70.5200010760498,4|0,0:0|0:0,0:0:0:0:
12,202,76032,2,0,P|44:188|78:178,1,70.5200010760498,0|0,0:0|3:0,0:0:0:0:
211,190,76375,2,0,P|203:205|181:235,1,35.2600005380249,0|0,3:0|0:0,0:0:0:0:
327,116,76546,2,0,P|304:101|284:96,1,35.2600005380249,0|0,1:0|0:0,0:0:0:0:
354,250,76718,1,0,1:0:0:0:
475,106,76889,1,0,1:0:0:0:
342,366,77061,6,0,B|344:250|298:299|288:170,1,192.640002351563,6|8,1:2|0:2,0:0:0:0:
176,68,77575,1,2,0:2:0:0:
192,256,77746,1,2,0:2:0:0:
284,62,77918,1,0,1:2:0:0:
98,179,78089,1,8,0:2:0:0:
292,98,78261,1,2,0:2:0:0:
91,36,78432,6,0,P|30:40|1:154,1,192.640002351563,2|8,1:2|0:2,0:0:0:0:
88,294,78946,1,2,0:2:0:0:
66,112,79118,1,2,0:2:0:0:
213,285,79289,1,0,1:2:0:0:
0,151,79461,1,8,0:2:0:0:
180,89,79632,1,2,0:2:0:0:
88,294,79803,6,0,P|9:295|41:181,1,192.640002351563,2|8,1:2|0:2,0:0:0:0:
213,306,80318,1,2,0:2:0:0:
280,136,80489,1,2,0:2:0:0:
358,313,80661,1,0,1:2:0:0:
399,86,80832,1,8,0:2:0:0:
283,234,81003,1,2,0:2:0:0:
169,43,81175,6,0,P|182:123|190:239,1,192.640002351563,2|8,1:2|0:2,0:0:0:0:
281,96,81689,1,2,0:2:0:0:
404,241,81861,1,2,0:2:0:0:
268,116,82032,1,0,1:2:0:0:
219,319,82203,1,8,0:2:0:0:
339,166,82375,1,2,0:2:0:0:
404,364,82546,6,0,P|412:316|427:265,1,96.3200011757813,2|2,1:2|0:2,0:0:0:0:
292,79,82889,1,10,0:2:0:0:
189,234,83061,2,0,P|181:186|166:135,1,96.3200011757813,2|0,0:2|0:2,0:0:0:0:
291,294,83403,1,0,1:2:0:0:
59,132,83575,1,8,0:2:0:0:
274,149,83746,1,2,0:2:0:0:
274,149,83832,1,2,0:2:0:0:
274,149,83918,5,2,1:2:0:0:
169,257,84089,1,2,0:2:0:0:
199,31,84261,1,10,0:2:0:0:
339,234,84432,2,0,P|391:198|429:187,1,96.3200011757813,2|0,0:2|0:2,0:0:0:0:
192,57,84775,1,0,1:2:0:0:
416,7,84946,1,8,0:2:0:0:
274,149,85118,1,2,0:2:0:0:
494,225,85289,6,0,P|506:279|397:325,1,192.640002351563,2|8,1:2|0:2,0:0:0:0:
271,173,85803,1,2,0:2:0:0:
205,363,85975,2,0,P|188:309|180:267,1,96.3200011757813,2|0,0:2|1:2,0:0:0:0:
51,114,86318,2,0,P|41:161|26:206,1,96.3200011757813,10|0,0:2|0:2,0:0:0:0:
206,32,86661,5,0,1:2:0:0:
271,202,86832,1,2,0:2:0:0:
112,40,87003,1,10,0:2:0:0:
304,71,87175,2,0,P|333:62|358:58,1,48.1600005878906,2|0,3:2|1:2,0:0:0:0:
170,165,87346,2,0,P|141:156|116:152,1,48.1600005878906,2|8,3:2|0:2,0:0:0:0:
353,229,87518,1,2,1:2:0:0:
194,350,87689,1,10,0:2:0:0:
292,100,87861,1,8,0:2:0:0:
292,100,87946,1,8,0:2:0:0:
292,100,88032,6,0,B|388:97|362:177|481:175,1,192.640002351563,6|8,1:2|0:2,0:0:0:0:
288,190,88546,1,2,0:2:0:0:
448,78,88718,1,2,0:2:0:0:
245,8,88889,1,0,1:2:0:0:
465,110,89061,1,8,0:2:0:0:
280,220,89232,1,2,0:2:0:0:
145,57,89403,6,0,P|96:23|-16:83,1,192.640002351563,2|8,1:2|0:2,0:0:0:0:
9,256,89918,1,2,0:2:0:0:
71,117,90089,1,2,0:2:0:0:
146,320,90261,1,0,1:2:0:0:
0,161,90432,1,8,0:2:0:0:
182,194,90603,1,2,0:2:0:0:
29,364,90775,6,0,P|15:264|-8:172,1,192.640002351563,2|8,1:2|0:2,0:0:0:0:
145,57,91289,1,2,0:2:0:0:
93,230,91461,1,2,0:2:0:0:
30,44,91632,1,0,1:2:0:0:
192,225,91803,1,8,0:2:0:0:
0,161,91975,1,2,0:2:0:0:
246,89,92146,6,0,B|341:83|323:179|420:186,1,192.640002351563,2|8,1:2|0:2,0:0:0:0:
497,91,92661,1,2,0:2:0:0:
424,277,92832,1,2,0:2:0:0:
389,88,93003,1,0,1:2:0:0:
326,302,93175,1,8,0:2:0:0:
493,187,93346,1,2,0:2:0:0:
267,226,93518,5,6,1:2:0:0:
230,238,93603,1,0,0:2:0:0:
203,265,93689,1,2,0:2:0:0:
190,301,93775,1,0,0:2:0:0:
191,339,93861,2,0,P|196:362|209:388,3,48.1600005878906,2|0|2|0,1:2|0:2|0:2|0:2,0:0:0:0:
83,260,94203,2,0,P|77:283|65:309,3,48.1600005878906,0|0|0|0,1:2|0:2|0:2|0:2,0:0:0:0:
188,168,94546,2,0,P|217:153|241:149,1,48.1600005878906,0|0,1:2|0:2,0:0:0:0:
86,97,94718,2,0,P|57:82|33:78,1,48.1600005878906,2|2,0:2|0:2,0:0:0:0:
210,44,94889,6,0,P|221:19|228:-2,1,48.1600005878906,6|0,1:2|0:2,0:0:0:0:
316,150,95061,2,0,P|323:172|333:194,1,48.1600005878906,2|0,0:2|0:2,0:0:0:0:
439,45,95232,2,0,P|466:29|491:20,1,48.1600005878906,2|0,1:2|0:2,0:0:0:0:
309,133,95403,2,0,P|286:123|266:110,1,48.1600005878906,2|0,0:2|0:2,0:0:0:0:
454,273,95575,5,0,1:2:0:0:
436,307,95660,1,0,0:2:0:0:
405,330,95746,1,0,0:2:0:0:
367,337,95832,1,0,0:2:0:0:
330,330,95918,2,0,P|307:321|284:304,1,48.1600005878906,0|0,1:2|0:2,0:0:0:0:
395,198,96089,2,0,P|414:184|437:175,1,48.1600005878906,2|0,0:2|0:2,0:0:0:0:
128,32,96261,5,6,1:2:0:0:
214,275,96432,1,0,1:2:0:0:
351,60,96603,1,0,1:2:0:0:
84,225,96775,1,0,1:2:0:0:
330,330,96946,1,6,1:2:0:0:
234,88,97118,1,0,1:2:0:0:
112,336,97289,1,0,1:2:0:0:
399,149,97461,1,2,1:2:0:0:
122,55,97632,5,6,1:2:0:0:
84,63,97718,1,0,1:2:0:0:
52,84,97803,1,0,1:2:0:0:
35,118,97889,1,0,1:2:0:0:
32,156,97975,2,0,P|37:185|49:206,3,48.1600005878906,2|0|0|0,1:2|1:2|1:2|1:2,0:0:0:0:
185,126,98318,2,0,P|208:113|231:108,1,48.1600005878906,2|0,1:2|1:2,0:0:0:0:
157,284,98489,2,0,P|133:277|112:266,1,48.1600005878906,0|0,1:2|1:2,0:0:0:0:
122,55,98661,1,10,0:2:0:0:
275,254,98832,1,10,0:2:0:0:
416,55,99003,5,4,1:2:0:0:
256,192,99089,12,0,101746,0:0:0:0:
308,62,109803,5,8,0:2:0:0:
308,62,109889,1,8,0:2:0:0:
308,62,109975,5,4,1:2:0:0:
439,164,110146,1,2,0:2:0:0:
193,151,110318,2,0,P|147:144|117:116,1,87.7200005354004,10|0,0:2|0:2,0:0:0:0:
320,40,110661,1,0,1:2:0:0:
248,215,110832,1,2,3:2:0:0:
117,36,111003,2,0,P|74:41|41:70,1,87.7200005354004,8|2,0:2|0:2,0:0:0:0:
164,233,111346,6,0,P|182:196|193:146,1,87.7200005354004,0|2,1:2|0:2,0:0:0:0:
129,361,111689,1,8,0:2:0:0:
72,190,111861,1,2,0:2:0:0:
202,319,112032,1,0,1:2:0:0:
2,273,112203,1,2,3:2:0:0:
163,129,112375,1,8,0:2:0:0:
118,340,112546,1,2,0:2:0:0:
305,135,112718,6,0,P|318:100|329:45,1,87.7200005354004,4|2,1:2|0:2,0:0:0:0:
179,234,113061,2,0,P|187:277|202:319,1,87.7200005354004,8|2,0:2|0:2,0:0:0:0:
394,288,113403,1,0,1:2:0:0:
266,128,113575,1,2,3:2:0:0:
312,333,113746,1,8,0:2:0:0:
445,189,113918,1,2,0:2:0:0:
262,263,114089,5,2,1:2:0:0:
418,306,114261,1,0,0:2:0:0:
269,155,114432,1,10,0:2:0:0:
446,158,114603,1,0,0:2:0:0:
278,253,114775,1,2,1:2:0:0:
364,88,114946,1,2,3:2:0:0:
394,288,115118,1,10,0:2:0:0:
266,128,115289,1,2,0:2:0:0:
151,271,115461,5,4,1:2:0:0:
130,279,115546,1,0,0:2:0:0:
108,285,115632,1,0,0:2:0:0:
86,287,115718,1,0,0:2:0:0:
64,285,115803,2,0,P|42:279|21:262,3,43.8600002677002,0|0|0|0,1:2|0:2|0:2|0:2,0:0:0:0:
151,176,116146,2,0,P|173:182|194:199,3,43.8600002677002,0|0|0|0,1:2|0:2|0:2|0:2,0:0:0:0:
38,83,116489,2,0,P|16:89|-5:106,3,43.8600002677002,0|0|0|0,1:2|0:2|0:2|0:2,0:0:0:0:
166,50,116832,6,0,P|176:29|185:0,1,43.8600002677002,4|0,1:2|0:2,0:0:0:0:
278,156,117003,2,0,P|285:177|294:197,1,43.8600002677002,0|0,0:2|0:2,0:0:0:0:
335,41,117175,2,0,P|345:20|354:-9,1,43.8600002677002,0|0,1:2|0:2,0:0:0:0:
447,147,117346,2,0,P|454:168|463:188,1,43.8600002677002,0|0,0:2|0:2,0:0:0:0:
314,54,117518,6,0,P|289:63|262:68,1,43.8600002677002,0|0,1:2|0:2,0:0:0:0:
444,130,117689,2,0,P|469:139|496:144,1,43.8600002677002,0|0,0:2|0:2,0:0:0:0:
294,197,117861,2,0,P|269:206|242:211,1,43.8600002677002,0|0,1:2|0:2,0:0:0:0:
424,273,118032,2,0,P|449:282|476:287,1,43.8600002677002,0|0,0:2|0:2,0:0:0:0:
227,315,118203,5,6,1:2:0:0:
363,149,118375,1,0,1:2:0:0:
318,384,118546,1,0,1:2:0:0:
174,170,118718,1,0,1:2:0:0:
424,273,118889,1,6,1:2:0:0:
152,355,119061,1,0,1:2:0:0:
260,113,119232,1,0,1:2:0:0:
310,357,119403,1,0,1:2:0:0:
112,228,119575,5,6,1:2:0:0:
82,209,119661,1,0,1:2:0:0:
63,180,119746,1,0,1:2:0:0:
57,146,119832,1,0,1:2:0:0:
66,113,119918,2,0,P|75:90|91:59,1,43.8600002677002,0|0,1:2|1:2,0:0:0:0:
196,185,120089,2,0,P|205:205|213:226,1,43.8600002677002,0|0,1:2|1:2,0:0:0:0:
81,321,120261,2,0,P|59:329|36:329,1,43.8600002677002,0|0,1:2|1:2,0:0:0:0:
236,357,120432,2,0,P|258:365|281:365,1,43.8600002677002,0|0,1:2|1:2,0:0:0:0:
57,146,120603,1,8,0:2:0:0:
334,52,120775,1,8,0:2:0:0:
402,364,120946,6,0,P|447:362|475:352,1,70.5200010760498,6|0,1:2|0:0,0:0:0:0:
408,245,121289,2,0,P|374:235|339:234,1,70.5200010760498,0|0,0:0|0:0,0:0:0:0:
236,344,121632,2,0,P|198:372|171:372,3,70.5200010760498,0|0|0|0,0:0|0:0|0:0|0:0,0:0:0:0:
65,303,122318,6,0,P|53:266|47:229,1,70.5200010760498,0|0,0:0|0:0,0:0:0:0:
187,133,122661,2,0,P|181:167|170:201,1,70.5200010760498,0|0,0:0|0:0,0:0:0:0:
44,116,123003,1,0,0:0:0:0:
114,49,123175,1,0,0:0:0:0:
169,201,123346,2,0,P|212:218|246:219,1,70.5200010760498,2|0,0:0|0:0,0:0:0:0:
364,61,123689,6,0,P|335:28|300:18,1,70.5200010760498,2|0,0:0|0:0,0:0:0:0:
231,142,124032,2,0,P|262:127|284:100,1,70.5200010760498,0|0,0:0|0:0,0:0:0:0:
400,174,124375,2,0,P|438:194|469:195,3,70.5200010760498,0|0|0|0,0:0|0:0|0:0|0:0,0:0:0:0:
332,318,125061,6,0,P|365:296|398:286,1,70.5200010760498,2|0,0:0|0:0,0:0:0:0:
196,251,125403,2,0,P|163:229|130:219,1,70.5200010760498,0|0,0:0|0:0,0:0:0:0:
20,375,125746,1,2,0:0:0:0:
2,269,125918,1,0,0:0:0:0:
132,357,126089,1,2,0:0:0:0:
69,307,126261,1,0,0:0:0:0:
196,251,126432,6,0,P|215:211|217:180,1,70.5200010760498,2|0,0:0|0:0,0:0:0:0:
73,89,126775,2,0,P|77:123|94:154,1,70.5200010760498,0|0,0:0|0:0,0:0:0:0:
200,41,127118,2,0,P|238:25|276:26,3,70.5200010760498,0|0|0|0,0:0|0:0|0:0|0:0,0:0:0:0:
310,146,127803,6,0,P|350:166|380:169,1,70.5200010760498,2|0,0:0|0:0,0:0:0:0:
487,37,128146,2,0,P|452:42|421:60,1,70.5200010760498,0|0,0:0|0:0,0:0:0:0:
482,170,128489,1,0,0:0:0:0:
391,140,128661,1,0,0:0:0:0:
446,266,128832,1,0,0:0:0:0:
356,229,129003,1,0,0:0:0:0:
201,360,129175,6,0,P|241:337|281:329,1,70.5200010760498,2|0,0:0|0:0,0:0:0:0:
106,246,129518,2,0,P|66:223|26:215,1,70.5200010760498,0|0,0:0|0:0,0:0:0:0:
207,159,129861,2,0,P|219:112|218:72,3,70.5200010760498,0|0|0|0,0:0|0:0|0:0|0:0,0:0:0:0:
337,282,130546,6,0,P|328:247|316:214,1,70.5200010760498,2|0,0:0|0:0,0:0:0:0:
207,159,130889,1,2,0:0:0:0:
251,272,131061,1,0,0:0:0:0:
298,129,131232,1,2,0:0:0:0:
178,237,131403,1,0,0:0:0:0:
316,214,131575,1,2,0:0:0:0:
190,334,131746,1,0,0:0:0:0:
348,363,131918,6,0,P|392:346|410:317,1,70.5200010760498,2|0,0:0|0:0,0:0:0:0:
475,189,132261,2,0,P|441:198|417:223,1,70.5200010760498,0|0,0:0|0:0,0:0:0:0:
253,269,132603,2,0,P|217:238|208:212,3,70.5200010760498,0|0|0|0,0:0|0:0|0:0|0:0,0:0:0:0:
342,161,133289,6,0,P|363:133|375:100,1,70.5200010760498,2|0,0:0|0:0,0:0:0:0:
214,50,133632,2,0,P|224:83|246:110,1,70.5200010760498,0|0,0:0|0:0,0:0:0:0:
338,193,133975,1,0,0:0:0:0:
301,49,134146,1,0,0:0:0:0:
195,171,134318,2,0,P|158:178|118:174,1,70.5200010760498,2|0,0:0|0:0,0:0:0:0:
248,277,134661,6,0,P|246:313|237:347,1,70.5200010760498,2|0,0:0|0:0,0:0:0:0:
80,242,135003,2,0,P|82:277|91:311,1,70.5200010760498,0|0,0:0|0:0,0:0:0:0:
202,198,135346,2,0,P|239:184|269:184,3,70.5200010760498,0|0|0|0,0:0|0:0|0:0|0:0,0:0:0:0:
89,109,136032,6,0,P|45:119|15:115,1,70.5200010760498,2|0,0:0|0:0,0:0:0:0:
157,18,136375,2,0,P|192:15|225:25,1,70.5200010760498,0|0,0:0|0:0,0:0:0:0:
302,112,136718,1,2,0:0:0:0:
179,103,136889,1,0,0:0:0:0:
276,199,137061,1,2,0:0:0:0:
167,203,137232,1,0,0:0:0:0:
318,303,137403,6,0,P|309:336|288:365,1,70.5200010760498,2|0,0:0|0:0,0:0:0:0:
196,265,137746,2,0,P|175:236|166:202,1,70.5200010760498,0|2,0:0|0:0,0:0:0:0:
306,137,138089,2,0,P|351:145|381:174,3,70.5200010760498,0|0|0|0,0:0|0:0|0:0|0:0,0:0:0:0:
207,56,138775,6,0,P|175:34|137:19,1,70.5200010760498,2|0,0:0|0:0,0:0:0:0:
323,34,139118,2,0,P|355:12|393:-3,1,70.5200010760498,0|2,0:0|0:0,0:0:0:0:
461,73,139461,1,0,0:0:0:0:
373,134,139632,1,0,0:0:0:0:
467,179,139803,1,0,0:0:0:0:
384,235,139975,1,0,0:0:0:0:
503,329,140146,6,0,P|490:296|469:267,1,70.5200010760498,2|0,0:0|0:0,0:0:0:0:
334,307,140489,2,0,P|313:335|301:368,1,70.5200010760498,0|0,0:0|0:0,0:0:0:0:
203,298,140832,2,0,P|169:278|132:268,3,70.5200010760498,0|0|0|0,0:0|0:0|0:0|0:0,0:0:0:0:
292,232,141518,5,2,0:0:0:0:
208,178,141689,1,0,0:0:0:0:
312,119,141861,1,2,0:0:0:0:
217,261,142032,1,2,0:0:0:0:
233,94,142203,1,2,0:0:0:0:
365,202,142375,1,2,0:0:0:0:
181,165,142546,1,2,0:0:0:0:
334,96,142718,1,2,0:0:0:0:
