osu file format v14

[General]
AudioFilename: audio.mp3
AudioLeadIn: 0
PreviewTime: 76967
Countdown: 0
SampleSet: Soft
StackLeniency: 0.7
Mode: 0
LetterboxInBreaks: 0
WidescreenStoryboard: 0

[Editor]
DistanceSpacing: 1
BeatDivisor: 4
GridSize: 16
TimelineZoom: 1

[Metadata]
Title:Tenshi ni Fureta yo! (Asterisk DnB Remix)
TitleUnicode:天使にふれたよ!(Asterisk DnB Remix)
Artist:HO-KAGO TEA TIME
ArtistUnicode:放課後ティータイム
Creator:Sotarks
Version:Above Heaven
Source:K-ON!!
Tags:Works3 Touched by an Angel Edit Cut Short Ver Version reform kujinn onlybiscuit snownino_ akitoshi corinn -laura- shunao shogunmoon
BeatmapID:1843607
BeatmapSetID:881769

[Difficulty]
HPDrainRate:5.2
CircleSize:4
OverallDifficulty:9
ApproachRate:9.2
SliderMultiplier:1.72
SliderTickRate:1

[Events]
//Background and Video events
0,0,"bg.jpg",0,0
//Break Periods
2,44346,54033
2,101946,108033
//Storyboard Layer 0 (Background)
//Storyboard Layer 1 (Fail)
//Storyboard Layer 2 (Pass)
//Storyboard Layer 3 (Foreground)
//Storyboard Sound Samples

[TimingPoints]
261,342.857142857143,4,2,22,52,1,0
261,-121.951219512195,4,2,22,52,0,0
11232,-108.695652173913,4,2,22,62,0,0
16718,-108.695652173913,4,2,22,72,0,0
22203,-98.0392156862745,4,2,22,82,0,0
54603,-98.0392156862745,4,2,22,72,0,0
55118,-98.0392156862745,4,2,22,72,0,0
66089,-121.951219512195,4,2,22,72,0,0
72946,-108.695652173913,4,2,22,72,0,0
75689,-121.951219512195,4,2,22,62,0,0
77061,-89.2857142857142,4,2,22,82,0,0
108603,-98.0392156862745,4,2,22,72,0,0
120946,-121.951219512195,4,2,22,62,0,0
121032,-121.951219512195,4,2,22,52,0,0
129175,-192.307692307692,4,2,22,72,0,0
130546,-121.951219512195,4,2,22,72,0,0
145632,-121.951219512195,4,2,22,5,0,0

[Colours]
Combo1 : 252,255,108
Combo2 : 89,238,255
Combo3 : 206,255,104
Combo4 : 255,185,53

[HitObjects]
173,181,261,6,0,P|185:135|187:103,1,70.5200010760498,6|0,0:2|0:2,0:0:0:0:
329,214,603,2,0,P|333:248|342:282,1,70.5200010760498,0|0,3:2|0:2,0:0:0:0:
406,96,946,1,0,0:2:0:0:
277,138,1118,1,0,0:2:0:0:
451,180,1289,1,0,3:2:0:0:
301,112,1461,1,0,0:2:0:0:
255,264,1632,6,0,P|259:298|268:332,1,70.5200010760498,2|0,0:2|0:2,0:0:0:0:
135,157,1975,2,0,P|144:123|148:88,1,70.5200010760498,0|0,3:2|0:2,0:0:0:0:
269,231,2318,1,0,0:2:0:0:
226,77,2489,1,0,0:2:0:0:
158,301,2661,2,0,P|122:324|86:335,1,70.5200010760498,2|0,3:2|0:2,0:0:0:0:
332,111,3003,6,0,P|364:123|394:142,1,70.5200010760498,2|0,0:2|0:2,0:0:0:0:
320,318,3346,2,0,P|302:273|295:241,1,70.5200010760498,0|0,3:2|0:2,0:0:0:0:
212,111,3689,1,0,0:2:0:0:
141,235,3861,1,0,0:2:0:0:
111,70,4032,1,0,3:2:0:0:
170,213,4203,1,0,0:2:0:0:
297,72,4375,6,0,P|347:58|392:52,1,70.5200010760498,2|0,0:2|0:2,0:0:0:0:
265,211,4718,2,0,P|230:204|196:193,1,70.5200010760498,0|0,3:2|0:2,0:0:0:0:
401,304,5061,1,0,0:2:0:0:
214,326,5232,1,0,0:2:0:0:
379,212,5403,1,0,3:2:0:0:
197,153,5575,1,0,0:2:0:0:
428,97,5746,6,0,B|346:91|389:46|269:38,1,141.0400021521,2|0,0:2|3:2,0:0:0:0:
172,176,6261,2,0,P|131:198|94:206,1,70.5200010760498,2|0,0:2|0:2,0:0:0:0:
188,55,6603,1,0,0:2:0:0:
276,215,6775,2,0,P|286:269|290:313,1,70.5200010760498,0|0,3:2|0:2,0:0:0:0:
105,107,7118,6,0,P|66:137|64:243,1,141.0400021521,2|0,0:2|3:2,0:0:0:0:
197,354,7632,2,0,P|201:319|208:284,1,70.5200010760498,2|0,0:2|0:2,0:0:0:0:
334,151,7975,1,0,0:2:0:0:
142,212,8146,2,0,P|137:177|130:142,1,70.5200010760498,0|0,3:2|0:2,0:0:0:0:
297,38,8489,6,0,P|361:25|422:100,1,141.0400021521,2|0,0:2|3:2,0:0:0:0:
318,235,9003,1,0,0:2:0:0:
234,111,9175,1,0,0:2:0:0:
372,167,9346,1,0,0:2:0:0:
207,256,9518,1,0,3:2:0:0:
254,142,9689,1,0,0:2:0:0:
304,324,9861,5,2,0:2:0:0:
161,147,10032,1,0,0:2:0:0:
109,344,10203,1,2,3:2:0:0:
264,106,10375,1,0,0:2:0:0:
203,292,10546,1,2,0:2:0:0:
100,68,10718,1,0,0:2:0:0:
272,212,10889,1,2,3:2:0:0:
345,30,11061,1,0,0:2:0:0:
138,188,11232,6,0,P|80:200|31:201,1,79.1199973439942,6|0,3:2|0:2,0:0:0:0:
257,65,11575,2,0,P|296:69|334:78,1,79.1199973439942,0|0,3:2|0:2,0:0:0:0:
394,280,11918,1,0,3:2:0:0:
235,194,12089,1,0,0:2:0:0:
422,130,12261,1,0,3:2:0:0:
308,311,12432,1,0,0:2:0:0:
243,99,12603,6,0,P|231:43|227:6,1,79.1199973439942,2|0,3:2|0:2,0:0:0:0:
146,242,12946,2,0,P|140:281|131:319,1,79.1199973439942,0|0,3:2|0:2,0:0:0:0:
76,114,13289,1,0,3:2:0:0:
179,223,13461,1,0,0:2:0:0:
316,51,13632,1,2,3:2:0:0:
171,123,13803,1,0,0:2:0:0:
326,254,13975,6,0,P|343:309|349:351,1,79.1199973439942,6|0,3:2|0:2,0:0:0:0:
208,127,14318,2,0,P|215:88|228:50,1,79.1199973439942,0|0,3:2|0:2,0:0:0:0:
124,286,14661,1,0,3:2:0:0:
333,214,14832,1,0,0:2:0:0:
125,161,15003,1,0,3:2:0:0:
241,313,15175,1,0,0:2:0:0:
331,118,15346,6,0,P|382:95|420:86,1,79.1199973439942,2|0,3:2|0:2,0:0:0:0:
206,226,15689,2,0,P|168:214|132:196,1,79.1199973439942,0|0,3:2|0:2,0:0:0:0:
345,315,16032,1,0,3:2:0:0:
220,124,16203,1,0,0:2:0:0:
136,332,16375,1,0,3:2:0:0:
314,248,16546,1,0,0:2:0:0:
103,163,16718,5,6,1:0:0:0:
300,89,16889,1,2,0:0:0:0:
169,245,17061,1,2,1:0:0:0:
162,47,17232,1,2,0:0:0:0:
325,218,17403,2,0,B|242:208|280:147|149:149,1,158.239994687988,0|0,1:0|1:0,0:0:0:0:
341,102,17918,5,2,0:0:0:0:
341,102,18003,1,2,0:0:0:0:
341,102,18089,1,2,1:0:0:0:
188,234,18261,1,2,0:0:0:0:
390,307,18432,1,2,1:0:0:0:
246,120,18603,1,2,0:0:0:0:
121,325,18775,2,0,P|105:252|79:151,1,158.239994687988,0|0,1:0|1:0,0:0:0:0:
269,289,19289,1,2,0:0:0:0:
233,30,19461,5,2,1:0:0:0:
85,255,19632,1,0,1:0:0:0:
426,171,19803,1,0,1:0:0:0:
124,27,19975,1,0,1:0:0:0:
180,352,20146,1,2,1:0:0:0:
417,84,20318,1,0,1:0:0:0:
58,101,20489,1,0,1:0:0:0:
338,350,20661,1,2,1:0:0:0:
350,22,20832,5,2,1:0:0:0:
310,18,20917,1,0,1:0:0:0:
273,30,21003,1,0,1:0:0:0:
244,57,21089,1,0,1:0:0:0:
229,93,21174,1,2,1:0:0:0:
230,132,21260,1,0,1:0:0:0:
241,168,21346,1,0,1:0:0:0:
248,206,21432,1,0,1:0:0:0:
239,244,21518,1,2,1:0:0:0:
215,275,21603,1,0,1:0:0:0:
180,293,21689,1,0,1:0:0:0:
141,295,21775,1,0,1:0:0:0:
104,282,21861,1,10,0:0:0:0:
322,108,22032,1,10,0:0:0:0:
157,202,22203,6,0,P|102:180|68:145,1,87.7200005354004,4|2,1:2|0:2,0:0:0:0:
347,82,22546,2,0,P|402:104|436:139,1,87.7200005354004,10|0,0:2|0:2,0:0:0:0:
269,304,22889,1,0,1:2:0:0:
168,111,23061,1,2,3:2:0:0:
383,233,23232,2,0,P|376:307|370:346,1,87.7200005354004,8|2,0:2|0:2,0:0:0:0:
204,122,23575,6,0,P|198:78|195:34,1,87.7200005354004,0|2,1:2|0:2,0:0:0:0:
123,258,23918,1,8,0:2:0:0:
321,170,24089,1,2,0:2:0:0:
109,80,24261,1,0,1:2:0:0:
206,290,24432,1,2,3:2:0:0:
396,90,24603,1,10,0:2:0:0:
185,157,24775,1,0,0:2:0:0:
449,290,24946,6,0,B|352:270|413:207|277:197,1,175.440001070801,0|8,1:2|0:2,0:0:0:0:
104,288,25461,1,2,0:2:0:0:
231,85,25632,1,0,1:2:0:0:
300,299,25803,1,0,3:2:0:0:
94,156,25975,2,0,P|73:92|66:53,1,87.7200005354004,8|0,0:2|0:2,0:0:0:0:
304,205,26318,6,0,P|362:193|407:175,1,87.7200005354004,0|0,1:2|0:2,0:0:0:0:
173,281,26661,2,0,P|129:273|88:259,1,87.7200005354004,8|0,0:2|0:2,0:0:0:0:
299,120,27003,1,2,1:2:0:0:
117,49,27175,1,2,3:2:0:0:
253,268,27346,1,10,0:2:0:0:
404,69,27518,1,2,0:2:0:0:
131,212,27689,6,0,P|118:278|114:326,1,87.7200005354004,2|0,1:2|0:2,0:0:0:0:
279,90,28032,1,8,0:2:0:0:
371,275,28203,1,0,0:2:0:0:
182,142,28375,1,0,1:2:0:0:
388,241,28546,1,0,3:2:0:0:
182,353,28718,1,8,0:2:0:0:
286,226,28889,1,0,0:2:0:0:
100,133,29061,6,0,P|90:71|86:29,1,87.7200005354004,2|0,1:2|0:2,0:0:0:0:
272,257,29403,1,8,0:2:0:0:
344,69,29575,1,0,0:2:0:0:
184,237,29746,1,0,1:2:0:0:
128,37,29918,1,0,3:2:0:0:
305,264,30089,1,8,0:2:0:0:
235,93,30261,1,0,0:2:0:0:
103,255,30432,6,0,P|112:318|130:378,1,87.7200005354004,2|0,1:2|0:2,0:0:0:0:
323,174,30775,2,0,P|332:131|337:87,1,87.7200005354004,8|0,0:2|0:2,0:0:0:0:
164,20,31118,1,0,1:2:0:0:
197,204,31289,1,0,3:2:0:0:
369,18,31461,2,0,P|374:61|383:104,1,87.7200005354004,8|0,0:2|0:2,0:0:0:0:
279,291,31803,5,2,1:2:0:0:
170,53,31975,1,0,0:2:0:0:
103,309,32146,1,10,0:2:0:0:
249,119,32318,1,0,3:2:0:0:
290,105,32403,1,0,1:2:0:0:
333,112,32489,1,2,3:2:0:0:
367,138,32575,1,8,0:2:0:0:
386,177,32660,1,0,1:2:0:0:
220,360,32832,1,10,0:2:0:0:
104,116,33003,5,8,0:2:0:0:
104,116,33089,1,8,0:2:0:0:
104,116,33175,2,0,P|115:52|117:10,1,87.7200005354004,4|2,1:2|0:2,0:0:0:0:
297,204,33518,2,0,P|301:247|309:290,1,87.7200005354004,10|0,0:2|0:2,0:0:0:0:
399,57,33861,1,0,1:2:0:0:
192,181,34032,1,2,3:2:0:0:
419,272,34203,2,0,P|414:315|406:358,1,87.7200005354004,8|2,0:2|0:2,0:0:0:0:
303,95,34546,6,0,B|204:91|245:170|123:154,1,175.440001070801,0|8,1:2|0:2,0:0:0:0:
324,220,35061,1,2,0:2:0:0:
156,65,35232,1,0,1:2:0:0:
119,249,35403,1,2,3:2:0:0:
335,106,35575,1,8,0:2:0:0:
362,353,35746,1,2,0:2:0:0:
160,151,35918,6,0,P|95:128|66:121,1,87.7200005354004,4|2,1:2|0:2,0:0:0:0:
312,278,36261,2,0,P|354:266|395:250,1,87.7200005354004,8|2,0:2|0:2,0:0:0:0:
183,319,36603,1,0,1:2:0:0:
238,106,36775,1,2,3:2:0:0:
331,315,36946,1,8,0:2:0:0:
101,225,37118,1,2,0:2:0:0:
334,72,37289,6,0,P|359:154|363:192,1,87.7200005354004,2|0,1:2|0:2,0:0:0:0:
173,288,37632,2,0,P|182:245|198:204,1,87.7200005354004,10|0,0:2|0:2,0:0:0:0:
364,330,37975,1,2,1:2:0:0:
256,135,38146,1,2,3:2:0:0:
157,322,38318,1,10,0:2:0:0:
408,211,38489,1,2,0:2:0:0:
168,88,38661,6,0,P|154:36|152:22,3,43.8600002677002,4|0|0|0,1:2|0:2|0:2|0:2,0:0:0:0:
272,213,39003,2,0,P|266:234|259:255,3,43.8600002677002,0|0|0|0,1:2|0:2|0:2|0:2,0:0:0:0:
359,90,39346,1,0,1:2:0:0:
359,90,39432,1,0,0:2:0:0:
359,90,39518,2,0,P|408:75|425:77,1,43.8600002677002,0|0,0:2|0:2,0:0:0:0:
250,198,39689,1,0,1:2:0:0:
250,198,39775,1,0,0:2:0:0:
250,197,39861,2,0,P|230:207|209:211,1,43.8600002677002,0|0,0:2|0:2,0:0:0:0:
107,110,40032,5,4,1:2:0:0:
125,75,40117,1,0,0:2:0:0:
157,53,40203,1,0,0:2:0:0:
196,48,40289,1,0,0:2:0:0:
232,61,40375,2,0,P|243:115|242:134,3,43.8600002677002,0|0|0|0,1:2|0:2|0:2|0:2,0:0:0:0:
167,205,40718,2,0,P|156:258|157:277,3,43.8600002677002,0|0|0|0,1:2|0:2|0:2|0:2,0:0:0:0:
277,323,41061,1,0,1:2:0:0:
316,323,41146,1,0,0:2:0:0:
351,306,41232,1,0,0:2:0:0:
374,274,41318,1,0,0:2:0:0:
381,236,41403,6,0,P|372:179|367:167,1,43.8600002677002,6|0,1:2|0:2,0:0:0:0:
255,53,41575,2,0,P|250:74|249:96,1,43.8600002677002,0|0,1:2|0:2,0:0:0:0:
290,229,41746,2,0,P|242:195|230:190,1,43.8600002677002,0|0,1:2|0:2,0:0:0:0:
70,188,41918,2,0,P|82:206|97:222,1,43.8600002677002,0|0,1:2|0:2,0:0:0:0:
287,175,42089,6,0,P|229:184|216:189,1,43.8600002677002,6|0,1:2|0:2,0:0:0:0:
102,301,42261,2,0,P|123:305|145:305,1,43.8600002677002,0|0,1:2|0:2,0:0:0:0:
172,115,42432,2,0,P|137:163|132:175,1,43.8600002677002,0|0,1:2|0:2,0:0:0:0:
130,334,42604,2,0,P|148:322|164:307,1,43.8600002677002,0|0,1:2|0:2,0:0:0:0:
257,99,42775,5,6,1:2:0:0:
298,84,42860,1,0,1:2:0:0:
341,89,42946,1,0,1:2:0:0:
378,112,43032,1,0,1:2:0:0:
402,148,43117,1,0,1:2:0:0:
408,192,43203,1,0,1:2:0:0:
395,233,43289,1,0,1:2:0:0:
364,275,43374,1,0,1:2:0:0:
316,295,43460,1,0,1:2:0:0:
264,287,43546,1,0,1:2:0:0:
228,249,43632,1,0,1:2:0:0:
180,225,43718,1,0,1:2:0:0:
128,229,43803,1,8,0:2:0:0:
308,183,43975,1,8,0:2:0:0:
75,86,44146,5,6,1:2:0:0:
203,64,54603,5,0,1:0:0:0:
297,298,54775,1,8,0:0:0:0:
320,211,55118,6,0,B|227:200|258:271|145:266,1,175.440001070801,6|8,1:2|0:2,0:0:0:0:
152,40,55632,2,0,P|173:120|177:149,1,87.7200005354004,0|0,0:2|0:2,0:0:0:0:
124,248,55975,1,0,1:2:0:0:
262,117,56146,1,8,0:2:0:0:
313,313,56318,5,2,0:2:0:0:
142,212,56489,1,2,1:2:0:0:
348,131,56661,1,2,0:2:0:0:
230,316,56832,1,10,0:2:0:0:
179,112,57003,2,0,P|161:29|161:12,1,87.7200005354004,2|0,0:2|0:2,0:0:0:0:
288,215,57346,1,2,1:2:0:0:
401,49,57518,1,10,0:2:0:0:
200,145,57689,1,2,0:2:0:0:
408,235,57861,6,0,P|420:289|426:334,1,87.7200005354004,6|0,1:2|0:2,0:0:0:0:
235,148,58203,2,0,P|241:104|251:61,1,87.7200005354004,8|0,0:2|0:2,0:0:0:0:
184,278,58546,1,0,0:2:0:0:
372,206,58718,1,0,1:2:0:0:
150,114,58889,1,8,0:2:0:0:
267,321,59061,5,2,0:2:0:0:
354,122,59232,1,2,1:2:0:0:
157,264,59403,1,2,0:2:0:0:
393,288,59575,1,10,0:2:0:0:
242,121,59746,2,0,P|230:61|224:22,1,87.7200005354004,2|0,0:2|0:2,0:0:0:0:
127,249,60089,1,2,1:2:0:0:
320,209,60261,1,10,0:2:0:0:
120,130,60432,1,2,0:2:0:0:
284,299,60603,6,0,P|296:351|299:367,3,43.8600002677002,6|0|2|0,1:2|0:2|0:2|0:2,0:0:0:0:
202,201,60946,2,0,P|206:179|212:158,3,43.8600002677002,0|0|0|0,1:2|0:2|0:2|0:2,0:0:0:0:
314,101,61289,1,0,1:2:0:0:
314,101,61375,1,0,0:2:0:0:
314,101,61461,2,0,P|302:47|292:26,1,43.8600002677002,2|0,0:2|0:2,0:0:0:0:
401,218,61632,1,2,1:2:0:0:
401,218,61718,1,0,0:2:0:0:
401,218,61804,2,0,P|413:164|423:143,1,43.8600002677002,0|0,0:2|0:2,0:0:0:0:
257,298,61975,5,6,1:2:0:0:
221,314,62060,1,0,0:2:0:0:
182,313,62146,1,2,0:2:0:0:
147,295,62232,1,0,0:2:0:0:
124,263,62318,2,0,P|111:211|113:192,3,43.8600002677002,0|0|0|0,1:2|0:2|0:2|0:2,0:0:0:0:
237,146,62661,2,0,P|232:167|224:187,3,43.8600002677002,0|0|0|0,1:2|0:2|0:2|0:2,0:0:0:0:
130,71,63003,1,0,1:2:0:0:
150,37,63088,1,0,0:2:0:0:
183,16,63174,1,2,0:2:0:0:
222,10,63261,1,2,0:2:0:0:
259,21,63346,6,0,P|278:72|279:93,1,43.8600002677002,4|0,1:2|0:2,0:0:0:0:
332,248,63518,2,0,P|338:227|349:208,1,43.8600002677002,2|0,1:2|0:2,0:0:0:0:
209,110,63689,2,0,P|190:160|189:181,1,43.8600002677002,2|0,1:2|0:2,0:0:0:0:
136,336,63861,2,0,P|129:315|119:295,1,43.8600002677002,2|0,1:2|0:2,0:0:0:0:
297,147,64032,2,0,P|354:129|370:132,1,43.8600002677002,4|0,1:2|0:2,0:0:0:0:
133,249,64203,2,0,P|111:243|93:231,1,43.8600002677002,2|0,1:2|0:2,0:0:0:0:
284,336,64375,2,0,P|302:347|323:353,3,43.8600002677002,2|0|2|0,1:2|0:2|1:2|0:2,0:0:0:0:
225,198,64718,5,4,1:2:0:0:
208,158,64803,1,0,1:2:0:0:
174,130,64889,1,0,1:2:0:0:
131,122,64975,1,0,1:2:0:0:
90,136,65060,1,0,1:2:0:0:
60,167,65146,1,0,1:2:0:0:
48,209,65232,2,0,P|58:260|67:280,1,43.8600002677002,2|0,1:2|0:0,0:0:0:0:
252,301,65403,1,2,1:2:0:0:
289,278,65488,1,0,1:2:0:0:
314,242,65574,1,0,1:2:0:0:
321,199,65660,1,0,1:2:0:0:
311,157,65745,1,10,0:2:0:0:
147,290,65918,1,8,0:2:0:0:
322,68,66089,6,0,B|222:70|277:118|168:122,1,141.0400021521,6|2,1:2|0:2,0:0:0:0:
311,157,66603,1,2,1:2:0:0:
159,36,66775,2,0,P|152:114|142:182,1,141.0400021521,8|0,0:2|0:2,0:0:0:0:
302,257,67289,2,0,P|237:263|192:347,1,141.0400021521,2|0,1:2|0:2,0:0:0:0:
389,318,67803,1,2,1:2:0:0:
393,283,67888,1,0,1:2:0:0:
398,248,67974,1,2,1:2:0:0:
274,81,68146,1,8,0:2:0:0:
342,177,68318,2,0,P|266:159|179:142,1,141.0400021521,0|2,1:2|1:2,0:0:0:0:
68,298,68832,6,0,P|116:251|217:248,1,141.0400021521,2|0,1:2|0:2,0:0:0:0:
329,313,69346,1,2,1:2:0:0:
209,161,69518,2,0,P|224:249|232:318,1,141.0400021521,10|2,0:2|0:2,0:0:0:0:
321,197,70032,2,0,P|330:147|337:115,1,70.5200010760498,0|2,1:2|0:2,0:0:0:0:
212,68,70375,2,0,P|219:102|225:137,1,70.5200010760498,0|2,1:2|0:2,0:0:0:0:
351,38,70718,1,0,1:2:0:0:
135,195,70889,1,10,0:2:0:0:
401,303,71061,1,8,0:2:0:0:
166,323,71403,1,2,1:2:0:0:
248,57,71575,5,10,0:2:0:0:
316,311,71746,1,0,1:2:0:0:
317,98,71918,5,8,0:2:0:0:
249,352,72089,1,2,1:2:0:0:
314,15,72261,5,10,0:2:0:0:
382,269,72432,1,0,1:2:0:0:
384,57,72603,5,8,0:2:0:0:
316,311,72774,1,2,1:2:0:0:
213,44,72946,6,0,P|228:132|239:219,1,158.239994687988,10|8,0:2|0:2,0:0:0:0:
249,352,73461,1,2,1:2:0:0:
351,137,73632,5,8,0:2:0:0:
130,258,73803,1,0,1:2:0:0:
382,269,73975,5,8,0:2:0:0:
137,138,74146,1,0,1:2:0:0:
396,33,74318,5,12,0:0:0:0:
260,264,74489,1,0,1:0:0:0:
260,264,74575,1,0,1:0:0:0:
260,264,74661,1,0,1:0:0:0:
220,12,74832,5,12,0:0:0:0:
356,243,75003,1,0,1:0:0:0:
356,243,75089,1,0,1:0:0:0:
356,243,75175,1,0,1:0:0:0:
413,10,75346,5,8,0:0:0:0:
174,150,75518,1,0,1:0:0:0:
422,324,75689,2,0,P|434:261|436:235,1,70.5200010760498,4|0,0:0|0:0,0:0:0:0:
314,147,76032,2,0,P|318:181|326:216,1,70.5200010760498,0|0,0:0|3:0,0:0:0:0:
225,314,76375,1,0,3:0:0:0:
352,234,76546,1,0,1:0:0:0:
151,137,76718,1,0,1:0:0:0:
269,39,76889,1,0,1:0:0:0:
137,289,77061,6,0,P|75:274|38:254,1,96.3200011757813,6|0,1:2|0:2,0:0:0:0:
292,120,77403,2,0,P|354:135|391:155,1,96.3200011757813,8|2,0:2|0:2,0:0:0:0:
236,337,77746,1,2,0:2:0:0:
138,114,77918,1,0,1:2:0:0:
356,226,78089,1,8,0:2:0:0:
139,321,78261,1,2,0:2:0:0:
277,95,78432,6,0,P|281:37|287:-11,1,96.3200011757813,2|0,1:2|0:2,0:0:0:0:
104,199,78775,2,0,P|109:246|112:294,1,96.3200011757813,8|2,0:2|0:2,0:0:0:0:
150,80,79118,1,2,0:2:0:0:
257,273,79289,1,0,1:2:0:0:
390,71,79461,1,8,0:2:0:0:
189,205,79632,1,2,0:2:0:0:
407,323,79803,6,0,P|420:256|419:209,1,96.3200011757813,2|0,1:2|0:2,0:0:0:0:
263,35,80146,2,0,P|265:83|276:129,1,96.3200011757813,8|2,0:2|0:2,0:0:0:0:
157,322,80489,1,2,0:2:0:0:
345,209,80661,1,0,1:2:0:0:
108,123,80832,1,8,0:2:0:0:
195,327,81003,1,2,0:2:0:0:
343,113,81175,6,0,P|401:91|439:83,1,96.3200011757813,2|0,1:2|0:2,0:0:0:0:
161,240,81518,2,0,P|114:228|69:210,1,96.3200011757813,8|2,0:2|0:2,0:0:0:0:
218,61,81861,1,2,0:2:0:0:
297,264,82032,1,0,1:2:0:0:
108,123,82203,1,8,0:2:0:0:
333,157,82375,1,2,0:2:0:0:
132,324,82546,5,2,1:2:0:0:
206,104,82718,1,2,0:2:0:0:
342,345,82889,1,10,0:2:0:0:
416,125,83061,2,0,P|402:47|399:10,1,96.3200011757813,2|0,0:2|0:2,0:0:0:0:
297,264,83403,1,0,1:2:0:0:
162,33,83575,1,8,0:2:0:0:
333,157,83746,5,2,0:2:0:0:
333,157,83832,1,2,0:2:0:0:
333,157,83918,1,2,1:2:0:0:
111,146,84089,1,2,0:2:0:0:
368,39,84261,1,10,0:2:0:0:
208,225,84432,2,0,P|225:281|235:332,1,96.3200011757813,2|0,0:2|0:2,0:0:0:0:
269,82,84775,1,0,1:2:0:0:
359,274,84946,2,0,P|342:330|332:381,1,96.3200011757813,8|2,0:2|0:2,0:0:0:0:
165,76,85289,6,0,P|109:84|78:210,1,192.640002351563,2|8,1:2|0:2,0:0:0:0:
217,331,85803,1,2,0:2:0:0:
295,134,85975,2,0,P|280:61|274:21,1,96.3200011757813,2|0,0:2|1:2,0:0:0:0:
155,216,86318,2,0,P|146:263|136:310,1,96.3200011757813,10|0,0:2|0:2,0:0:0:0:
82,52,86661,5,0,1:2:0:0:
258,228,86832,1,2,0:2:0:0:
355,0,87003,1,10,0:2:0:0:
140,121,87175,1,2,3:2:0:0:
147,168,87260,1,0,1:2:0:0:
155,216,87346,1,2,3:2:0:0:
162,263,87432,1,8,0:2:0:0:
170,311,87517,1,2,1:2:0:0:
308,107,87689,1,10,0:2:0:0:
418,332,87861,5,8,0:2:0:0:
418,332,87946,1,8,0:2:0:0:
418,332,88032,2,0,B|397:224|457:262|423:124,1,192.640002351563,6|8,1:2|0:2,0:0:0:0:
226,30,88546,1,2,0:2:0:0:
296,215,88718,2,0,P|287:296|281:336,1,96.3200011757813,2|0,0:2|1:2,0:0:0:0:
133,130,89061,1,8,0:2:0:0:
311,70,89232,1,2,0:2:0:0:
141,241,89403,6,0,P|82:224|43:216,1,96.3200011757813,2|0,1:2|0:2,0:0:0:0:
308,107,89746,2,0,P|354:93|401:82,1,96.3200011757813,8|2,0:2|0:2,0:0:0:0:
238,282,90089,1,2,0:2:0:0:
117,103,90261,1,0,1:2:0:0:
387,186,90432,1,8,0:2:0:0:
200,303,90603,1,2,0:2:0:0:
270,23,90775,6,0,P|281:105|303:232,1,192.640002351563,2|8,1:2|0:2,0:0:0:0:
382,42,91289,1,2,0:2:0:0:
201,170,91461,2,0,P|194:239|185:289,1,96.3200011757813,2|0,0:2|1:2,0:0:0:0:
96,79,91803,1,8,0:2:0:0:
184,295,91975,1,2,0:2:0:0:
310,108,92146,6,0,P|372:86|417:80,1,96.3200011757813,2|0,1:2|0:2,0:0:0:0:
173,201,92489,2,0,P|125:191|81:174,1,96.3200011757813,8|2,0:2|0:2,0:0:0:0:
311,281,92832,1,2,0:2:0:0:
226,93,93003,1,0,1:2:0:0:
115,316,93175,1,8,0:2:0:0:
320,243,93346,1,2,0:2:0:0:
129,142,93518,6,0,P|71:113|53:93,1,48.1600005878906,6|0,1:2|0:2,0:0:0:0:
290,35,93689,2,0,P|348:6|366:-14,1,48.1600005878906,2|0,0:2|0:2,0:0:0:0:
225,196,93861,2,0,P|215:254|217:275,1,48.1600005878906,2|0,1:2|0:2,0:0:0:0:
141,56,94032,2,0,P|137:32|131:9,1,48.1600005878906,2|0,0:2|0:2,0:0:0:0:
55,207,94203,2,0,P|72:262|83:277,3,48.1600005878906,0|0|0|0,1:2|0:2|0:2|0:2,0:0:0:0:
163,60,94546,2,0,P|159:36|153:13,1,48.1600005878906,0|0,1:2|0:2,0:0:0:0:
245,217,94718,5,2,0:2:0:0:
245,217,94803,1,2,0:2:0:0:
245,217,94889,2,0,P|308:232|333:226,1,48.1600005878906,6|0,1:2|0:2,0:0:0:0:
356,36,95061,2,0,P|332:40|310:51,1,48.1600005878906,2|0,0:2|0:2,0:0:0:0:
143,242,95232,2,0,P|121:252|97:257,1,48.1600005878906,2|0,1:2|0:2,0:0:0:0:
163,60,95404,2,0,P|186:64|208:75,1,48.1600005878906,2|0,0:2|0:2,0:0:0:0:
326,257,95575,2,0,P|342:312|343:333,3,48.1600005878906,0|0|0|0,1:2|0:2|0:2|0:2,0:0:0:0:
238,118,95918,2,0,P|243:94|252:72,1,48.1600005878906,0|0,1:2|0:2,0:0:0:0:
167,263,96089,2,0,P|176:285|181:308,1,48.1600005878906,2|0,0:2|0:2,0:0:0:0:
368,166,96261,5,6,1:2:0:0:
137,103,96432,1,0,1:2:0:0:
387,57,96603,1,0,1:2:0:0:
129,153,96775,1,0,1:2:0:0:
365,314,96946,5,6,1:2:0:0:
236,26,97118,1,0,1:2:0:0:
151,343,97289,1,0,1:2:0:0:
265,42,97461,1,2,1:2:0:0:
90,257,97632,5,6,1:2:0:0:
64,216,97717,1,0,1:2:0:0:
64,169,97803,1,0,1:2:0:0:
89,128,97889,1,0,1:2:0:0:
132,107,97974,1,2,1:2:0:0:
179,112,98060,1,0,1:2:0:0:
217,140,98146,1,0,1:2:0:0:
242,180,98232,1,0,1:2:0:0:
285,201,98318,1,2,1:2:0:0:
333,195,98403,1,0,1:2:0:0:
370,166,98489,1,0,1:2:0:0:
385,120,98575,1,0,1:2:0:0:
376,74,98660,1,10,0:2:0:0:
289,298,98832,1,10,0:2:0:0:
155,32,99003,5,4,1:2:0:0:
256,192,99089,12,0,101746,0:0:0:0:
125,64,108603,6,0,P|145:131|152:162,1,87.7200005354004,2|0,1:2|0:2,0:0:0:0:
263,298,108946,1,10,0:2:0:0:
385,121,109118,1,0,3:2:0:0:
346,101,109203,1,0,1:2:0:0:
302,100,109289,1,2,3:2:0:0:
263,119,109375,1,8,0:2:0:0:
236,153,109460,1,0,1:2:0:0:
178,352,109632,1,10,0:2:0:0:
407,254,109803,5,8,0:2:0:0:
407,254,109889,1,8,0:2:0:0:
407,254,109975,2,0,P|420:180|431:144,1,87.7200005354004,4|2,1:2|0:2,0:0:0:0:
178,103,110318,2,0,P|188:145|194:189,1,87.7200005354004,10|0,0:2|0:2,0:0:0:0:
336,54,110661,1,0,1:2:0:0:
274,257,110832,1,2,3:2:0:0:
91,78,111003,1,8,0:2:0:0:
277,138,111175,1,2,0:2:0:0:
109,296,111346,6,0,P|57:310|7:309,1,87.7200005354004,0|2,1:2|0:2,0:0:0:0:
160,137,111689,2,0,P|203:139|245:151,1,87.7200005354004,8|2,0:2|0:2,0:0:0:0:
355,315,112032,1,0,1:2:0:0:
427,121,112203,1,2,3:2:0:0:
211,260,112375,1,8,0:2:0:0:
146,34,112546,1,2,0:2:0:0:
351,202,112718,6,0,P|371:271|377:305,1,87.7200005354004,4|2,1:2|0:2,0:0:0:0:
152,144,113061,2,0,P|161:101|175:59,1,87.7200005354004,8|2,0:2|0:2,0:0:0:0:
241,285,113403,1,0,1:2:0:0:
54,192,113575,1,2,3:2:0:0:
284,84,113746,1,8,0:2:0:0:
158,290,113918,1,2,0:2:0:0:
334,159,114089,6,0,P|399:147|448:144,1,87.7200005354004,2|0,1:2|0:2,0:0:0:0:
171,327,114432,2,0,P|127:322|84:313,1,87.7200005354004,10|0,0:2|0:2,0:0:0:0:
315,242,114775,1,2,1:2:0:0:
82,169,114946,1,2,3:2:0:0:
310,63,115118,1,10,0:2:0:0:
148,293,115289,1,2,0:2:0:0:
225,100,115461,6,0,P|211:50|203:32,3,43.8600002677002,4|0|0|0,1:2|0:2|0:2|0:2,0:0:0:0:
308,178,115803,2,0,P|301:198|296:220,3,43.8600002677002,0|0|0|0,1:2|0:2|0:2|0:2,0:0:0:0:
200,199,116146,1,0,1:2:0:0:
200,199,116232,1,0,0:2:0:0:
200,199,116318,2,0,P|151:189|133:177,1,43.8600002677002,0|0,0:2|0:2,0:0:0:0:
277,305,116489,1,0,1:2:0:0:
277,305,116575,1,0,0:2:0:0:
277,305,116661,2,0,P|326:295|344:283,1,43.8600002677002,0|0,0:2|0:2,0:0:0:0:
403,174,116832,5,4,1:2:0:0:
394,135,116917,1,0,0:2:0:0:
371,104,117003,1,0,0:2:0:0:
336,85,117089,1,0,0:2:0:0:
297,83,117175,2,0,P|247:97|236:97,3,43.8600002677002,0|0|0|0,1:2|0:2|0:2|0:2,0:0:0:0:
136,47,117518,2,0,P|86:33|75:33,3,43.8600002677002,0|0|0|0,1:2|0:2|0:2|0:2,0:0:0:0:
169,161,117861,1,0,1:2:0:0:
173,200,117946,1,0,0:2:0:0:
178,239,118032,1,0,0:2:0:0:
182,278,118118,1,0,0:2:0:0:
187,317,118203,6,0,L|194:378,1,43.8600002677002,6|0,1:2|0:2,0:0:0:0:
311,212,118375,2,0,L|316:168,1,43.8600002677002,0|0,1:2|0:2,0:0:0:0:
88,196,118546,2,0,L|95:257,1,43.8600002677002,0|0,1:2|0:2,0:0:0:0:
211,90,118718,2,0,L|216:46,1,43.8600002677002,0|0,1:2|0:2,0:0:0:0:
277,233,118889,2,0,L|284:294,1,43.8600002677002,6|0,1:2|0:2,0:0:0:0:
400,127,119061,2,0,L|405:83,1,43.8600002677002,0|0,1:2|0:2,0:0:0:0:
173,200,119232,2,0,L|105:188,1,43.8600002677002,0|0,1:2|0:2,0:0:0:0:
287,57,119403,2,0,L|330:49,1,43.8600002677002,0|0,1:2|0:2,0:0:0:0:
87,113,119575,5,6,1:2:0:0:
54,142,119660,1,0,1:2:0:0:
37,182,119746,1,0,1:2:0:0:
40,225,119832,1,0,1:2:0:0:
61,263,119917,1,0,1:2:0:0:
96,289,120003,1,0,1:2:0:0:
140,290,120089,1,0,1:2:0:0:
178,268,120175,1,0,1:2:0:0:
206,234,120261,1,0,1:2:0:0:
249,228,120346,1,0,1:2:0:0:
290,241,120432,1,0,1:2:0:0:
320,272,120518,1,0,1:2:0:0:
333,313,120603,1,8,0:2:0:0:
127,186,120775,1,8,0:2:0:0:
404,71,120946,6,0,P|428:61|486:52,3,70.5200010760498,6|0|0|0,1:2|0:0|0:0|0:0,0:0:0:0:
270,147,121632,2,0,P|235:141|202:128,3,70.5200010760498,0|0|0|0,0:0|0:0|0:0|0:0,0:0:0:0:
406,228,122318,6,0,P|419:282|429:314,1,70.5200010760498,0|0,0:0|0:0,0:0:0:0:
269,337,122661,2,0,P|278:303|286:268,1,70.5200010760498,0|0,0:0|0:0,0:0:0:0:
143,194,123003,2,0,P|156:248|166:280,1,70.5200010760498,0|0,0:0|0:0,0:0:0:0:
287,137,123346,1,2,0:0:0:0:
175,67,123518,1,0,0:0:0:0:
269,232,123689,6,0,P|339:220|356:207,3,70.5200010760498,2|0|0|0,0:0|0:0|0:0|0:0,0:0:0:0:
123,158,124375,2,0,P|53:170|36:183,3,70.5200010760498,0|0|0|0,0:0|0:0|0:0|0:0,0:0:0:0:
226,51,125061,6,0,P|239:107|248:137,1,70.5200010760498,2|0,0:0|0:0,0:0:0:0:
366,205,125403,2,0,P|375:170|382:136,1,70.5200010760498,0|0,0:0|0:0,0:0:0:0:
221,235,125746,1,2,0:0:0:0:
361,316,125918,1,0,0:0:0:0:
191,338,126089,1,2,0:0:0:0:
334,230,126261,1,0,0:0:0:0:
172,157,126432,6,0,P|158:109|150:81,1,70.5200010760498,2|0,0:0|0:0,0:0:0:0:
314,149,126775,2,0,P|304:182|294:216,1,70.5200010760498,0|0,0:0|0:0,0:0:0:0:
255,51,127118,1,0,0:0:0:0:
392,106,127289,1,0,0:0:0:0:
213,171,127461,1,0,0:0:0:0:
352,77,127632,1,0,0:0:0:0:
342,236,127803,6,0,P|347:278|356:312,1,70.5200010760498,2|0,0:0|0:0,0:0:0:0:
183,267,128146,2,0,P|191:232|194:197,1,70.5200010760498,0|0,0:0|0:0,0:0:0:0:
271,333,128489,1,0,0:0:0:0:
213,171,128661,1,0,0:0:0:0:
360,260,128832,1,0,0:0:0:0:
384,106,129003,1,0,0:0:0:0:
113,287,129175,6,0,B|295:251|208:144|387:136,1,313.039998089355,2|0,0:0|0:0,0:0:0:0:
169,159,130546,2,0,P|124:147|91:140,1,70.5200010760498,2|0,0:0|0:0,0:0:0:0:
236,62,130889,2,0,P|269:52|304:44,1,70.5200010760498,2|0,0:0|0:0,0:0:0:0:
207,276,131232,2,0,P|162:264|129:257,1,70.5200010760498,2|0,0:0|0:0,0:0:0:0:
274,179,131575,2,0,P|307:169|342:161,1,70.5200010760498,2|0,0:0|0:0,0:0:0:0:
419,282,131918,6,0,P|430:333|438:357,3,70.5200010760498,2|0|0|0,0:0|0:0|0:0|0:0,0:0:0:0:
366,130,132603,2,0,P|376:96|382:61,3,70.5200010760498,0|0|0|0,0:0|0:0|0:0|0:0,0:0:0:0:
257,236,133289,6,0,P|195:253|160:254,1,70.5200010760498,2|0,0:0|0:0,0:0:0:0:
115,97,133632,2,0,P|149:102|182:114,1,70.5200010760498,0|0,0:0|0:0,0:0:0:0:
249,257,133975,2,0,P|187:274|152:275,1,70.5200010760498,0|0,0:0|0:0,0:0:0:0:
276,94,134318,1,2,0:0:0:0:
346,229,134489,1,0,0:0:0:0:
371,70,134661,6,0,P|375:28|382:-4,3,70.5200010760498,2|0|0|0,0:0|0:0|0:0|0:0,0:0:0:0:
260,197,135346,2,0,P|266:231|269:266,3,70.5200010760498,0|0|0|0,0:0|0:0|0:0|0:0,0:0:0:0:
151,73,136032,6,0,P|104:58|71:54,1,70.5200010760498,2|0,0:0|0:0,0:0:0:0:
148,213,136375,2,0,P|182:206|215:194,1,70.5200010760498,0|0,0:0|0:0,0:0:0:0:
293,43,136718,1,2,0:0:0:0:
363,202,136889,1,0,0:0:0:0:
192,81,137061,1,2,0:0:0:0:
171,251,137232,1,0,0:0:0:0:
289,105,137403,6,0,P|343:78|385:67,1,70.5200010760498,2|0,0:0|0:0,0:0:0:0:
191,223,137746,2,0,P|156:216|123:204,1,70.5200010760498,0|2,0:0|0:0,0:0:0:0:
331,291,138089,1,0,0:0:0:0:
263,135,138261,1,0,0:0:0:0:
228,311,138432,1,0,0:0:0:0:
348,178,138603,1,0,0:0:0:0:
183,199,138775,6,0,P|148:192|115:180,1,70.5200010760498,2|0,0:0|0:0,0:0:0:0:
229,55,139118,2,0,P|262:43|296:36,1,70.5200010760498,0|2,0:0|0:0,0:0:0:0:
362,211,139461,1,0,0:0:0:0:
402,57,139632,1,0,0:0:0:0:
263,135,139803,1,0,0:0:0:0:
422,84,139975,1,0,0:0:0:0:
229,55,140146,6,0,P|175:44|136:41,1,70.5200010760498,2|0,0:0|0:0,0:0:0:0:
251,221,140489,2,0,P|285:216|320:208,1,70.5200010760498,0|0,0:0|0:0,0:0:0:0:
151,149,140832,1,0,0:0:0:0:
134,279,141003,1,0,0:0:0:0:
241,136,141175,1,0,0:0:0:0:
310,294,141346,1,0,0:0:0:0:
133,238,141518,6,0,P|86:221|49:212,1,70.5200010760498,2|0,0:0|0:0,0:0:0:0:
258,110,141861,1,2,0:0:0:0:
212,286,142032,1,2,0:0:0:0:
123,109,142203,1,2,0:0:0:0:
332,176,142375,1,2,0:0:0:0:
114,259,142546,1,2,0:0:0:0:
238,86,142718,1,2,0:0:0:0:
256,192,142803,12,0,145632,0:0:0:0:
