osu file format v14

[General]
AudioFilename: HTT - NO, Thank You!.MP3
AudioLeadIn: 0
PreviewTime: 64375
Countdown: 0
SampleSet: Normal
StackLeniency: 0.7
Mode: 0
LetterboxInBreaks: 0
WidescreenStoryboard: 1

[Editor]
DistanceSpacing: 1
BeatDivisor: 4
GridSize: 4
TimelineZoom: 1

[Metadata]
Title:NO, Thank You!
TitleUnicode:NO, Thank You!
Artist:HO-KAGO TEA TIME
ArtistUnicode:放課後ティータイム
Creator:alacat
Version:Normal
Source:けいおん!!
Tags:tv size nasya n_a_s_y_a K-ON!! HTT Keion Yui Hirasawa Mio Akiyama Ritsu Tainaka Tsumugi Kotobuki Azusa Nakano Toyosaki Aki Hikasa Yoko Sato Satomi Minako Taketatsu Ayana ending 平沢唯 秋山澪 田井中律 琴吹紬 中野梓 豊崎愛生 日笠陽子 佐藤聡美 寿美菜子 竹達彩奈
BeatmapID:916008
BeatmapSetID:401903

[Difficulty]
HPDrainRate:4
CircleSize:3
OverallDifficulty:4
ApproachRate:5
SliderMultiplier:1.2
SliderTickRate:1

[Events]
//Background and Video events
Video,-60,"video.avi"
0,0,"kbg.jpg",0,0
//Break Periods
//Storyboard Layer 0 (Background)
//Storyboard Layer 1 (Fail)
//Storyboard Layer 2 (Pass)
//Storyboard Layer 3 (Foreground)
//Storyboard Sound Samples

[TimingPoints]
11005,331.491712707182,4,1,1,60,1,0
65369,-100,4,1,1,80,0,1
82772,-100,4,1,1,80,0,0
83933,-100,4,1,1,60,0,0
89237,-100,4,2,0,30,0,0

[Colours]
Combo1 : 255,174,136
Combo2 : 91,255,173
Combo3 : 184,113,255

[HitObjects]
188,192,11004,5,2,0:0:0:0:
256,92,11336,2,0,L|256:28,2,60,0|0|0,0:0|0:0|0:0,0:0:0:0:
324,192,11999,1,0,0:0:0:0:
256,288,12330,6,0,L|136:308,2,120,4|8|0,1:2|0:0|0:0,0:0:0:0:
364,344,13325,1,8,0:0:0:0:
436,248,13656,2,0,P|448:184|440:128,1,120,0|8,0:0|0:0,0:0:0:0:
332,80,14319,2,0,P|282:37|230:16,1,120,0|8,0:0|0:0,0:0:0:0:
132,80,14982,6,0,L|12:64,2,120,0|8|0,0:0|0:0|0:0,0:0:0:0:
180,192,15977,1,8,0:0:0:0:
300,212,16308,1,0,0:0:0:0:
224,304,16640,1,4,1:2:0:0:
180,192,16971,2,0,P|172:128|184:72,1,120,2|2,0:0|0:0,0:0:0:0:
296,36,17634,6,0,L|416:36,1,120,4|8,1:2|0:0,0:0:0:0:
464,144,18297,2,0,L|344:144,1,120,0|8,0:0|0:0,0:0:0:0:
244,212,18960,2,0,P|224:272|224:332,2,120,0|8|0,0:0|0:0|0:0,0:0:0:0:
200,100,19955,1,8,0:0:0:0:
128,196,20286,6,0,L|8:196,2,120,0|8|0,0:0|0:0|0:0,0:0:0:0:
200,100,21281,1,8,0:0:0:0:
316,68,21612,2,0,P|380:80|428:108,1,120,8|4,0:0|1:2,0:0:0:0:
488,212,22275,2,0,L|476:336,1,120,2|2,0:0|0:0,0:0:0:0:
364,372,22938,5,4,0:0:0:0:
284,284,23270,2,0,L|224:284,1,60,8|0,0:0|0:0,0:0:0:0:
188,332,23601,2,0,P|124:344|72:332,1,120,0|8,0:0|0:0,0:0:0:0:
16,224,24264,1,0,0:0:0:0:
100,140,24596,2,0,L|76:20,1,120,8|0,0:0|0:0,0:0:0:0:
188,64,25259,1,8,0:0:0:0:
300,24,25590,6,0,P|416:44|484:144,1,240,0|0,0:0|0:0,0:0:0:0:
424,244,26585,1,8,0:0:0:0:
316,192,26916,2,0,L|196:208,1,120,0|8,0:0|0:0,0:0:0:0:
140,184,27413,1,0,0:0:0:0:
88,216,27579,2,0,P|68:276|64:332,1,120,2|10,0:0|0:0,0:0:0:0:
180,368,28242,5,0,0:0:0:0:
288,316,28574,2,0,L|348:316,1,60,8|0,0:0|0:0,0:0:0:0:
400,284,28905,2,0,P|416:224|412:164,1,120,0|8,0:0|0:0,0:0:0:0:
336,76,29568,1,0,0:0:0:0:
244,152,29900,1,8,0:0:0:0:
184,48,30231,2,0,L|64:64,1,120,0|8,0:0|0:0,0:0:0:0:
24,176,30894,6,0,P|91:271|206:290,1,240,0|0,0:0|0:0,0:0:0:0:
320,248,31888,1,8,0:0:0:0:
228,172,32220,2,0,L|228:52,2,120,0|8|2,0:0|0:0|0:0,0:0:0:0:
320,248,33214,1,10,0:0:0:0:
436,216,33546,5,4,0:0:0:0:
352,132,33877,2,0,L|352:12,2,120,8|0|8,0:0|0:0|0:0,0:0:0:0:
320,248,34872,1,0,0:0:0:0:
224,320,35203,2,0,L|164:320,1,60,8|0,0:0|0:0,0:0:0:0:
108,296,35535,2,0,P|92:236|100:180,1,120,0|8,0:0|0:0,0:0:0:0:
208,124,36198,6,0,B|324:152|324:72|444:104,1,240,0|0,0:0|0:0,0:0:0:0:
500,208,37192,1,8,0:0:0:0:
424,300,37524,2,0,L|304:280,1,120,0|8,0:0|0:0,0:0:0:0:
252,304,38021,1,0,0:0:0:0:
196,328,38187,2,0,L|76:308,1,120,2|10,0:0|0:0,0:0:0:0:
24,200,38850,5,4,1:2:0:0:
124,132,39181,2,0,L|184:140,1,60,8|0,0:0|0:0,0:0:0:0:
224,184,39513,2,0,L|284:176,1,60
328,136,39844,1,8,0:0:0:0:
444,172,40176,2,0,P|468:228|476:292,1,120,0|8,0:0|0:0,0:0:0:0:
448,340,40673,1,0,0:0:0:0:
392,360,40839,2,0,P|336:338|276:334,1,120,0|8,0:0|0:0,0:0:0:0:
172,272,41502,6,0,P|60:292|0:192,1,240,0|0,0:0|0:0,0:0:0:0:
36,84,42496,1,8,0:0:0:0:
148,44,42828,2,0,P|208:52|264:84,1,120,4|8,1:2|0:0,0:0:0:0:
292,128,43325,1,8,0:0:0:0:
296,188,43491,2,0,L|272:308,1,120,8|8,0:0|0:0,0:0:0:0:
164,356,44154,6,0,P|100:356|48:328,1,120,4|8,1:2|0:0,0:0:0:0:
16,216,44817,2,0,P|48:160|98:129,1,120,0|8,0:0|0:0,0:0:0:0:
212,152,45480,2,0,P|243:207|245:266,1,120,0|8,0:0|0:0,0:0:0:0:
308,368,46143,1,0,0:0:0:0:
420,324,46474,1,8,0:0:0:0:
484,220,46806,6,0,P|496:160|480:100,1,120,0|8,0:0|0:0,0:0:0:0:
436,68,47303,1,0,0:0:0:0:
380,88,47469,2,0,L|256:88,1,120,0|8,0:0|0:0,0:0:0:0:
160,24,48132,1,2,0:0:0:0:
100,128,48463,2,0,L|40:128,2,60,8|2|0,0:0|0:0|0:0,0:0:0:0:
192,204,49126,1,8,0:0:0:0:
308,176,49458,6,0,P|368:188|420:224,1,120,4|8,1:2|0:0,0:0:0:0:
436,276,49955,1,0,0:0:0:0:
392,316,50121,2,0,P|332:304|280:268,1,120,0|8,0:0|0:0,0:0:0:0:
224,284,50618,1,0,0:0:0:0:
188,332,50784,2,0,L|68:332,1,120,0|8,0:0|0:0,0:0:0:0:
20,296,51281,1,0,0:0:0:0:
48,244,51446,2,0,P|56:180|44:124,1,120,0|8,0:0|0:0,0:0:0:0:
148,68,52109,6,0,L|268:84,1,120,4|8,1:2|0:0,0:0:0:0:
324,64,52607,1,0,0:0:0:0:
376,96,52772,2,0,P|396:156|404:212,1,120,0|8,0:0|0:0,0:0:0:0:
344,316,53435,1,2,0:0:0:0:
256,236,53767,2,0,L|256:176,2,60,8|2|0,0:0|0:0|0:0,0:0:0:0:
168,316,54430,1,4,1:2:0:0:
96,220,54761,5,4,1:2:0:0:
168,124,55093,2,0,P|176:96|192:68,1,60,8|0,0:0|0:0,0:0:0:0:
220,16,55424,2,0,L|100:32,1,120,0|8,0:0|0:0,0:0:0:0:
52,64,55922,1,0,0:0:0:0:
24,116,56087,2,0,P|16:176|32:236,1,120,0|8,0:0|0:0,0:0:0:0:
80,268,56585,1,0,0:0:0:0:
132,244,56750,2,0,L|252:244,1,120,0|8,0:0|0:0,0:0:0:0:
336,328,57413,6,0,P|404:332|452:308,1,120,4|8,1:2|0:0,0:0:0:0:
492,268,57911,1,0,0:0:0:0:
496,208,58076,2,0,L|472:88,1,120,0|8,0:0|0:0,0:0:0:0:
356,128,58739,2,0,L|380:8,2,120,0|8|0,0:0|0:0|0:0,0:0:0:0:
256,196,59734,1,8,0:0:0:0:
164,116,60065,6,0,P|104:116|44:136,1,120,4|8,1:2|0:0,0:0:0:0:
47,257,60728,2,0,P|103:275|163:275,1,120,0|8,0:0|0:0,0:0:0:0:
256,196,61391,1,4,1:2:0:0:
364,252,61723,2,0,L|352:372,2,120,8|0|8,0:0|0:0|0:0,0:0:0:0:
256,192,62717,12,0,64043,0:0:0:0:
456,352,65369,6,0,P|468:292|452:236,1,120,4|8,1:2|0:0,0:0:0:0:
408,196,65866,1,0,0:0:0:0:
352,212,66032,2,0,L|232:212,1,120,0|8,0:0|0:0,0:0:0:0:
184,248,66529,1,0,0:0:0:0:
128,224,66695,2,0,P|104:172|104:104,1,120,0|8,0:0|0:0,0:0:0:0:
144,64,67192,2,0,B|236:44|236:104|320:80,1,180,0|8,0:0|0:0,0:0:0:0:
368,44,67855,1,0,0:0:0:0:
424,64,68021,6,0,P|456:120|468:176,1,120,0|8,0:0|0:0,0:0:0:0:
388,264,68684,1,0,0:0:0:0:
276,224,69016,1,8,0:0:0:0:
236,336,69347,1,0,0:0:0:0:
124,288,69679,2,0,L|4:288,2,120,8|0|8,0:0|0:0|0:0,0:0:0:0:
164,176,70673,5,4,1:2:0:0:
276,224,71004,2,0,L|276:284,2,60,8|0|0,0:0|0:0|0:0,0:0:0:0:
388,176,71667,2,0,L|388:116,1,60,8|0,0:0|0:0,0:0:0:0:
360,64,71999,2,0,P|304:40|244:40,1,120,0|8,0:0|0:0,0:0:0:0:
204,80,72496,2,0,P|144:79|89:55,1,120,0|0,0:0|0:0,0:0:0:0:
32,72,72993,2,0,L|24:136,1,60,8|0,0:0|0:0,0:0:0:0:
64,176,73325,6,0,L|80:300,1,120,2|10,0:0|0:0,0:0:0:0:
192,336,73988,2,0,L|176:216,1,120,2|10,0:0|0:0,0:0:0:0:
276,148,74651,1,2,0:0:0:0:
372,220,74982,2,0,P|432:212|496:224,2,120,10|10|10,0:0|0:0|0:0,0:0:0:0:
324,332,75977,6,0,L|208:304,1,120,4|8,1:2|0:0,0:0:0:0:
152,328,76474,1,0,0:0:0:0:
104,292,76640,2,0,P|84:232|84:176,1,120,0|8,0:0|0:0,0:0:0:0:
116,124,77137,1,0,0:0:0:0:
164,92,77303,2,0,L|284:92,1,120,0|8,0:0|0:0,0:0:0:0:
336,64,77800,2,0,P|428:60|496:116,1,180,0|8,0:0|0:0,0:0:0:0:
504,172,78463,1,0,0:0:0:0:
464,216,78629,6,0,L|484:336,1,120,4|8,1:2|0:0,0:0:0:0:
440,376,79126,2,0,P|384:348|328:344,1,120,0|0,0:0|0:0,0:0:0:0:
272,372,79623,1,8,0:0:0:0:
224,336,79789,2,0,L|236:216,1,120,4|0,1:2|0:0,0:0:0:0:
244,156,80286,1,8,0:0:0:0:
164,64,80618,1,0,0:0:0:0:
52,108,80949,1,8,0:0:0:0:
124,204,81281,6,0,P|140:264|132:324,1,120,4|8,1:2|0:0,0:0:0:0:
84,352,81778,1,0,0:0:0:0:
84,352,81944,2,0,L|204:372,1,120,0|8,0:0|0:0,0:0:0:0:
300,304,82607,2,0,L|288:244,1,60,8|8,0:0|0:0,0:0:0:0:
152,56,83933,6,0,L|32:36,2,120,4|8|0,1:2|0:0|0:0,0:0:0:0:
248,132,84928,1,8,0:0:0:0:
348,68,85259,2,0,P|364:132|352:188,1,120,0|8,0:0|0:0,0:0:0:0:
252,248,85922,2,0,P|236:312|248:368,1,120,0|8,0:0|0:0,0:0:0:0:
136,316,86585,6,0,L|16:332,2,120,0|8|0,0:0|0:0|0:0,0:0:0:0:
172,200,87580,1,8,0:0:0:0:
280,148,87911,2,0,L|400:164,2,120,0|4|8,0:0|1:2|0:0,0:0:0:0:
188,72,88905,2,0,P|132:48|72:44,1,120,4|0,1:2|0:0,0:0:0:0:
