osu file format v14

[General]
AudioFilename: audio.MP3
AudioLeadIn: 0
PreviewTime: 64291
Countdown: 0
SampleSet: Soft
StackLeniency: 0.7
Mode: 0
LetterboxInBreaks: 0
WidescreenStoryboard: 1

[Editor]
DistanceSpacing: 1.1
BeatDivisor: 4
GridSize: 4
TimelineZoom: 1.8

[Metadata]
Title:NO, Thank You! (TV Size)
TitleUnicode:NO, Thank You! (TV Size)
Artist:HO-KAGO TEA TIME
ArtistUnicode:放課後ティータイム
Creator:nextplay
Version:Easy
Source:けいおん!!
Tags:K-ON!! HTT Keion Yui Hirasawa Mio Akiyama Ritsu Tainaka Tsumugi Kotobuki Azusa Nakano Toyosaki Aki Hikasa Yoko Sato Satomi Minako Taketatsu Ayana ending ed2 Japanese Anime 平沢唯 秋山澪 田井中律 琴吹紬 中野梓 豊崎愛生 日笠陽子 佐藤聡美 寿美菜子 竹達彩奈
BeatmapID:1891470
BeatmapSetID:906382

[Difficulty]
HPDrainRate:2
CircleSize:3
OverallDifficulty:2
ApproachRate:3
SliderMultiplier:0.799999999999999
SliderTickRate:1

[Events]
//Background and Video events
0,0,"same.jpg",0,0
//Break Periods
//Storyboard Layer 0 (Background)
//Storyboard Layer 1 (Fail)
//Storyboard Layer 2 (Pass)
//Storyboard Layer 3 (Foreground)
//Storyboard Sound Samples

[TimingPoints]
11004,331.491712707182,4,2,2,75,1,0
16970,-100,4,2,2,75,0,0
17633,-100,4,2,2,75,0,0
22274,-100,4,2,2,75,0,0
22937,-100,4,2,2,65,0,0
40423,-100,4,2,2,5,0,0
40506,-100,4,2,2,65,0,0
40755,-100,4,2,2,5,0,0
40838,-100,4,2,2,65,0,0
41086,-100,4,2,2,5,0,0
41169,-100,4,2,2,65,0,0
41418,-100,4,2,2,5,0,0
41501,-100,4,2,2,65,0,0
44153,-100,4,2,2,75,0,0
46390,-100,4,2,2,5,0,0
46473,-100,4,2,2,75,0,0
46722,-100,4,2,2,5,0,0
46805,-100,4,2,2,75,0,0
49042,-100,4,2,2,5,0,0
49125,-100,4,2,2,75,0,0
49374,-100,4,2,2,5,0,0
49457,-100,4,2,2,75,0,0
51694,-100,4,2,2,5,0,0
51777,-100,4,2,2,75,0,0
52026,-100,4,2,2,5,0,0
52108,-100,4,2,2,75,0,0
54346,-100,4,2,2,5,0,0
54429,-100,4,2,2,75,0,0
54678,-100,4,2,2,5,0,0
54760,-100,4,2,2,75,0,0
56998,-100,4,2,2,5,0,0
57081,-100,4,2,2,75,0,0
57329,-100,4,2,2,5,0,0
57412,-100,4,2,2,75,0,0
64374,-100,4,2,2,65,0,0
65368,-100,4,2,2,85,0,1
70589,-100,4,2,2,5,0,1
70672,-100,4,2,2,85,0,1
81197,-100,4,2,2,5,0,1
81280,-100,4,2,2,85,0,1
82771,-100,4,2,2,75,0,0
88573,-100,4,2,2,75,0,0

[Colours]
Combo1 : 168,84,0
Combo2 : 175,175,175
Combo3 : 251,251,0
Combo4 : 255,183,255

[HitObjects]
48,50,11003,6,0,L|131:42,1,79.9999999999999,8|8,0:0|0:0,0:0:0:0:
209,8,11666,2,0,L|292:16,1,79.9999999999999,2|8,1:2|0:0,0:0:0:0:
367,55,12329,6,0,P|383:101|331:193,1,160,6|2,1:2|1:2,0:0:0:0:
250,159,13324,1,8,0:0:0:0:
167,186,13655,2,0,P|156:230|167:268,1,79.9999999999999,2|8,1:2|0:0,0:0:0:0:
222,329,14318,2,0,L|312:322,1,79.9999999999999,2|8,1:2|0:0,0:0:0:0:
378,365,14981,6,0,B|416:283|355:293|383:199,1,160,2|2,1:2|1:2,0:0:0:0:
414,128,15976,1,8,0:0:0:0:
350,66,16307,2,0,P|326:54|256:56,1,79.9999999999999,2|10,1:2|0:0,0:0:0:0:
209,110,16970,2,0,P|185:122|115:120,1,79.9999999999999,4|4,1:2|0:0,0:0:0:0:
55,82,17633,6,0,P|29:149|74:237,1,160,6|2,1:2|1:2,0:0:0:0:
138,269,18628,1,8,0:0:0:0:
155,355,18959,2,0,L|244:346,1,79.9999999999999,2|8,1:2|0:0,0:0:0:0:
293,281,19622,2,0,L|382:290,1,79.9999999999999,2|8,1:2|0:0,0:0:0:0:
455,319,20285,6,0,P|486:252|457:162,1,160,2|2,1:2|1:2,0:0:0:0:
396,115,21280,1,8,0:0:0:0:
312,145,21611,2,0,L|221:138,1,79.9999999999999,2|10,1:2|0:0,0:0:0:0:
165,81,22274,2,0,L|74:88,1,79.9999999999999,4|4,0:0|0:0,0:0:0:0:
32,157,22937,5,6,1:2:0:0:
106,204,23269,2,0,B|136:290|82:285|117:368,1,160,10|10,0:0|0:0,0:0:0:0:
193,322,24263,2,0,L|272:313,1,79.9999999999999,2|10,1:2|0:0,0:0:0:0:
341,367,24926,2,0,L|420:376,1,79.9999999999999,2|10,1:2|0:0,0:0:0:0:
489,321,25589,6,0,P|502:278|495:227,1,79.9999999999999,2|8,1:2|0:0,0:0:0:0:
449,170,26252,1,2,1:2:0:0:
409,0,26915,2,0,L|242:1,1,160,2|2,1:2|1:2,0:0:0:0:
74,24,28241,5,6,1:2:0:0:
5,79,28573,2,0,P|-8:108|50:219,1,160,10|8,0:0|0:0,0:0:0:0:
123,249,29567,2,0,P|131:284|114:332,1,79.9999999999999,2|8,1:2|0:0,0:0:0:0:
196,365,30230,2,0,L|291:357,1,79.9999999999999,2|10,1:2|0:0,0:0:0:0:
319,282,30893,6,0,L|415:289,1,79.9999999999999,2|8,1:2|0:0,0:0:0:0:
478,251,31556,1,2,1:2:0:0:
438,80,32219,2,0,L|274:88,1,160,2|2,1:2|1:2,0:0:0:0:
100,81,33545,5,6,1:2:0:0:
33,137,33876,2,0,P|13:226|52:300,1,160,10|10,0:0|1:2,0:0:0:0:
116,330,34871,2,0,P|147:305|192:303,1,79.9999999999999,2|8,1:2|0:0,0:0:0:0:
266,337,35534,2,0,P|297:362|342:364,1,79.9999999999999,2|10,1:2|1:2,0:0:0:0:
403,310,36197,6,0,L|393:217,1,79.9999999999999,2|8,1:2|0:0,0:0:0:0:
429,149,36860,1,2,1:2:0:0:
309,18,37523,2,0,P|271:1|176:54,1,160,2|2,1:2|1:2,0:0:0:0:
235,219,38849,5,6,1:2:0:0:
195,297,39180,2,0,L|27:288,1,160,10|10,0:0|0:0,0:0:0:0:
5,205,40175,2,0,P|2:176|18:122,1,79.9999999999999,2|10,1:2|0:0,0:0:0:0:
75,63,40838,2,0,L|168:59,1,79.9999999999999,2|10,1:2|0:0,0:0:0:0:
234,101,41501,6,0,L|313:96,1,79.9999999999999,6|8,1:2|0:0,0:0:0:0:
400,79,42164,2,0,P|415:117|406:174,1,79.9999999999999,2|8,1:2|0:0,0:0:0:0:
368,231,42827,1,2,1:2:0:0:
422,299,43158,1,10,0:0:0:0:
356,358,43490,2,0,L|273:354,1,79.9999999999999,10|10,1:2|0:0,0:0:0:0:
188,343,44153,6,0,P|168:305|193:189,1,160,6|0,1:2|1:2,0:0:0:0:
160,110,45147,1,8,0:0:0:0:
205,34,45479,2,0,P|230:25|290:42,1,79.9999999999999,2|8,1:2|0:0,0:0:0:0:
359,74,46142,2,0,P|384:83|444:66,1,79.9999999999999,2|10,1:2|0:0,0:0:0:0:
502,129,46805,6,0,L|486:299,1,160,6|2,1:2|1:2,0:0:0:0:
410,331,47799,1,8,0:0:0:0:
358,260,48131,2,0,P|320:253|279:269,1,79.9999999999999,2|2,0:0|0:0,0:0:0:0:
236,342,48794,2,0,P|198:349|157:333,1,79.9999999999999,2|10,1:2|0:0,0:0:0:0:
75,311,49457,6,0,P|97:239|58:165,1,160,6|2,1:2|1:2,0:0:0:0:
0,105,50451,1,8,0:0:0:0:
72,54,50783,2,0,L|166:50,1,79.9999999999999,2|8,1:2|0:0,0:0:0:0:
226,97,51445,2,0,L|320:101,1,79.9999999999999,2|10,1:2|0:0,0:0:0:0:
386,64,52108,6,0,B|413:162|358:151|378:230,1,160,6|2,1:2|1:2,0:0:0:0:
426,294,53103,1,8,0:0:0:0:
349,336,53434,2,0,L|255:329,1,79.9999999999999,2|2,0:0|0:0,0:0:0:0:
195,282,54097,2,0,L|101:289,1,79.9999999999999,2|10,1:2|0:0,0:0:0:0:
34,322,54760,6,0,P|6:261|42:165,1,160,6|2,1:2|1:2,0:0:0:0:
103,123,55755,1,8,0:0:0:0:
180,81,56086,2,0,L|185:-9,1,79.9999999999999,2|8,1:2|0:0,0:0:0:0:
271,13,56749,2,0,P|311:23|360:11,1,79.9999999999999,2|10,1:2|0:0,0:0:0:0:
431,45,57412,6,0,P|411:74|441:188,1,160,6|2,1:2|1:2,0:0:0:0:
497,252,58407,1,8,0:0:0:0:
415,284,58738,2,0,P|431:323|421:371,1,79.9999999999999,2|8,1:2|0:0,0:0:0:0:
338,365,59401,2,0,L|253:361,1,79.9999999999999,0|10,1:2|0:0,0:0:0:0:
179,322,60064,6,0,P|192:281|182:243,1,79.9999999999999,6|8,1:2|0:0,0:0:0:0:
101,213,60727,2,0,P|88:172|98:134,1,79.9999999999999,2|10,1:2|0:0,0:0:0:0:
126,52,61390,1,6,1:2:0:0:
199,100,61722,1,10,0:0:0:0:
262,39,62053,2,0,L|349:36,1,79.9999999999999,2|10,1:2|0:0,0:0:0:0:
429,25,62716,6,0,P|393:68|407:180,1,160,2|2,1:2|1:2,0:0:0:0:
471,217,63711,1,8,0:0:0:0:
431,295,64042,1,2,1:2:0:0:
431,295,65368,6,0,L|351:304,1,79.9999999999999,6|8,1:2|0:0,0:0:0:0:
278,353,66031,2,0,L|198:344,1,79.9999999999999,0|8,1:2|0:0,0:0:0:0:
123,298,66694,2,0,P|146:273|137:148,1,160,2|0,1:2|1:2,0:0:0:0:
86,85,67689,1,8,0:0:0:0:
154,29,68020,6,0,L|248:23,1,79.9999999999999,6|8,1:2|0:0,0:0:0:0:
305,74,68683,2,0,L|399:80,1,79.9999999999999,2|8,1:2|0:0,0:0:0:0:
468,50,69346,1,2,1:2:0:0:
506,129,69678,2,0,P|511:150|497:213,1,79.9999999999999,10|2,0:0|1:2,0:0:0:0:
449,278,70341,1,10,0:0:0:0:
381,221,70672,6,0,L|289:214,1,79.9999999999999,6|8,1:2|0:0,0:0:0:0:
234,272,71335,2,0,L|142:279,1,79.9999999999999,2|8,1:2|0:0,0:0:0:0:
94,343,71998,2,0,P|69:268|112:198,1,160,6|0,1:2|1:2,0:0:0:0:
192,180,72992,1,8,0:0:0:0:
167,95,73324,6,0,L|157:14,1,79.9999999999999,2|10,1:2|0:0,0:0:0:0:
245,21,73987,2,0,P|281:37|328:39,1,79.9999999999999,2|8,1:2|0:0,0:0:0:0:
406,16,74650,1,2,1:2:0:0:
472,73,74981,2,0,L|460:168,1,79.9999999999999,10|2,0:0|1:2,0:0:0:0:
507,228,75644,1,8,0:0:0:0:
456,300,75976,6,0,P|427:313|372:303,1,79.9999999999999,6|8,1:2|0:0,0:0:0:0:
316,248,76639,2,0,P|287:235|232:245,1,79.9999999999999,2|8,1:2|0:0,0:0:0:0:
176,301,77302,2,0,P|191:266|161:153,1,160,2|0,1:2|0:0,0:0:0:0:
76,127,78296,1,8,0:0:0:0:
127,55,78628,6,0,L|221:50,1,79.9999999999999,2|8,1:2|0:0,0:0:0:0:
283,95,79291,2,0,L|377:100,1,79.9999999999999,0|8,1:2|0:0,0:0:0:0:
450,86,79954,2,0,P|465:123|460:164,1,79.9999999999999,2|8,1:2|0:0,0:0:0:0:
392,217,80617,1,2,1:2:0:0:
437,292,80948,1,8,0:0:0:0:
370,350,81280,6,0,P|295:328|210:368,1,160,2|2,1:2|1:2,0:0:0:0:
133,359,82274,1,8,0:0:0:0:
58,312,82606,2,0,L|60:270,1,40,4|4,0:0|0:0,0:0:0:0:
59,272,83932,6,0,L|70:108,1,160,6|2,1:2|1:2,0:0:0:0:
109,33,84926,1,8,0:0:0:0:
182,84,85258,2,0,P|207:95|273:92,1,79.9999999999999,2|8,1:2|0:0,0:0:0:0:
333,49,85921,2,0,P|358:38|424:41,1,79.9999999999999,2|8,1:2|0:0,0:0:0:0:
481,87,86584,6,0,P|452:162|481:241,1,160,2|2,1:2|1:2,0:0:0:0:
506,317,87578,1,8,0:0:0:0:
433,366,87910,2,0,L|350:362,1,79.9999999999999,2|10,1:2|0:0,0:0:0:0:
266,344,88573,5,4,1:2:0:0:
182,370,88904,1,4,0:0:0:0:
